Various Artists - Classic Rock presents Prog: Prognosis 5
--Жанр: Progressive Rock
Носитель: CD
производитель диска: EU
Год издания: 2009
Издатель (лейбл): Future
Аудиокодек: FLAC (*.flac)
Тип рипа: tracks+.cue
Битрейт аудио: lossless
Продолжительность: 01:13:02
Источник: internet
Наличие сканов: да
Треклист:
01. Transatlantic - Overture, Whirlwind [00:05:05]
02. Nosound - Fading Silently [00:08:26]
03. Within Temptation - Stand My Ground (Live) [00:03:52]
04. 4.3 - Rabid Animals [00:04:02]
05. Caramel Jack - We Could Build Skyscrapers [00:04:45]
06. Madder Mortem - Life, Lust And Liberty [00:04:16]
07. Adventure - A Crack In The Ice, Part 2 [00:06:54]
08. Big Big Train - Last Train [00:06:25]
09. Sanctuary Rig - Life Song [00:06:07]
10. Shadow Circus - Angel [00:07:01]
11. Mostly Autumn - Evergreen (Live) [00:08:22]
12. Makajodama - The Ayurvedic Soap [00:07:41]

-

Лог создания рипа

Exact Audio Copy V1.0 beta 3 from 29. August 2011
EAC extraction logfile from 11. May 2013, 10:29
Various Artists / Classic Rock presents Prog: Prognosis 5
Used drive : TSSTcorpCDDVDW SH-224BB Adapter: 1 ID: 0
Read mode : Secure
Utilize accurate stream : Yes
Defeat audio cache : Yes
Make use of C2 pointers : No
Read offset correction : 6
Overread into Lead-In and Lead-Out : No
Fill up missing offset samples with silence : Yes
Delete leading and trailing silent blocks : No
Null samples used in CRC calculations : Yes
Used interface : Native Win32 interface for Win NT & 2000
Gap handling : Appended to previous track
Used output format : User Defined Encoder
Selected bitrate : 896 kBit/s
Quality : High
Add ID3 tag : No
Command line compressor : C:\Program Files (x86)\FLAC\flac.exe
Additional command line options : -8 -V -T "artist=%artist%" -T "albumartist=%albumartist%" -T "album=%albumtitle%" -T "title=%title%" -T "year=%year%" -T "tracknumber=%tracknr2%" -T "genre=%genre%" %source% -o %dest%
TOC of the extracted CD
Track | Start | Length | Start sector | End sector
---------------------------------------------------------
1 | 0:00.00 | 5:05.42 | 0 | 22916
2 | 5:05.42 | 8:26.04 | 22917 | 60870
3 | 13:31.46 | 3:52.39 | 60871 | 78309
4 | 17:24.10 | 4:02.38 | 78310 | 96497
5 | 21:26.48 | 4:45.27 | 96498 | 117899
6 | 26:12.00 | 4:16.70 | 117900 | 137169
7 | 30:28.70 | 6:54.17 | 137170 | 168236
8 | 37:23.12 | 6:25.57 | 168237 | 197168
9 | 43:48.69 | 6:07.42 | 197169 | 224735
10 | 49:56.36 | 7:01.60 | 224736 | 256370
11 | 56:58.21 | 8:22.35 | 256371 | 294055
12 | 65:20.56 | 7:41.56 | 294056 | 328686
13 | 75:34.37 | 3:07.64 | 340087 | 354175
Track 1
Filename F:\My Documents\My Music\Albums (Complete)\01. Transatlantic - Overture, Whirlwind.wav
Pre-gap length 0:00:02.00
Peak level 98.8 %
Extraction speed 2.0 X
Track quality 100.0 %
Test CRC 196A0F8A
Copy CRC 196A0F8A
Accurately ripped (confidence 2) [1F689E42] (AR v2)
Copy OK
Track 2
Filename F:\My Documents\My Music\Albums (Complete)\02. Nosound - Fading Silently.wav
Pre-gap length 0:00:02.00
Peak level 96.0 %
Extraction speed 2.4 X
Track quality 100.0 %
Test CRC 783FA2BE
Copy CRC 783FA2BE
Accurately ripped (confidence 2) [EA672F21] (AR v2)
Copy OK
Track 3
Filename F:\My Documents\My Music\Albums (Complete)\03. Within Temptation - Stand My Ground (Live).wav
Pre-gap length 0:00:02.00
Peak level 100.0 %
Extraction speed 2.5 X
Track quality 100.0 %
Test CRC 50B83BDD
Copy CRC 50B83BDD
Accurately ripped (confidence 2) [728E2FE2] (AR v2)
Copy OK
Track 4
Filename F:\My Documents\My Music\Albums (Complete)\04. 4.3 - Rabid Animals.wav
Pre-gap length 0:00:02.00
Peak level 100.0 %
Extraction speed 2.6 X
Track quality 100.0 %
Test CRC 3D8FAABE
Copy CRC 3D8FAABE
Accurately ripped (confidence 2) [C13A91C6] (AR v2)
Copy OK
Track 5
Filename F:\My Documents\My Music\Albums (Complete)\05. Caramel Jack - We Could Build Skyscrapers.wav
Pre-gap length 0:00:02.00
Peak level 97.7 %
Extraction speed 2.8 X
Track quality 100.0 %
Test CRC 4A987DB8
Copy CRC 4A987DB8
Accurately ripped (confidence 2) [EA1C8FA3] (AR v2)
Copy OK
Track 6
Filename F:\My Documents\My Music\Albums (Complete)\06. Madder Mortem - Life, Lust And Liberty.wav
Pre-gap length 0:00:02.00
Peak level 99.4 %
Extraction speed 2.5 X
Track quality 99.9 %
Test CRC 6966BFB9
Copy CRC 6966BFB9
Accurately ripped (confidence 2) [F8458C77] (AR v2)
Copy OK
Track 7
Filename F:\My Documents\My Music\Albums (Complete)\07. Adventure - A Crack In The Ice, Part 2.wav
Pre-gap length 0:00:02.00
Peak level 98.8 %
Extraction speed 4.9 X
Track quality 100.0 %
Test CRC 8FC66861
Copy CRC 8FC66861
Accurately ripped (confidence 2) [37A092FF] (AR v2)
Copy OK
Track 8
Filename F:\My Documents\My Music\Albums (Complete)\08. Big Big Train - Last Train.wav
Pre-gap length 0:00:02.00
Peak level 99.4 %
Extraction speed 4.3 X
Track quality 99.9 %
Test CRC 9607C007
Copy CRC 9607C007
Accurately ripped (confidence 2) [F7096CE9] (AR v2)
Copy OK
Track 9
Filename F:\My Documents\My Music\Albums (Complete)\09. Sanctuary Rig - Life Song.wav
Pre-gap length 0:00:02.00
Peak level 99.4 %
Extraction speed 5.1 X
Track quality 100.0 %
Test CRC 8C6CCAF7
Copy CRC 8C6CCAF7
Accurately ripped (confidence 2) [63130DE0] (AR v2)
Copy OK
Track 10
Filename F:\My Documents\My Music\Albums (Complete)\10. Shadow Circus - Angel.wav
Pre-gap length 0:00:02.00
Peak level 98.8 %
Extraction speed 5.7 X
Track quality 100.0 %
Test CRC 393A7695
Copy CRC 393A7695
Accurately ripped (confidence 2) [3C1EDA12] (AR v2)
Copy OK
Track 11
Filename F:\My Documents\My Music\Albums (Complete)\11. Mostly Autumn - Evergreen (Live).wav
Pre-gap length 0:00:02.00
Peak level 96.4 %
Extraction speed 6.1 X
Track quality 100.0 %
Test CRC 65E6A2EF
Copy CRC 65E6A2EF
Accurately ripped (confidence 2) [09A6F250] (AR v2)
Copy OK
Track 12
Filename F:\My Documents\My Music\Albums (Complete)\12. Makajodama - The Ayurvedic Soap.wav
Pre-gap length 0:00:02.00
Peak level 96.5 %
Extraction speed 6.3 X
Track quality 100.0 %
Test CRC 078CC813
Copy CRC 078CC813
Accurately ripped (confidence 2) [0D2E7352] (AR v2)
Copy OK
All tracks accurately ripped
No errors occurred
End of status report
==== Log checksum 0C10214C8FA1582BE3DCF1D7E83ECC1EEA75C56B4B9677A20C0FEDBD10918D2F ====

Содержание индексной карты (.CUE)

REM GENRE "Progressive Rock"
REM DATE 2009
REM DISCID B212720D
REM COMMENT "ExactAudioCopy v1.0b3"
PERFORMER "Various Artists"
TITLE "Classic Rock presents Prog: Prognosis 5"
FILE "01. Transatlantic - Overture, Whirlwind.wav" WAVE
TRACK 01 AUDIO
TITLE "Overture, Whirlwind"
PERFORMER "Transatlantic"
INDEX 01 00:00:00
TRACK 02 AUDIO
TITLE "Fading Silently"
PERFORMER "Nosound"
INDEX 00 05:03:42
FILE "02. Nosound - Fading Silently.wav" WAVE
INDEX 01 00:00:00
TRACK 03 AUDIO
TITLE "Stand My Ground (Live)"
PERFORMER "Within Temptation"
INDEX 00 08:24:04
FILE "03. Within Temptation - Stand My Ground (Live).wav" WAVE
INDEX 01 00:00:00
TRACK 04 AUDIO
TITLE "Rabid Animals"
PERFORMER "4.3"
INDEX 00 03:50:39
FILE "04. 4.3 - Rabid Animals.wav" WAVE
INDEX 01 00:00:00
TRACK 05 AUDIO
TITLE "We Could Build Skyscrapers"
PERFORMER "Caramel Jack"
INDEX 00 04:00:38
FILE "05. Caramel Jack - We Could Build Skyscrapers.wav" WAVE
INDEX 01 00:00:00
TRACK 06 AUDIO
TITLE "Life, Lust And Liberty"
PERFORMER "Madder Mortem"
INDEX 00 04:43:27
FILE "06. Madder Mortem - Life, Lust And Liberty.wav" WAVE
INDEX 01 00:00:00
TRACK 07 AUDIO
TITLE "A Crack In The Ice, Part 2"
PERFORMER "Adventure"
INDEX 00 04:14:70
FILE "07. Adventure - A Crack In The Ice, Part 2.wav" WAVE
INDEX 01 00:00:00
TRACK 08 AUDIO
TITLE "Last Train"
PERFORMER "Big Big Train"
INDEX 00 06:52:17
FILE "08. Big Big Train - Last Train.wav" WAVE
INDEX 01 00:00:00
TRACK 09 AUDIO
TITLE "Life Song"
PERFORMER "Sanctuary Rig"
INDEX 00 06:23:57
FILE "09. Sanctuary Rig - Life Song.wav" WAVE
INDEX 01 00:00:00
TRACK 10 AUDIO
TITLE "Angel"
PERFORMER "Shadow Circus"
INDEX 00 06:05:42
FILE "10. Shadow Circus - Angel.wav" WAVE
INDEX 01 00:00:00
TRACK 11 AUDIO
TITLE "Evergreen (Live)"
PERFORMER "Mostly Autumn"
INDEX 00 06:59:60
FILE "11. Mostly Autumn - Evergreen (Live).wav" WAVE
INDEX 01 00:00:00
TRACK 12 AUDIO
TITLE "The Ayurvedic Soap"
PERFORMER "Makajodama"
INDEX 00 08:20:35
FILE "12. Makajodama - The Ayurvedic Soap.wav" WAVE
INDEX 01 00:00:00
TRACK 13 MODEx/2xxx
TITLE "Data"
PERFORMER "Unknown"
INDEX 00 07:41:56

Лог проверки качества

-----------------------
DON'T MODIFY THIS FILE
-----------------------
PERFORMER: auCDtect Task Manager, ver. 1.5.1RC6 build 1.5.1.7
Copyright (c) 2008-2010 y-soft. All rights reserved
http://y-soft.org
ANALYZER: auCDtect: CD records authenticity detector, version 0.8.2
Copyright (c) 2004 Oleg Berngardt. All rights reserved.
Copyright (c) 2004 Alexander Djourik. All rights reserved.
FILE: 12. Makajodama - The Ayurvedic Soap.flac
Size: 46773328 Hash: B73D55B4B33DF46E5C6210780E23803D Accuracy: -m0
Conclusion: CDDA 100%
Signature: 08E57EB58749C1B27CB2DB6D48257D6C69264E3C
FILE: 11. Mostly Autumn - Evergreen (Live).flac
Size: 55962665 Hash: C8C5837CA7DFE97ACEB0D57FAB20E755 Accuracy: -m0
Conclusion: CDDA 100%
Signature: 15A70944C4EB01574042ECF59A3447F76CF98B49
FILE: 10. Shadow Circus - Angel.flac
Size: 47347773 Hash: 431B6FCAF9DD9CB0853F425AA8CD47A2 Accuracy: -m0
Conclusion: CDDA 100%
Signature: 5A0F0059788B243E8A61F69E851C469FE7FAB0D6
FILE: 09. Sanctuary Rig - Life Song.flac
Size: 35718457 Hash: D869AD87F68FDA54D7DF042E3DBA6E4F Accuracy: -m0
Conclusion: MPEG 95%
Signature: 93D81E1BA4F5CF6E680D693B4B750633B6E785CA
FILE: 08. Big Big Train - Last Train.flac
Size: 46145395 Hash: B969387DE10FAEFAC70206DCF8E7C0EA Accuracy: -m0
Conclusion: CDDA 100%
Signature: EC7B7A467EA3985FBA70B96C4749C7A4BD7756D2
FILE: 07. Adventure - A Crack In The Ice, Part 2.flac
Size: 51382320 Hash: 38E0D2EE0F1150F0CAE95C46C5D0F5FD Accuracy: -m0
Conclusion: CDDA 100%
Signature: 27A2600E02A10A946529C392E287B810DD26229A
FILE: 06. Madder Mortem - Life, Lust And Liberty.flac
Size: 33633058 Hash: B93E1388D639C211B51E042DD26DA9C1 Accuracy: -m0
Conclusion: CDDA 100%
Signature: 00D476C03276A9283008E1359AD2A17E01A1FB98
FILE: 05. Caramel Jack - We Could Build Skyscrapers.flac
Size: 37111485 Hash: 0BA0E1C54A49CD3F501A5A286948F5B9 Accuracy: -m0
Conclusion: CDDA 100%
Signature: F3810C0461280DDCEC1A29620BDFC1930FE2FEE8
FILE: 04. 4.3 - Rabid Animals.flac
Size: 31443236 Hash: 7626F742DB445CDF8DC9787957CBD6BB Accuracy: -m0
Conclusion: CDDA 100%
Signature: 7646D87BF769EB8E2E15A8D7370B3DE15415FAEB
FILE: 03. Within Temptation - Stand My Ground (Live).flac
Size: 27373922 Hash: 025B966B6AD0F8AD74064E2209E8E899 Accuracy: -m0
Conclusion: MPEG 95%
Signature: 17C6182EA0297167DD61298C50FC411F55C0B209
FILE: 02. Nosound - Fading Silently.flac
Size: 57218666 Hash: 3A5C1558D2E73F34A96098708AE87A8A Accuracy: -m0
Conclusion: CDDA 100%
Signature: EF52F550BF162BE457C71D1CD351848CBC6606BC
FILE: 01. Transatlantic - Overture, Whirlwind.flac
Size: 38561412 Hash: 1D454DBA6D21DAAE49B74EBCA006634F Accuracy: -m0
Conclusion: CDDA 99%
Signature: 9C4A4312640F268F71491849EF7FA85134F2CB87

Скриншот спектра частот

To download the file disable ad blocking, and reload the page.

disable adblock How to disable ad blocking?

Download by magnet link 487 MB Download Torrent

Login using:

Similar topics



   
Current time is: 15-Nov 23:54 :: All times are UTC + 3