Various Artists - Classic Rock presents Prog: Prognosis 4
--Жанр: Progressive Rock
Носитель: CD
производитель диска: EU
Год издания: 2009
Издатель (лейбл): Future
Аудиокодек: FLAC (*.flac)
Тип рипа: tracks+.cue
Битрейт аудио: lossless
Продолжительность: 01:08:58
Источник: internet
Наличие сканов: да
Треклист:
01. Magenta - Gluttony [00:07:02]
02. 25 Yard Screamer with Ben Randall - Broken Machine [00:05:52]
03. Ebony Tower - White Rabbit [00:04:58]
04. Abel Ganz - So Far (Edit) [00:09:58]
05. The Enid - Malacandra, The Silent Planet (Edit) [00:07:01]
06. Arjen Lucassen's Guilt Machine - Perfection [00:10:44]
07. Sunchild - The Invisible Line, Part 1 [00:06:24]
08. Secret Green - Tom 'O' Bedlam [00:08:26]
09. Yak - The Journey Of Yak [00:08:29]

-

Лог создания рипа

Exact Audio Copy V1.0 beta 3 from 29. August 2011
EAC extraction logfile from 11. May 2013, 9:42
Various Artists / Classic Rock presents Prog: Prognosis 4
Used drive : TSSTcorpCDDVDW SH-224BB Adapter: 1 ID: 0
Read mode : Secure
Utilize accurate stream : Yes
Defeat audio cache : Yes
Make use of C2 pointers : No
Read offset correction : 6
Overread into Lead-In and Lead-Out : No
Fill up missing offset samples with silence : Yes
Delete leading and trailing silent blocks : No
Null samples used in CRC calculations : Yes
Used interface : Native Win32 interface for Win NT & 2000
Gap handling : Appended to previous track
Used output format : User Defined Encoder
Selected bitrate : 896 kBit/s
Quality : High
Add ID3 tag : No
Command line compressor : C:\Program Files (x86)\FLAC\flac.exe
Additional command line options : -8 -V -T "artist=%artist%" -T "albumartist=%albumartist%" -T "album=%albumtitle%" -T "title=%title%" -T "year=%year%" -T "tracknumber=%tracknr2%" -T "genre=%genre%" %source% -o %dest%
TOC of the extracted CD
Track | Start | Length | Start sector | End sector
---------------------------------------------------------
1 | 0:00.00 | 7:02.60 | 0 | 31709
2 | 7:02.60 | 5:52.54 | 31710 | 58163
3 | 12:55.39 | 4:58.02 | 58164 | 80515
4 | 17:53.41 | 9:58.46 | 80516 | 125411
5 | 27:52.12 | 7:01.70 | 125412 | 157056
6 | 34:54.07 | 10:44.14 | 157057 | 205370
7 | 45:38.21 | 6:24.07 | 205371 | 234177
8 | 52:02.28 | 8:26.49 | 234178 | 272176
9 | 60:29.02 | 8:29.36 | 272177 | 310387
10 | 71:30.38 | 2:05.66 | 321788 | 331228
Track 1
Filename F:\My Documents\My Music\Albums (Complete)\01. Magenta - Gluttony.wav
Pre-gap length 0:00:02.00
Peak level 99.4 %
Extraction speed 2.0 X
Track quality 100.0 %
Test CRC 3BCDFAA6
Copy CRC 3BCDFAA6
Accurately ripped (confidence 12) [87CDDAEC] (AR v1)
Copy OK
Track 2
Filename F:\My Documents\My Music\Albums (Complete)\02. 25 Yard Screamer with Ben Randall - Broken Machine.wav
Pre-gap length 0:00:02.00
Peak level 100.0 %
Extraction speed 2.3 X
Track quality 100.0 %
Test CRC C377BAD3
Copy CRC C377BAD3
Accurately ripped (confidence 12) [AA2B0602] (AR v1)
Copy OK
Track 3
Filename F:\My Documents\My Music\Albums (Complete)\03. Ebony Tower - White Rabbit.wav
Pre-gap length 0:00:02.00
Peak level 99.9 %
Extraction speed 2.4 X
Track quality 100.0 %
Test CRC 22FCE6A2
Copy CRC 22FCE6A2
Accurately ripped (confidence 12) [EAF6C1B3] (AR v1)
Copy OK
Track 4
Filename F:\My Documents\My Music\Albums (Complete)\04. Abel Ganz - So Far (Edit).wav
Pre-gap length 0:00:02.00
Peak level 100.0 %
Extraction speed 2.8 X
Track quality 100.0 %
Test CRC CEAB6461
Copy CRC CEAB6461
Accurately ripped (confidence 11) [FACA13A5] (AR v1)
Copy OK
Track 5
Filename F:\My Documents\My Music\Albums (Complete)\05. The Enid - Malacandra, The Silent Planet (Edit).wav
Pre-gap length 0:00:02.00
Peak level 97.7 %
Extraction speed 2.7 X
Track quality 99.9 %
Test CRC 60CD693D
Copy CRC 60CD693D
Accurately ripped (confidence 11) [6FC87FC9] (AR v1)
Copy OK
Track 6
Filename F:\My Documents\My Music\Albums (Complete)\06. Arjen Lucassen's Guilt Machine - Perfection.wav
Pre-gap length 0:00:02.00
Peak level 94.3 %
Extraction speed 3.4 X
Track quality 100.0 %
Test CRC D8F432E2
Copy CRC D8F432E2
Accurately ripped (confidence 12) [3259E93A] (AR v1)
Copy OK
Track 7
Filename F:\My Documents\My Music\Albums (Complete)\07. Sunchild - The Invisible Line, Part 1.wav
Pre-gap length 0:00:02.00
Peak level 98.4 %
Extraction speed 2.9 X
Track quality 99.9 %
Test CRC 2DBE6738
Copy CRC 2DBE6738
Accurately ripped (confidence 12) [95BBB3C7] (AR v1)
Copy OK
Track 8
Filename F:\My Documents\My Music\Albums (Complete)\08. Secret Green - Tom 'O' Bedlam.wav
Pre-gap length 0:00:02.00
Peak level 97.7 %
Extraction speed 3.8 X
Track quality 100.0 %
Test CRC E3AB7577
Copy CRC E3AB7577
Accurately ripped (confidence 11) [6E317B2C] (AR v1)
Copy OK
Track 9
Filename F:\My Documents\My Music\Albums (Complete)\09. Yak - The Journey Of Yak.wav
Pre-gap length 0:00:02.00
Peak level 84.1 %
Extraction speed 4.0 X
Track quality 100.0 %
Test CRC 316623A4
Copy CRC 316623A4
Accurately ripped (confidence 10) [73CF5368] (AR v1)
Copy OK
All tracks accurately ripped
No errors occurred
End of status report
==== Log checksum 7B06594AD545E71CB953933AF3B8118ED3D18C4C333324CB0C876061546C950D ====

Содержание индексной карты (.CUE)

REM GENRE "Progressive Rock"
REM DATE 2009
REM DISCID 8611400A
REM COMMENT "ExactAudioCopy v1.0b3"
PERFORMER "Various Artists"
TITLE "Classic Rock presents Prog: Prognosis 4"
FILE "01. Magenta - Gluttony.wav" WAVE
TRACK 01 AUDIO
TITLE "Gluttony"
PERFORMER "Magenta"
INDEX 01 00:00:00
TRACK 02 AUDIO
TITLE "Broken Machine"
PERFORMER "25 Yard Screamer with Ben Randall"
INDEX 00 07:00:60
FILE "02. 25 Yard Screamer with Ben Randall - Broken Machine.wav" WAVE
INDEX 01 00:00:00
TRACK 03 AUDIO
TITLE "White Rabbit"
PERFORMER "Ebony Tower"
INDEX 00 05:50:54
FILE "03. Ebony Tower - White Rabbit.wav" WAVE
INDEX 01 00:00:00
TRACK 04 AUDIO
TITLE "So Far (Edit)"
PERFORMER "Abel Ganz"
INDEX 00 04:56:02
FILE "04. Abel Ganz - So Far (Edit).wav" WAVE
INDEX 01 00:00:00
TRACK 05 AUDIO
TITLE "Malacandra, The Silent Planet (Edit)"
PERFORMER "The Enid"
INDEX 00 09:56:46
FILE "05. The Enid - Malacandra, The Silent Planet (Edit).wav" WAVE
INDEX 01 00:00:00
TRACK 06 AUDIO
TITLE "Perfection"
PERFORMER "Arjen Lucassen's Guilt Machine"
INDEX 00 06:59:70
FILE "06. Arjen Lucassen's Guilt Machine - Perfection.wav" WAVE
INDEX 01 00:00:00
TRACK 07 AUDIO
TITLE "The Invisible Line, Part 1"
PERFORMER "Sunchild"
INDEX 00 10:42:14
FILE "07. Sunchild - The Invisible Line, Part 1.wav" WAVE
INDEX 01 00:00:00
TRACK 08 AUDIO
TITLE "Tom 'O' Bedlam"
PERFORMER "Secret Green"
INDEX 00 06:22:07
FILE "08. Secret Green - Tom 'O' Bedlam.wav" WAVE
INDEX 01 00:00:00
TRACK 09 AUDIO
TITLE "The Journey Of Yak"
PERFORMER "Yak"
INDEX 00 08:24:49
FILE "09. Yak - The Journey Of Yak.wav" WAVE
INDEX 01 00:00:00
TRACK 10 MODEx/2xxx
TITLE "Track10"
PERFORMER "Various Artists"
INDEX 00 08:29:36

Лог проверки качества

-----------------------
DON'T MODIFY THIS FILE
-----------------------
PERFORMER: auCDtect Task Manager, ver. 1.5.1RC6 build 1.5.1.7
Copyright (c) 2008-2010 y-soft. All rights reserved
http://y-soft.org
ANALYZER: auCDtect: CD records authenticity detector, version 0.8.2
Copyright (c) 2004 Oleg Berngardt. All rights reserved.
Copyright (c) 2004 Alexander Djourik. All rights reserved.
FILE: 09. Yak - The Journey Of Yak.flac
Size: 55376114 Hash: 01E5D6E4F22F9831496A16230B9C4924 Accuracy: -m0
Conclusion: CDDA 99%
Signature: 599106DD514CE33EA04E9FB1E4E7D9AF81C91C33
FILE: 08. Secret Green - Tom 'O' Bedlam.flac
Size: 49385734 Hash: 54CC1C71FA9F4D85E70A40CDEBCC00F1 Accuracy: -m0
Conclusion: CDDA 99%
Signature: 054F93C46993248713C6A2490127AC9707DA3081
FILE: 07. Sunchild - The Invisible Line, Part 1.flac
Size: 47180353 Hash: F5A82B5F142314EB7FAB7888DF474AC0 Accuracy: -m0
Conclusion: CDDA 100%
Signature: 04511A9838810150F455E62D0E954C001ED95763
FILE: 06. Arjen Lucassen's Guilt Machine - Perfection.flac
Size: 76295538 Hash: 0563E533B1C5DCEB547F595C49372A78 Accuracy: -m0
Conclusion: CDDA 100%
Signature: 5F8E56ED50BB6DD8569302C2DC397894046A2CAA
FILE: 05. The Enid - Malacandra, The Silent Planet (Edit).flac
Size: 39085664 Hash: B311842AC88B8D68C47476BBFCB2C1A5 Accuracy: -m0
Conclusion: CDDA 99%
Signature: ECE2D4DEB6BE9B3C15DC1009CEA37C0371B9C5DB
FILE: 04. Abel Ganz - So Far (Edit).flac
Size: 63548559 Hash: 03F418F638213AC10FFF14889080B90E Accuracy: -m0
Conclusion: CDDA 100%
Signature: 0E7038A7664A3A50B3A33EC53E46F58F882A6DF0
FILE: 03. Ebony Tower - White Rabbit.flac
Size: 37571135 Hash: FE93609D08908A1AFB4E8FE6F648C65A Accuracy: -m0
Conclusion: CDDA 100%
Signature: 32DE9A5E67A12FD6DE6C5713B933D529B78D2C2F
FILE: 02. 25 Yard Screamer with Ben Randall - Broken Machine.flac
Size: 38450981 Hash: B3710CBC66A11DDFE71D641A963B04EC Accuracy: -m0
Conclusion: CDDA 100%
Signature: 94E29651D6B3941B7975C971FC2826AC331F2E0D
FILE: 01. Magenta - Gluttony.flac
Size: 47999893 Hash: 8B1492451BB1B3BE8E887B1E53992D06 Accuracy: -m0
Conclusion: CDDA 100%
Signature: 23B3D54C06073D645A1DF150CD316241C1C4C9A9

Скриншот спектра частот

To download the file disable ad blocking, and reload the page.

disable adblock How to disable ad blocking?

Download by magnet link 436 MB Download Torrent

Login using:

Similar topics



   
Current time is: 15-Nov 22:26 :: All times are UTC + 3