Various Artists - Classic Rock presents Prog: Prognosis 3
--Жанр: Progressive Rock
Носитель: CD
производитель диска: EU
Год издания: 2009
Издатель (лейбл): Future
Аудиокодек: FLAC (*.flac)
Тип рипа: tracks+.cue
Битрейт аудио: lossless
Продолжительность: 01:04:01
Источник: internet
Наличие сканов: да
Треклист:
01. Pendragon - Indigo [00:13:42]
02. Konchordat - Motion [00:07:36]
03. Breathing Space - Clear [00:04:27]
04. The Wishing Tree - Hollow Hills [00:06:19]
05. Darwin's Radio - Breathe It In [00:11:19]
06. Knifeworld - The Wretched Fathoms [00:03:29]
07. Porcupine Tree - Time Flies (Edit) [00:05:23]
08. The Resonance Association - The Moment Has Passed [00:11:42]

-

Лог создания рипа

Exact Audio Copy V1.0 beta 3 from 29. August 2011
EAC extraction logfile from 10. May 2013, 10:15
Various Artists / Classic Rock presents Prog: Prognosis 3
Used drive : TSSTcorpCDDVDW SH-224BB Adapter: 1 ID: 0
Read mode : Secure
Utilize accurate stream : Yes
Defeat audio cache : Yes
Make use of C2 pointers : No
Read offset correction : 6
Overread into Lead-In and Lead-Out : No
Fill up missing offset samples with silence : Yes
Delete leading and trailing silent blocks : No
Null samples used in CRC calculations : Yes
Used interface : Native Win32 interface for Win NT & 2000
Gap handling : Appended to previous track
Used output format : User Defined Encoder
Selected bitrate : 896 kBit/s
Quality : High
Add ID3 tag : No
Command line compressor : C:\Program Files (x86)\FLAC\flac.exe
Additional command line options : -8 -V -T "artist=%artist%" -T "albumartist=%albumartist%" -T "album=%albumtitle%" -T "title=%title%" -T "year=%year%" -T "tracknumber=%tracknr2%" -T "genre=%genre%" %source% -o %dest%
TOC of the extracted CD
Track | Start | Length | Start sector | End sector
---------------------------------------------------------
1 | 0:00.00 | 13:42.46 | 0 | 61695
2 | 13:42.46 | 7:36.52 | 61696 | 95947
3 | 21:19.23 | 4:27.65 | 95948 | 116037
4 | 25:47.13 | 6:19.12 | 116038 | 144474
5 | 32:06.25 | 11:19.58 | 144475 | 195457
6 | 43:26.08 | 3:29.01 | 195458 | 211133
7 | 46:55.09 | 5:23.25 | 211134 | 235383
8 | 52:18.34 | 11:42.47 | 235384 | 288080
Track 1
Filename F:\My Documents\My Music\Albums (Complete)\01. Pendragon - Indigo.wav
Pre-gap length 0:00:02.00
Peak level 96.6 %
Extraction speed 5.3 X
Track quality 100.0 %
Test CRC 51452188
Copy CRC 51452188
Accurately ripped (confidence 1) [F5EEFD6F] (AR v1)
Copy OK
Track 2
Filename F:\My Documents\My Music\Albums (Complete)\02. Konchordat - Motion.wav
Pre-gap length 0:00:02.00
Peak level 98.8 %
Extraction speed 6.1 X
Track quality 100.0 %
Test CRC D58C20C3
Copy CRC D58C20C3
Accurately ripped (confidence 1) [B8A3664F] (AR v1)
Copy OK
Track 3
Filename F:\My Documents\My Music\Albums (Complete)\03. Breathing Space - Clear.wav
Pre-gap length 0:00:02.00
Peak level 94.8 %
Extraction speed 6.2 X
Track quality 100.0 %
Test CRC CE28DC6A
Copy CRC CE28DC6A
Accurately ripped (confidence 1) [CB214B7E] (AR v1)
Copy OK
Track 4
Filename F:\My Documents\My Music\Albums (Complete)\04. The Wishing Tree - Hollow Hills.wav
Pre-gap length 0:00:02.00
Peak level 95.6 %
Extraction speed 6.8 X
Track quality 100.0 %
Test CRC 3B9D64A8
Copy CRC 3B9D64A8
Accurately ripped (confidence 1) [33F21B4E] (AR v1)
Copy OK
Track 5
Filename F:\My Documents\My Music\Albums (Complete)\05. Darwin's Radio - Breathe It In.wav
Pre-gap length 0:00:02.00
Peak level 98.8 %
Extraction speed 7.7 X
Track quality 100.0 %
Test CRC FB0567F9
Copy CRC FB0567F9
Accurately ripped (confidence 1) [918C18B5] (AR v1)
Copy OK
Track 6
Filename F:\My Documents\My Music\Albums (Complete)\06. Knifeworld - The Wretched Fathoms.wav
Pre-gap length 0:00:02.00
Peak level 100.0 %
Extraction speed 7.4 X
Track quality 100.0 %
Test CRC 0A634EFD
Copy CRC 0A634EFD
Accurately ripped (confidence 1) [139170ED] (AR v1)
Copy OK
Track 7
Filename F:\My Documents\My Music\Albums (Complete)\07. Porcupine Tree - Time Flies (Edit).wav
Pre-gap length 0:00:02.00
Peak level 99.8 %
Extraction speed 6.7 X
Track quality 99.9 %
Test CRC FD84C57B
Copy CRC FD84C57B
Accurately ripped (confidence 1) [6ABD1767] (AR v1)
Copy OK
Track 8
Filename F:\My Documents\My Music\Albums (Complete)\08. The Resonance Association - The Moment Has Passed.wav
Pre-gap length 0:00:02.00
Peak level 93.4 %
Extraction speed 9.1 X
Track quality 100.0 %
Test CRC 62F82493
Copy CRC 62F82493
Accurately ripped (confidence 1) [3F69E84D] (AR v1)
Copy OK
All tracks accurately ripped
No errors occurred
End of status report
==== Log checksum 62EDCD8DEF84DA6CA59F663FA622FDBD1C902B0E8797CDFB0C58BC28D1AB4F74 ====

Содержание индексной карты (.CUE)

REM GENRE "Progressive Rock"
REM DATE 2009
REM DISCID 6D0F0108
REM COMMENT "ExactAudioCopy v1.0b3"
PERFORMER "Various Artists"
TITLE "Classic Rock presents Prog: Prognosis 3"
FILE "01. Pendragon - Indigo.wav" WAVE
TRACK 01 AUDIO
TITLE "Indigo"
PERFORMER "Pendragon"
INDEX 01 00:00:00
TRACK 02 AUDIO
TITLE "Motion"
PERFORMER "Konchordat"
INDEX 00 13:40:46
FILE "02. Konchordat - Motion.wav" WAVE
INDEX 01 00:00:00
TRACK 03 AUDIO
TITLE "Clear"
PERFORMER "Breathing Space"
INDEX 00 07:34:52
FILE "03. Breathing Space - Clear.wav" WAVE
INDEX 01 00:00:00
TRACK 04 AUDIO
TITLE "Hollow Hills"
PERFORMER "The Wishing Tree"
INDEX 00 04:25:65
FILE "04. The Wishing Tree - Hollow Hills.wav" WAVE
INDEX 01 00:00:00
TRACK 05 AUDIO
TITLE "Breathe It In"
PERFORMER "Darwin's Radio"
INDEX 00 06:17:12
FILE "05. Darwin's Radio - Breathe It In.wav" WAVE
INDEX 01 00:00:00
TRACK 06 AUDIO
TITLE "The Wretched Fathoms"
PERFORMER "Knifeworld"
INDEX 00 11:17:58
FILE "06. Knifeworld - The Wretched Fathoms.wav" WAVE
INDEX 01 00:00:00
TRACK 07 AUDIO
TITLE "Time Flies (Edit)"
PERFORMER "Porcupine Tree"
INDEX 00 03:27:01
FILE "07. Porcupine Tree - Time Flies (Edit).wav" WAVE
INDEX 01 00:00:00
TRACK 08 AUDIO
TITLE "The Moment Has Passed"
PERFORMER "The Resonance Association"
INDEX 00 05:21:25
FILE "08. The Resonance Association - The Moment Has Passed.wav" WAVE
INDEX 01 00:00:00

Лог проверки качества

-----------------------
DON'T MODIFY THIS FILE
-----------------------
PERFORMER: auCDtect Task Manager, ver. 1.5.1RC6 build 1.5.1.7
Copyright (c) 2008-2010 y-soft. All rights reserved
http://y-soft.org
ANALYZER: auCDtect: CD records authenticity detector, version 0.8.2
Copyright (c) 2004 Oleg Berngardt. All rights reserved.
Copyright (c) 2004 Alexander Djourik. All rights reserved.
FILE: 08. The Resonance Association - The Moment Has Passed.flac
Size: 66359590 Hash: 3E277A061AEA9041DF3BC3CAD99AD620 Accuracy: -m0
Conclusion: CDDA 100%
Signature: 20939A13E19D0D1BB3804209CD164002641DC830
FILE: 07. Porcupine Tree - Time Flies (Edit).flac
Size: 41070210 Hash: FC09AF391A04CF8C1989DA5C41AFFE6F Accuracy: -m0
Conclusion: CDDA 100%
Signature: A33C548A0E9751DD673AEFAB8CB47DA2079BE176
FILE: 06. Knifeworld - The Wretched Fathoms.flac
Size: 24192869 Hash: FA797EF57AAE6BE664ACB12FBBAEF74B Accuracy: -m0
Conclusion: MPEG 95%
Signature: A3D1219DB5EE2D20B6912C13CB0DBC954C269BC0
FILE: 05. Darwin's Radio - Breathe It In.flac
Size: 76799653 Hash: E68DC8AAE4BBB3EDF55CCA6FD3D225D5 Accuracy: -m0
Conclusion: MPEG 95%
Signature: 26B3536E24564BD7798D241714F35D119F6F96E6
FILE: 04. The Wishing Tree - Hollow Hills.flac
Size: 38159510 Hash: 0D867C895E5BAD52BAB6129907FDA15D Accuracy: -m0
Conclusion: CDDA 100%
Signature: 8B70EB8224C132C98A8CCE23765BB4DFFB1770F2
FILE: 03. Breathing Space - Clear.flac
Size: 30434204 Hash: C753EA2F98F3601B850584544B0D45C8 Accuracy: -m0
Conclusion: CDDA 100%
Signature: 7B802B270C6D753ED042961F07163480283EA901
FILE: 02. Konchordat - Motion.flac
Size: 53387844 Hash: F3B4DC678EF811DD6262E752FCC2D7E4 Accuracy: -m0
Conclusion: CDDA 100%
Signature: 37B18DEB59C661B0BFA1707E8F170C3041E2CCFA
FILE: 01. Pendragon - Indigo.flac
Size: 100677394 Hash: 81C2D80975D85DC472D4089F7B140293 Accuracy: -m0
Conclusion: CDDA 100%
Signature: 43F1655622955385960FCF258EAC2D8073C5CA48

Скриншот спектра частот

To download the file disable ad blocking, and reload the page.

disable adblock How to disable ad blocking?

Download by magnet link 413 MB Download Torrent

Login using:

Similar topics



   
Current time is: 20-Nov 14:12 :: All times are UTC + 3