Various Artists - Classic Rock presents Prog: Prognosis 2
--Жанр: Progressive Rock
Носитель: CD
производитель диска: EU
Год издания: 2009
Издатель (лейбл): Future
Аудиокодек: FLAC (*.flac)
Тип рипа: tracks+.cue
Битрейт аудио: lossless
Продолжительность: 01:08:52
Источник: internet
Наличие сканов: да
Треклист:
01. Dream Theater - A Rite Of Passage [00:08:36]
02. Touchstone - Strange Days [00:04:05]
03. Also Eden - Skimming Stones [00:06:58]
04. Astra - The River Under [00:08:38]
05. Pictorial Wand - Face Of Our Fathers [00:05:24]
06. Agah Bahari - Revolving Universe [00:03:41]
07. Haken - Black Seed [00:05:37]
08. The Treat - Anger Management [00:04:34]
09. IQ - Ryker Skies [00:04:25]
10. Sine Star Project - Chinese Drag Queen [00:05:50]
11. Aquaplanage - The Sands Of Time [00:05:32]
12. Gazpacho - Tick Tock, Part III [00:05:26]

-

Лог создания рипа

Exact Audio Copy V1.0 beta 3 from 29. August 2011
EAC extraction logfile from 10. May 2013, 9:23
Various Artists / Classic Rock presents Prog: Prognosis 2
Used drive : TSSTcorpCDDVDW SH-224BB Adapter: 1 ID: 0
Read mode : Secure
Utilize accurate stream : Yes
Defeat audio cache : Yes
Make use of C2 pointers : No
Read offset correction : 6
Overread into Lead-In and Lead-Out : No
Fill up missing offset samples with silence : Yes
Delete leading and trailing silent blocks : No
Null samples used in CRC calculations : Yes
Used interface : Native Win32 interface for Win NT & 2000
Gap handling : Appended to previous track
Used output format : User Defined Encoder
Selected bitrate : 896 kBit/s
Quality : High
Add ID3 tag : No
Command line compressor : C:\Program Files (x86)\FLAC\flac.exe
Additional command line options : -8 -V -T "artist=%artist%" -T "albumartist=%albumartist%" -T "album=%albumtitle%" -T "title=%title%" -T "year=%year%" -T "tracknumber=%tracknr2%" -T "genre=%genre%" %source% -o %dest%
TOC of the extracted CD
Track | Start | Length | Start sector | End sector
---------------------------------------------------------
1 | 0:00.00 | 8:36.31 | 0 | 38730
2 | 8:36.31 | 4:05.05 | 38731 | 57110
3 | 12:41.36 | 6:58.61 | 57111 | 88521
4 | 19:40.22 | 8:38.08 | 88522 | 127379
5 | 28:18.30 | 5:24.50 | 127380 | 151729
6 | 33:43.05 | 3:41.58 | 151730 | 168362
7 | 37:24.63 | 5:37.24 | 168363 | 193661
8 | 43:02.12 | 4:34.42 | 193662 | 214253
9 | 47:36.54 | 4:25.41 | 214254 | 234169
10 | 52:02.20 | 5:50.70 | 234170 | 260489
11 | 57:53.15 | 5:32.67 | 260490 | 285456
12 | 63:26.07 | 5:26.05 | 285457 | 309911
Track 1
Filename F:\My Documents\My Music\Albums (Complete)\01. Dream Theater - A Rite Of Passage.wav
Pre-gap length 0:00:02.00
Peak level 100.0 %
Extraction speed 2.1 X
Track quality 100.0 %
Test CRC FC8C14BB
Copy CRC FC8C14BB
Accurately ripped (confidence 1) [1CAE8B3B] (AR v1)
Copy OK
Track 2
Filename F:\My Documents\My Music\Albums (Complete)\02. Touchstone - Strange Days.wav
Pre-gap length 0:00:02.00
Peak level 97.7 %
Extraction speed 2.2 X
Track quality 100.0 %
Test CRC 99508FB1
Copy CRC 99508FB1
Accurately ripped (confidence 1) [2B80505F] (AR v1)
Copy OK
Track 3
Filename F:\My Documents\My Music\Albums (Complete)\03. Also Eden - Skimming Stones.wav
Pre-gap length 0:00:02.00
Peak level 97.3 %
Extraction speed 2.5 X
Track quality 100.0 %
Test CRC 49EAE503
Copy CRC 49EAE503
Accurately ripped (confidence 1) [E8307B4B] (AR v1)
Copy OK
Track 4
Filename F:\My Documents\My Music\Albums (Complete)\04. Astra - The River Under.wav
Pre-gap length 0:00:02.00
Peak level 98.4 %
Extraction speed 2.9 X
Track quality 100.0 %
Test CRC B93AB5D8
Copy CRC B93AB5D8
Accurately ripped (confidence 1) [EC2BFAA1] (AR v1)
Copy OK
Track 5
Filename F:\My Documents\My Music\Albums (Complete)\05. Pictorial Wand - Face Of Our Fathers.wav
Pre-gap length 0:00:02.00
Peak level 98.8 %
Extraction speed 2.5 X
Track quality 99.9 %
Test CRC A05E5C1C
Copy CRC A05E5C1C
Accurately ripped (confidence 1) [A37EF25A] (AR v1)
Copy OK
Track 6
Filename F:\My Documents\My Music\Albums (Complete)\06. Agah Bahari - Revolving Universe.wav
Pre-gap length 0:00:02.00
Peak level 97.2 %
Extraction speed 2.3 X
Track quality 99.9 %
Test CRC CFD7B7AD
Copy CRC CFD7B7AD
Accurately ripped (confidence 1) [2CFB34F2] (AR v1)
Copy OK
Track 7
Filename F:\My Documents\My Music\Albums (Complete)\07. Haken - Black Seed.wav
Pre-gap length 0:00:02.00
Peak level 100.0 %
Extraction speed 2.7 X
Track quality 99.9 %
Test CRC C69DFB61
Copy CRC C69DFB61
Accurately ripped (confidence 1) [290E3A33] (AR v1)
Copy OK
Track 8
Filename F:\My Documents\My Music\Albums (Complete)\08. The Treat - Anger Management.wav
Pre-gap length 0:00:02.00
Peak level 97.7 %
Extraction speed 2.6 X
Track quality 99.9 %
Test CRC F589E182
Copy CRC F589E182
Accurately ripped (confidence 1) [507269D3] (AR v1)
Copy OK
Track 9
Filename F:\My Documents\My Music\Albums (Complete)\09. IQ - Ryker Skies.wav
Pre-gap length 0:00:02.00
Peak level 100.0 %
Extraction speed 3.4 X
Track quality 100.0 %
Test CRC D2CF9500
Copy CRC D2CF9500
Accurately ripped (confidence 1) [CC933BBE] (AR v1)
Copy OK
Track 10
Filename F:\My Documents\My Music\Albums (Complete)\10. Sine Star Project - Chinese Drag Queen.wav
Pre-gap length 0:00:02.00
Peak level 99.6 %
Extraction speed 2.9 X
Track quality 99.9 %
Test CRC F2DBDF3F
Copy CRC F2DBDF3F
Accurately ripped (confidence 1) [0FEC6267] (AR v1)
Copy OK
Track 11
Filename F:\My Documents\My Music\Albums (Complete)\11. Aquaplanage - The Sands Of Time.wav
Pre-gap length 0:00:02.00
Peak level 99.3 %
Extraction speed 3.7 X
Track quality 100.0 %
Test CRC 2CFABDB3
Copy CRC 2CFABDB3
Accurately ripped (confidence 1) [EE5E93B4] (AR v1)
Copy OK
Track 12
Filename F:\My Documents\My Music\Albums (Complete)\12. Gazpacho - Tick Tock, Part III.wav
Pre-gap length 0:00:02.00
Peak level 100.0 %
Extraction speed 3.9 X
Track quality 100.0 %
Test CRC 6D5A4B44
Copy CRC 6D5A4B44
Accurately ripped (confidence 1) [3FC332EB] (AR v1)
Copy OK
All tracks accurately ripped
No errors occurred
End of status report
==== Log checksum C3F28FAACA766F4941F3CFA75FD784FFDB5A130706B29A2B7E9E96E033F40234 ====

Содержание индексной карты (.CUE)

REM GENRE "Progressive Rock"
REM DATE 2009
REM DISCID A510240C
REM COMMENT "ExactAudioCopy v1.0b3"
PERFORMER "Various Artists"
TITLE "Classic Rock presents Prog: Prognosis 2"
FILE "01. Dream Theater - A Rite Of Passage.wav" WAVE
TRACK 01 AUDIO
TITLE "A Rite Of Passage"
PERFORMER "Dream Theater"
INDEX 01 00:00:00
TRACK 02 AUDIO
TITLE "Strange Days"
PERFORMER "Touchstone"
INDEX 00 08:34:31
FILE "02. Touchstone - Strange Days.wav" WAVE
INDEX 01 00:00:00
TRACK 03 AUDIO
TITLE "Skimming Stones"
PERFORMER "Also Eden"
INDEX 00 04:03:05
FILE "03. Also Eden - Skimming Stones.wav" WAVE
INDEX 01 00:00:00
TRACK 04 AUDIO
TITLE "The River Under"
PERFORMER "Astra"
INDEX 00 06:56:61
FILE "04. Astra - The River Under.wav" WAVE
INDEX 01 00:00:00
TRACK 05 AUDIO
TITLE "Face Of Our Fathers"
PERFORMER "Pictorial Wand"
INDEX 00 08:36:08
FILE "05. Pictorial Wand - Face Of Our Fathers.wav" WAVE
INDEX 01 00:00:00
TRACK 06 AUDIO
TITLE "Revolving Universe"
PERFORMER "Agah Bahari"
INDEX 00 05:22:50
FILE "06. Agah Bahari - Revolving Universe.wav" WAVE
INDEX 01 00:00:00
TRACK 07 AUDIO
TITLE "Black Seed"
PERFORMER "Haken"
INDEX 00 03:39:58
FILE "07. Haken - Black Seed.wav" WAVE
INDEX 01 00:00:00
TRACK 08 AUDIO
TITLE "Anger Management"
PERFORMER "The Treat"
INDEX 00 05:35:24
FILE "08. The Treat - Anger Management.wav" WAVE
INDEX 01 00:00:00
TRACK 09 AUDIO
TITLE "Ryker Skies"
PERFORMER "IQ"
INDEX 00 04:32:42
FILE "09. IQ - Ryker Skies.wav" WAVE
INDEX 01 00:00:00
TRACK 10 AUDIO
TITLE "Chinese Drag Queen"
PERFORMER "Sine Star Project"
INDEX 00 04:23:41
FILE "10. Sine Star Project - Chinese Drag Queen.wav" WAVE
INDEX 01 00:00:00
TRACK 11 AUDIO
TITLE "The Sands Of Time"
PERFORMER "Aquaplanage"
INDEX 00 05:48:70
FILE "11. Aquaplanage - The Sands Of Time.wav" WAVE
INDEX 01 00:00:00
TRACK 12 AUDIO
TITLE "Tick Tock, Part III"
PERFORMER "Gazpacho"
INDEX 00 05:30:67
FILE "12. Gazpacho - Tick Tock, Part III.wav" WAVE
INDEX 01 00:00:00

Лог проверки качества

-----------------------
DON'T MODIFY THIS FILE
-----------------------
PERFORMER: auCDtect Task Manager, ver. 1.5.1RC6 build 1.5.1.7
Copyright (c) 2008-2010 y-soft. All rights reserved
http://y-soft.org
ANALYZER: auCDtect: CD records authenticity detector, version 0.8.2
Copyright (c) 2004 Oleg Berngardt. All rights reserved.
Copyright (c) 2004 Alexander Djourik. All rights reserved.
FILE: 12. Gazpacho - Tick Tock, Part III.flac
Size: 35357997 Hash: A5D4FA58BE936D86ED3A31F19D709CE6 Accuracy: -m0
Conclusion: MPEG 95%
Signature: 6357B66BBABB7B6522F4DD5B9E373BC15F9410C6
FILE: 11. Aquaplanage - The Sands Of Time.flac
Size: 43459899 Hash: 3F28F6D107115CAE85B830DFA28AC014 Accuracy: -m0
Conclusion: CDDA 100%
Signature: 39006CFB09C49A289DCCEB4BE99E3C93F851967F
FILE: 10. Sine Star Project - Chinese Drag Queen.flac
Size: 38919795 Hash: FC44142054D95A6B9B43D3741EDE20B1 Accuracy: -m0
Conclusion: CDDA 100%
Signature: 953086CC054A5926AD291B030A96FE0C38F89F2D
FILE: 09. IQ - Ryker Skies.flac
Size: 36527270 Hash: 0BEA2E26A5810EC132A7B83B61FAB18E Accuracy: -m0
Conclusion: CDDA 100%
Signature: 7645627981F60CC5B68D3C6C2CCCD85DDEA804D2
FILE: 08. The Treat - Anger Management.flac
Size: 36431251 Hash: 0C6F89675F3563223A27DACEED060541 Accuracy: -m0
Conclusion: CDDA 100%
Signature: 470FB2AEF73837AA21CD4786C7ADEFE8857F194E
FILE: 07. Haken - Black Seed.flac
Size: 34464393 Hash: 52D74D2284E196302C75A1CB5D532A90 Accuracy: -m0
Conclusion: MPEG 95%
Signature: 1DD7B80DB342F79C4E1763487C35918C4924E58D
FILE: 06. Agah Bahari - Revolving Universe.flac
Size: 26355633 Hash: D7A9D21482DD2A97A68327DB593DEDB1 Accuracy: -m0
Conclusion: CDDA 100%
Signature: D44650E90ED9228F3A789A41C73B8FDBFCFC77D3
FILE: 05. Pictorial Wand - Face Of Our Fathers.flac
Size: 34239100 Hash: D96CA56AB1EC1774A01A0471A888A1D7 Accuracy: -m0
Conclusion: CDDA 100%
Signature: C43F222C880BAC78FE238BDD8D998BF1D8E89653
FILE: 04. Astra - The River Under.flac
Size: 50591833 Hash: B1862D4083C94B06CBE0A889521E6DCE Accuracy: -m0
Conclusion: CDDA 100%
Signature: 1E770BA83C6C0DC36FAC3E968371EC08FDBA8068
FILE: 03. Also Eden - Skimming Stones.flac
Size: 46057914 Hash: 352EE1881DDF72E7D045EA98C65D8D0D Accuracy: -m0
Conclusion: CDDA 100%
Signature: 8A6C491337BDB1B493CE27A8005D346CE99E93A6
FILE: 02. Touchstone - Strange Days.flac
Size: 32418131 Hash: 930ED4D5308D18DF5DA773905C9DCD2D Accuracy: -m0
Conclusion: CDDA 100%
Signature: D107C6DFCF514EAA3C8FB379970A7C7A1F88619C
FILE: 01. Dream Theater - A Rite Of Passage.flac
Size: 67283558 Hash: EFA416421298BF6247D4E051117121A7 Accuracy: -m0
Conclusion: CDDA 100%
Signature: 7717E3F71453EE2EFB632A7340B73D4B5397DFEC

Скриншот спектра частот

To download the file disable ad blocking, and reload the page.

disable adblock How to disable ad blocking?

Download by magnet link 462 MB Download Torrent

Login using:

Similar topics



   
Current time is: 20-Nov 14:30 :: All times are UTC + 3