Various Artists - Classic Rock presents Prog: Prognosis 1
--Жанр: Progressive Rock | Various Genres
Носитель: CD
производитель диска: EU
Год издания: 2009
Издатель (лейбл): Future
Аудиокодек: FLAC (*.flac)
Тип рипа: tracks+.cue
Битрейт аудио: lossless
Продолжительность: 01:01:25
Источник : internet
Наличие сканов: немного

01. Panic Room - Elektra City (Edit) [00:05:10]
02. Whimwise - Scurry Flurries [00:04:21]
03. Godsticks - Only When Provoked [00:04:40]
04. Mystery - Beneath The Veil Of Winter's Face [00:06:00]
05. The Reasoning - Dark Angel [00:06:55]
06. Blood Ceremony - Hop Toad [00:05:29]
07. The Treat - Citizen Of The World [00:05:57]
08. Diagonal - Semi Permeable Men-Brain [00:10:55]
09. Of The I - Cathexis [00:08:06]
10. Spaced Out - Biomechanic II [00:03:45]

-

Лог создания рипа

Exact Audio Copy V1.0 beta 3 from 29. August 2011
EAC extraction logfile from 15. May 2013, 22:34
Various Artists / Classic Rock presents Prog: Prognosis
Used drive : TSSTcorpCDDVDW SH-224BB Adapter: 1 ID: 0
Read mode : Secure
Utilize accurate stream : Yes
Defeat audio cache : Yes
Make use of C2 pointers : No
Read offset correction : 6
Overread into Lead-In and Lead-Out : No
Fill up missing offset samples with silence : Yes
Delete leading and trailing silent blocks : No
Null samples used in CRC calculations : Yes
Used interface : Native Win32 interface for Win NT & 2000
Gap handling : Appended to previous track
Used output format : User Defined Encoder
Selected bitrate : 896 kBit/s
Quality : High
Add ID3 tag : No
Command line compressor : C:\Program Files (x86)\FLAC\flac.exe
Additional command line options : -8 -V -T "artist=%artist%" -T "albumartist=%albumartist%" -T "album=%albumtitle%" -T "title=%title%" -T "year=%year%" -T "tracknumber=%tracknr2%" -T "genre=%genre%" %source% -o %dest%
TOC of the extracted CD
Track | Start | Length | Start sector | End sector
---------------------------------------------------------
1 | 0:00.00 | 5:10.70 | 0 | 23319
2 | 5:10.70 | 4:21.74 | 23320 | 42968
3 | 9:32.69 | 4:40.57 | 42969 | 64025
4 | 14:13.51 | 6:00.58 | 64026 | 91083
5 | 20:14.34 | 6:55.20 | 91084 | 122228
6 | 27:09.54 | 5:29.46 | 122229 | 146949
7 | 32:39.25 | 5:57.44 | 146950 | 173768
8 | 38:36.69 | 10:55.59 | 173769 | 222952
9 | 49:32.53 | 8:06.58 | 222953 | 259460
10 | 57:39.36 | 3:45.46 | 259461 | 276381
Track 1
Filename F:\My Documents\My Music\Albums (Complete)\01. Panic Room - Elektra City (Edit).wav
Pre-gap length 0:00:02.00
Peak level 98.9 %
Extraction speed 2.7 X
Track quality 100.0 %
Test CRC 1CF705B2
Copy CRC 1CF705B2
Accurately ripped (confidence 1) [47288A22] (AR v1)
Copy OK
Track 2
Filename F:\My Documents\My Music\Albums (Complete)\02. Whimwise - Scurry Flurries.wav
Pre-gap length 0:00:02.00
Peak level 100.0 %
Extraction speed 3.0 X
Track quality 100.0 %
Test CRC 542074A5
Copy CRC 542074A5
Accurately ripped (confidence 1) [DB6CA523] (AR v1)
Copy OK
Track 3
Filename F:\My Documents\My Music\Albums (Complete)\03. Godsticks - Only When Provoked.wav
Pre-gap length 0:00:02.00
Peak level 98.8 %
Extraction speed 3.3 X
Track quality 100.0 %
Test CRC F44679D5
Copy CRC F44679D5
Accurately ripped (confidence 1) [73F325F3] (AR v1)
Copy OK
Track 4
Filename F:\My Documents\My Music\Albums (Complete)\04. Mystery - Beneath The Veil Of Winter's Face.wav
Pre-gap length 0:00:02.00
Peak level 98.2 %
Extraction speed 3.7 X
Track quality 100.0 %
Test CRC 48E9EBFB
Copy CRC 48E9EBFB
Accurately ripped (confidence 1) [A60A2E00] (AR v1)
Copy OK
Track 5
Filename F:\My Documents\My Music\Albums (Complete)\05. The Reasoning - Dark Angel.wav
Pre-gap length 0:00:02.00
Peak level 98.1 %
Extraction speed 4.1 X
Track quality 100.0 %
Test CRC 13FA013C
Copy CRC 13FA013C
Accurately ripped (confidence 1) [B5FA155E] (AR v1)
Copy OK
Track 6
Filename F:\My Documents\My Music\Albums (Complete)\06. Blood Ceremony - Hop Toad.wav
Pre-gap length 0:00:02.00
Peak level 97.7 %
Extraction speed 4.1 X
Track quality 100.0 %
Test CRC FBDB7049
Copy CRC FBDB7049
Accurately ripped (confidence 1) [D3C4B007] (AR v1)
Copy OK
Track 7
Filename F:\My Documents\My Music\Albums (Complete)\07. The Treat - Citizen Of The World.wav
Pre-gap length 0:00:02.00
Peak level 97.7 %
Extraction speed 3.8 X
Track quality 99.9 %
Test CRC 4CD689C3
Copy CRC 4CD689C3
Accurately ripped (confidence 1) [DFB16ABF] (AR v1)
Copy OK
Track 8
Filename F:\My Documents\My Music\Albums (Complete)\08. Diagonal - Semi Permeable Men-Brain.wav
Pre-gap length 0:00:02.00
Peak level 98.8 %
Extraction speed 5.2 X
Track quality 100.0 %
Test CRC 1013BCEC
Copy CRC 1013BCEC
Accurately ripped (confidence 1) [93D17F2B] (AR v1)
Copy OK
Track 9
Filename F:\My Documents\My Music\Albums (Complete)\09. Of The I - Cathexis.wav
Pre-gap length 0:00:02.00
Peak level 98.7 %
Extraction speed 5.5 X
Track quality 100.0 %
Test CRC BCB76E6C
Copy CRC BCB76E6C
Accurately ripped (confidence 1) [0F8CD559] (AR v1)
Copy OK
Track 10
Filename F:\My Documents\My Music\Albums (Complete)\10. Spaced Out - Biomechanic II.wav
Pre-gap length 0:00:02.00
Peak level 97.7 %
Extraction speed 5.2 X
Track quality 100.0 %
Test CRC 2C6F12E4
Copy CRC 2C6F12E4
Accurately ripped (confidence 1) [C1EF4A11] (AR v1)
Copy OK
All tracks accurately ripped
No errors occurred
End of status report
==== Log checksum 085A4BF8CE99BE22302BDBD2197222B5813970DCB8BBCC2229A4644310D4F2CC ====

Содержание индексной карты (.CUE)

REM GENRE "Progressive Rock"
REM DATE 2009
REM DISCID 820E650A
REM COMMENT "ExactAudioCopy v1.0b3"
PERFORMER "Various Artists"
TITLE "Classic Rock presents Prog: Prognosis"
FILE "01. Panic Room - Elektra City (Edit).wav" WAVE
TRACK 01 AUDIO
TITLE "Elektra City (Edit)"
PERFORMER "Panic Room"
INDEX 01 00:00:00
TRACK 02 AUDIO
TITLE "Scurry Flurries"
PERFORMER "Whimwise"
INDEX 00 05:08:70
FILE "02. Whimwise - Scurry Flurries.wav" WAVE
INDEX 01 00:00:00
TRACK 03 AUDIO
TITLE "Only When Provoked"
PERFORMER "Godsticks"
INDEX 00 04:19:74
FILE "03. Godsticks - Only When Provoked.wav" WAVE
INDEX 01 00:00:00
TRACK 04 AUDIO
TITLE "Beneath The Veil Of Winter's Face"
PERFORMER "Mystery"
INDEX 00 04:38:57
FILE "04. Mystery - Beneath The Veil Of Winter's Face.wav" WAVE
INDEX 01 00:00:00
TRACK 05 AUDIO
TITLE "Dark Angel"
PERFORMER "The Reasoning"
INDEX 00 05:58:58
FILE "05. The Reasoning - Dark Angel.wav" WAVE
INDEX 01 00:00:00
TRACK 06 AUDIO
TITLE "Hop Toad"
PERFORMER "Blood Ceremony"
INDEX 00 06:53:20
FILE "06. Blood Ceremony - Hop Toad.wav" WAVE
INDEX 01 00:00:00
TRACK 07 AUDIO
TITLE "Citizen Of The World"
PERFORMER "The Treat"
INDEX 00 05:27:46
FILE "07. The Treat - Citizen Of The World.wav" WAVE
INDEX 01 00:00:00
TRACK 08 AUDIO
TITLE "Semi Permeable Men-Brain"
PERFORMER "Diagonal"
INDEX 00 05:55:44
FILE "08. Diagonal - Semi Permeable Men-Brain.wav" WAVE
INDEX 01 00:00:00
TRACK 09 AUDIO
TITLE "Cathexis"
PERFORMER "Of The I"
INDEX 00 10:53:59
FILE "09. Of The I - Cathexis.wav" WAVE
INDEX 01 00:00:00
TRACK 10 AUDIO
TITLE "Biomechanic II "
PERFORMER "Spaced Out"
INDEX 00 08:04:58
FILE "10. Spaced Out - Biomechanic II.wav" WAVE
INDEX 01 00:00:00

Лог проверки качества

-----------------------
DON'T MODIFY THIS FILE
-----------------------
PERFORMER: auCDtect Task Manager, ver. 1.5.1RC6 build 1.5.1.7
Copyright (c) 2008-2010 y-soft. All rights reserved
http://y-soft.org
ANALYZER: auCDtect: CD records authenticity detector, version 0.8.2
Copyright (c) 2004 Oleg Berngardt. All rights reserved.
Copyright (c) 2004 Alexander Djourik. All rights reserved.
FILE: 10. Spaced Out - Biomechanic II.flac
Size: 29258620 Hash: 8BC491618739F21D34E39F81326108A1 Accuracy: -m0
Conclusion: CDDA 100%
Signature: 213BBFCA7634251576C1570AC5D6B8546832D946
FILE: 09. Of The I - Cathexis.flac
Size: 56441020 Hash: AC023B9E30C7F37D3E840A3ECEF92B29 Accuracy: -m0
Conclusion: CDDA 100%
Signature: 5661B9203C6DC792B28A632E6DBFD6EDD030C31F
FILE: 08. Diagonal - Semi Permeable Men-Brain.flac
Size: 76560493 Hash: 804DCFC64056DC7A76AE580EF479B267 Accuracy: -m0
Conclusion: CDDA 100%
Signature: 98F67E3350488DB2C1B6D7EE02F9168AB6930574
FILE: 07. The Treat - Citizen Of The World.flac
Size: 43325441 Hash: D7AF386FCADD505C115600E35C975FE5 Accuracy: -m0
Conclusion: CDDA 100%
Signature: E34AF3D3F7223E0BAB941CA82D9DB28EDB165045
FILE: 06. Blood Ceremony - Hop Toad.flac
Size: 37732035 Hash: EDC0A1CAE182B2512CD8A7CF16FE8604 Accuracy: -m0
Conclusion: CDDA 100%
Signature: 7828DD8C5914A5A12BD5C95B629AAC0763F19540
FILE: 05. The Reasoning - Dark Angel.flac
Size: 52100964 Hash: AA3A7104609E792887DAC31CF650795B Accuracy: -m0
Conclusion: CDDA 100%
Signature: 8268A4AB6DC031FE070280A2AB18E593BEDE0779
FILE: 04. Mystery - Beneath The Veil Of Winter's Face.flac
Size: 43405799 Hash: D225DBB0085620F7D3C8A7AD544F4F35 Accuracy: -m0
Conclusion: CDDA 100%
Signature: 735E4BA446423AB719CE7EFDAD581CC568D132DF
FILE: 03. Godsticks - Only When Provoked.flac
Size: 37229178 Hash: B76521F3F000D1F50EF6C684A844FF5C Accuracy: -m0
Conclusion: CDDA 100%
Signature: 26D012C031BD807A9D53696E9E6F48F49744470E
FILE: 02. Whimwise - Scurry Flurries.flac
Size: 31130607 Hash: 763E70778AF9301712D01D341B1BBDAC Accuracy: -m0
Conclusion: CDDA 100%
Signature: AF5D72BB171A225279F5A1E42EE864002A4354F3
FILE: 01. Panic Room - Elektra City (Edit).flac
Size: 37451004 Hash: 9299C79C59DB285369D053F2BFED9944 Accuracy: -m0
Conclusion: CDDA 100%
Signature: 454CA1966DB78BE986367F0072056AE6587FDFDF

Скриншот спектра частот


-

To download the file disable ad blocking, and reload the page.

disable adblock How to disable ad blocking?

Download by magnet link 426 MB Download Torrent

Login using:

Similar topics



   
Current time is: 20-Nov 15:06 :: All times are UTC + 3