Various Artists - Prog P27: All The World's A Stage
--Жанр: Progressive Rock
Носитель: CD
производитель диска: EU
Год издания: 2014
Издатель (лейбл): TeamRock
Аудиокодек: FLAC (*.flac)
Тип рипа: tracks+.cue
Битрейт аудио: lossless
Продолжительность: 00:50:29
Источник (релизер): DMMANIAC (new-team)
Наличие сканов : да
Треклист:
01. The Pineapple Thief - Simple As That [00:04:03]
02. Amplifier - Black Rainbow [00:03:23]
03. The Mighty Handful - Trip In The Light Fantastic [00:05:30]
04. The Sixxis - Out Alive [00:05:41]
05. Enchant - Transparent Man [00:06:18]
06. A Formal Horse - I Lean [00:04:52]
07. Schnauser - Protein For Everyone [00:05:21]
08. iamthemorning - Os Lunatum [00:04:34]
09. Chat Noir - Aspekt [00:05:56]
10. Interstatic - Iwato [00:04:47]

-

Лог создания рипа

Exact Audio Copy V1.0 beta 3 from 29. August 2011
EAC extraction logfile from 13. September 2014, 22:18
Various Artists / Prog P27: All The World's A Stage
Used drive : ATAPI iHAS124 W Adapter: 1 ID: 0
Read mode : Secure
Utilize accurate stream : Yes
Defeat audio cache : Yes
Make use of C2 pointers : No
Read offset correction : 48
Overread into Lead-In and Lead-Out : No
Fill up missing offset samples with silence : Yes
Delete leading and trailing silent blocks : No
Null samples used in CRC calculations : Yes
Used interface : Native Win32 interface for Win NT & 2000
Gap handling : Appended to previous track
Used output format : User Defined Encoder
Selected bitrate : 896 kBit/s
Quality : High
Add ID3 tag : No
Command line compressor : C:\Program Files (x86)\FLAC Frontend\tools\flac.exe
Additional command line options : -8 -V -T "artist=%artist%" -T "albumartist=%albumartist%" -T "album=%albumtitle%" -T "title=%title%" -T "year=%year%" -T "tracknumber=%tracknr2%" -T "genre=%genre%" %source% -o %dest%
TOC of the extracted CD
Track | Start | Length | Start sector | End sector
---------------------------------------------------------
1 | 0:00.00 | 4:03.58 | 0 | 18282
2 | 4:03.58 | 3:23.27 | 18283 | 33534
3 | 7:27.10 | 5:30.30 | 33535 | 58314
4 | 12:57.40 | 5:41.68 | 58315 | 83957
5 | 18:39.33 | 6:18.12 | 83958 | 112319
6 | 24:57.45 | 4:52.21 | 112320 | 134240
7 | 29:49.66 | 5:21.33 | 134241 | 158348
8 | 35:11.24 | 4:34.58 | 158349 | 178956
9 | 39:46.07 | 5:56.32 | 178957 | 205688
10 | 45:42.39 | 4:47.07 | 205689 | 227220
Track 1
Filename F:\My Documents\My Music\Albums (Complete)\01. The Pineapple Thief - Simple As That.wav
Pre-gap length 0:00:02.00
Peak level 94.4 %
Extraction speed 4.5 X
Track quality 100.0 %
Test CRC 49CB5AE1
Copy CRC 49CB5AE1
Track not present in AccurateRip database
Copy OK
Track 2
Filename F:\My Documents\My Music\Albums (Complete)\02. Amplifier - Black Rainbow.wav
Pre-gap length 0:00:02.00
Peak level 96.6 %
Extraction speed 4.9 X
Track quality 100.0 %
Test CRC 111E0308
Copy CRC 111E0308
Track not present in AccurateRip database
Copy OK
Track 3
Filename F:\My Documents\My Music\Albums (Complete)\03. The Mighty Handful - Trip In The Light Fantastic.wav
Pre-gap length 0:00:02.00
Peak level 98.8 %
Extraction speed 5.6 X
Track quality 100.0 %
Test CRC 8C8F1685
Copy CRC 8C8F1685
Track not present in AccurateRip database
Copy OK
Track 4
Filename F:\My Documents\My Music\Albums (Complete)\04. The Sixxis - Out Alive.wav
Pre-gap length 0:00:02.00
Peak level 95.4 %
Extraction speed 6.2 X
Track quality 100.0 %
Test CRC 9A0A58FE
Copy CRC 9A0A58FE
Track not present in AccurateRip database
Copy OK
Track 5
Filename F:\My Documents\My Music\Albums (Complete)\05. Enchant - Transparent Man.wav
Pre-gap length 0:00:02.00
Peak level 98.8 %
Extraction speed 6.3 X
Track quality 99.9 %
Test CRC B28FD8C3
Copy CRC B28FD8C3
Track not present in AccurateRip database
Copy OK
Track 6
Filename F:\My Documents\My Music\Albums (Complete)\06. A Formal Horse - I Lean.wav
Pre-gap length 0:00:02.00
Peak level 99.8 %
Extraction speed 7.1 X
Track quality 100.0 %
Test CRC B0BBEC9E
Copy CRC B0BBEC9E
Track not present in AccurateRip database
Copy OK
Track 7
Filename F:\My Documents\My Music\Albums (Complete)\07. Schnauser - Protein For Everyone.wav
Pre-gap length 0:00:02.00
Peak level 98.8 %
Extraction speed 7.5 X
Track quality 100.0 %
Test CRC 0C9AF2B7
Copy CRC 0C9AF2B7
Track not present in AccurateRip database
Copy OK
Track 8
Filename F:\My Documents\My Music\Albums (Complete)\08. iamthemorning - Os Lunatum.wav
Pre-gap length 0:00:02.00
Peak level 98.8 %
Extraction speed 7.8 X
Track quality 100.0 %
Test CRC B68E9DAD
Copy CRC B68E9DAD
Track not present in AccurateRip database
Copy OK
Track 9
Filename F:\My Documents\My Music\Albums (Complete)\09. Chat Noir - Aspekt.wav
Pre-gap length 0:00:02.00
Peak level 98.8 %
Extraction speed 4.8 X
Track quality 100.0 %
Test CRC F4B083FA
Copy CRC F4B083FA
Track not present in AccurateRip database
Copy OK
Track 10
Filename F:\My Documents\My Music\Albums (Complete)\10. Interstatic - Iwato.wav
Pre-gap length 0:00:02.00
Peak level 98.8 %
Extraction speed 3.6 X
Track quality 100.0 %
Test CRC 8EF7AE8D
Copy CRC 8EF7AE8D
Track not present in AccurateRip database
Copy OK
None of the tracks are present in the AccurateRip database
No errors occurred
End of status report
==== Log checksum 936C63D2B3125C858090E7696E045C3DF62FADBCE6902AFB18AD7DEC234D9595 ====

Содержание индексной карты (.CUE)

REM GENRE "Progressive Rock"
REM DATE 2014
REM DISCID 900BD50A
REM COMMENT "ExactAudioCopy v1.0b3"
PERFORMER "Various Artists"
TITLE "Prog P27: All The World's A Stage"
FILE "01. The Pineapple Thief - Simple As That.wav" WAVE
TRACK 01 AUDIO
TITLE "Simple As That"
PERFORMER "The Pineapple Thief"
INDEX 01 00:00:00
TRACK 02 AUDIO
TITLE "Black Rainbow"
PERFORMER "Amplifier"
INDEX 00 04:01:58
FILE "02. Amplifier - Black Rainbow.wav" WAVE
INDEX 01 00:00:00
TRACK 03 AUDIO
TITLE "Trip In The Light Fantastic"
PERFORMER "The Mighty Handful"
INDEX 00 03:21:27
FILE "03. The Mighty Handful - Trip In The Light Fantastic.wav" WAVE
INDEX 01 00:00:00
TRACK 04 AUDIO
TITLE "Out Alive"
PERFORMER "The Sixxis"
INDEX 00 05:28:30
FILE "04. The Sixxis - Out Alive.wav" WAVE
INDEX 01 00:00:00
TRACK 05 AUDIO
TITLE "Transparent Man"
PERFORMER "Enchant"
INDEX 00 05:39:68
FILE "05. Enchant - Transparent Man.wav" WAVE
INDEX 01 00:00:00
TRACK 06 AUDIO
TITLE "I Lean"
PERFORMER "A Formal Horse"
INDEX 00 06:16:12
FILE "06. A Formal Horse - I Lean.wav" WAVE
INDEX 01 00:00:00
TRACK 07 AUDIO
TITLE "Protein For Everyone"
PERFORMER "Schnauser"
INDEX 00 04:50:21
FILE "07. Schnauser - Protein For Everyone.wav" WAVE
INDEX 01 00:00:00
TRACK 08 AUDIO
TITLE "Os Lunatum"
PERFORMER "iamthemorning"
INDEX 00 05:19:33
FILE "08. iamthemorning - Os Lunatum.wav" WAVE
INDEX 01 00:00:00
TRACK 09 AUDIO
TITLE "Aspekt"
PERFORMER "Chat Noir"
INDEX 00 04:32:58
FILE "09. Chat Noir - Aspekt.wav" WAVE
INDEX 01 00:00:00
TRACK 10 AUDIO
TITLE "Iwato"
PERFORMER "Interstatic"
INDEX 00 05:54:32
FILE "10. Interstatic - Iwato.wav" WAVE
INDEX 01 00:00:00

Лог проверки качества

-----------------------
DON'T MODIFY THIS FILE
-----------------------
PERFORMER: auCDtect Task Manager, ver. 1.5.1RC6 build 1.5.1.7
Copyright (c) 2008-2010 y-soft. All rights reserved
http://y-soft.org
ANALYZER: auCDtect: CD records authenticity detector, version 0.8.2
Copyright (c) 2004 Oleg Berngardt. All rights reserved.
Copyright (c) 2004 Alexander Djourik. All rights reserved.
FILE: 10. Interstatic - Iwato.flac
Size: 31638054 Hash: CD0AF8F740DE6B6F65887A6C3C765D3D Accuracy: -m0
Conclusion: CDDA 100%
Signature: 3B1037A54201737C6D4FE0B5A8997B636B22EE79
FILE: 09. Chat Noir - Aspekt.flac
Size: 26051201 Hash: CA0306E920ED3D62D79E26ED29EACFC1 Accuracy: -m0
Conclusion: CDDA 100%
Signature: F15A2791D0C59E38F8A6D755A4F664E8651E882C
FILE: 08. iamthemorning - Os Lunatum.flac
Size: 27558171 Hash: AF6C08D724A51A18BDA4593C21FEE548 Accuracy: -m0
Conclusion: CDDA 62%
Signature: 9672C41398F5D07C9F59F41E733214238803A59B
FILE: 07. Schnauser - Protein For Everyone.flac
Size: 37728626 Hash: 63D43789A0C1BB2DF674DDD2BE23D34B Accuracy: -m0
Conclusion: CDDA 100%
Signature: E0F58C384D60274D98FE1B9745C8022352BEABE4
FILE: 06. A Formal Horse - I Lean.flac
Size: 30387335 Hash: 20FA272FEC736E38A18E23BB602EDC89 Accuracy: -m0
Conclusion: CDDA 100%
Signature: 4634A211745A92D386E17E0FE79C936DE130414B
FILE: 05. Enchant - Transparent Man.flac
Size: 49051902 Hash: 32486AF27729C5D3BEAD1AF69797D77E Accuracy: -m0
Conclusion: CDDA 100%
Signature: 0FD90F90157D6C7145A9DEE6E4B9D5EBC426B8EC
FILE: 04. The Sixxis - Out Alive.flac
Size: 41253518 Hash: 348D9AC5B7D3D17E99ACEC6C5E0E62AD Accuracy: -m0
Conclusion: CDDA 100%
Signature: 7AA6A9D12B647158C5B49CBB62857F7FAABBC779
FILE: 03. The Mighty Handful - Trip In The Light Fantastic.flac
Size: 40062230 Hash: 34DBA2C993C0542448E44CEC96C8B85D Accuracy: -m0
Conclusion: CDDA 100%
Signature: 3FFF882B4835409F1D09C40C279DE54024AAC37E
FILE: 02. Amplifier - Black Rainbow.flac
Size: 23732867 Hash: 609AD2ED6AF1A94325110227043A56C3 Accuracy: -m0
Conclusion: CDDA 100%
Signature: 230308F4C307200F7C3FBAE01CCB4127B652F0C2
FILE: 01. The Pineapple Thief - Simple As That.flac
Size: 28660818 Hash: D0DF857189F3D49B986E54E2C26426C6 Accuracy: -m0
Conclusion: CDDA 100%
Signature: B8DC12847427F7926FEC466355D5162373236EA6

Скриншот спектра частот

To download the file disable ad blocking, and reload the page.

disable adblock How to disable ad blocking?

Download by magnet link 323 MB Download Torrent

Login using:

Similar topics



   
Current time is: 18-Sep 17:08 :: All times are UTC ± 0