Various Artists - Prog P26: As Sure As Eggs Is Eggs
--Жанр: Progressive Rock
Носитель: CD
производитель диска: EU
Год издания: 2014
Издатель (лейбл): TeamRock
Аудиокодек: FLAC (*.flac)
Тип рипа: tracks+.cue
Битрейт аудио: lossless
Продолжительность: 01:08:08
Источник: internet
Наличие сканов: да
Треклист:
01. Anathema - Anathema [00:06:42]
02. Opeth - Cusp Of Eternity [00:05:34]
03. Threshold - Watchtower On The Moon [00:05:32]
04. Cap - Robin Again [00:07:56]
05. Engineers - Fight Or Flight [00:04:19]
06. Knifeworld - Destroy The World We Love (Edit) [00:04:26]
07. Chat Noir - Chelsea High Line [00:05:44]
08. Prescott - Two Words Ruder [00:05:19]
09. Mumpbeak - Oak [00:04:30]
10. A Secret River - No Way To Say Goodbye [00:06:51]
11. Monarch Trail - Luminescence [00:11:11]

-

Лог создания рипа

Exact Audio Copy V1.0 beta 3 from 29. August 2011
EAC extraction logfile from 7. August 2014, 9:01
Various Artists / Prog P26: As Sure As Eggs Is Eggs
Used drive : ATAPI iHAS124 W Adapter: 1 ID: 0
Read mode : Secure
Utilize accurate stream : Yes
Defeat audio cache : Yes
Make use of C2 pointers : No
Read offset correction : 48
Overread into Lead-In and Lead-Out : No
Fill up missing offset samples with silence : Yes
Delete leading and trailing silent blocks : No
Null samples used in CRC calculations : Yes
Used interface : Native Win32 interface for Win NT & 2000
Gap handling : Appended to previous track
Used output format : User Defined Encoder
Selected bitrate : 896 kBit/s
Quality : High
Add ID3 tag : No
Command line compressor : C:\Program Files (x86)\FLAC Frontend\tools\flac.exe
Additional command line options : -8 -V -T "artist=%artist%" -T "albumartist=%albumartist%" -T "album=%albumtitle%" -T "title=%title%" -T "year=%year%" -T "tracknumber=%tracknr2%" -T "genre=%genre%" %source% -o %dest%
TOC of the extracted CD
Track | Start | Length | Start sector | End sector
---------------------------------------------------------
1 | 0:00.00 | 6:42.42 | 0 | 30191
2 | 6:42.42 | 5:34.00 | 30192 | 55241
3 | 12:16.42 | 5:32.57 | 55242 | 80198
4 | 17:49.24 | 7:56.24 | 80199 | 115922
5 | 25:45.48 | 4:19.36 | 115923 | 135383
6 | 30:05.09 | 4:26.61 | 135384 | 155394
7 | 34:31.70 | 5:44.06 | 155395 | 181200
8 | 40:16.01 | 5:19.29 | 181201 | 205154
9 | 45:35.30 | 4:30.06 | 205155 | 225410
10 | 50:05.36 | 6:51.19 | 225411 | 256254
11 | 56:56.55 | 11:11.29 | 256255 | 306608
Track 1
Filename F:\My Documents\My Music\Albums (Complete)\01. Anathema - Anathema.wav
Pre-gap length 0:00:02.00
Peak level 98.6 %
Extraction speed 5.3 X
Track quality 100.0 %
Test CRC 89161082
Copy CRC 89161082
Track not present in AccurateRip database
Copy OK
Track 2
Filename F:\My Documents\My Music\Albums (Complete)\02. Opeth - Cusp Of Eternity.wav
Pre-gap length 0:00:02.00
Peak level 98.8 %
Extraction speed 5.5 X
Track quality 99.9 %
Test CRC 05A4A2ED
Copy CRC 05A4A2ED
Track not present in AccurateRip database
Copy OK
Track 3
Filename F:\My Documents\My Music\Albums (Complete)\03. Threshold - Watchtower On The Moon.wav
Pre-gap length 0:00:02.00
Peak level 96.5 %
Extraction speed 6.6 X
Track quality 100.0 %
Test CRC 5B69C74E
Copy CRC 5B69C74E
Track not present in AccurateRip database
Copy OK
Track 4
Filename F:\My Documents\My Music\Albums (Complete)\04. Cap - Robin Again.wav
Pre-gap length 0:00:02.00
Peak level 98.8 %
Extraction speed 7.5 X
Track quality 100.0 %
Test CRC 6719F5D2
Copy CRC 6719F5D2
Track not present in AccurateRip database
Copy OK
Track 5
Filename F:\My Documents\My Music\Albums (Complete)\05. Engineers - Fight Or Flight.wav
Pre-gap length 0:00:02.00
Peak level 96.9 %
Extraction speed 7.4 X
Track quality 100.0 %
Test CRC 7327122E
Copy CRC 7327122E
Track not present in AccurateRip database
Copy OK
Track 6
Filename F:\My Documents\My Music\Albums (Complete)\06. Knifeworld - Destroy The World We Love (Edit).wav
Pre-gap length 0:00:02.00
Peak level 100.0 %
Extraction speed 7.7 X
Track quality 100.0 %
Test CRC 7256B8AB
Copy CRC 7256B8AB
Track not present in AccurateRip database
Copy OK
Track 7
Filename F:\My Documents\My Music\Albums (Complete)\07. Chat Noir - Chelsea High Line.wav
Pre-gap length 0:00:02.00
Peak level 98.8 %
Extraction speed 8.4 X
Track quality 100.0 %
Test CRC 40434C3C
Copy CRC 40434C3C
Track not present in AccurateRip database
Copy OK
Track 8
Filename F:\My Documents\My Music\Albums (Complete)\08. Prescott - Two Words Ruder.wav
Pre-gap length 0:00:02.00
Peak level 93.8 %
Extraction speed 7.8 X
Track quality 99.9 %
Test CRC 9538AEEF
Copy CRC 9538AEEF
Track not present in AccurateRip database
Copy OK
Track 9
Filename F:\My Documents\My Music\Albums (Complete)\09. Mumpbeak - Oak.wav
Pre-gap length 0:00:02.00
Peak level 98.8 %
Extraction speed 8.8 X
Track quality 100.0 %
Test CRC 76D55175
Copy CRC 76D55175
Track not present in AccurateRip database
Copy OK
Track 10
Filename F:\My Documents\My Music\Albums (Complete)\10. A Secret River - No Way To Say Goodbye.wav
Pre-gap length 0:00:02.00
Peak level 98.8 %
Extraction speed 9.6 X
Track quality 100.0 %
Test CRC 567429CA
Copy CRC 567429CA
Track not present in AccurateRip database
Copy OK
Track 11
Filename F:\My Documents\My Music\Albums (Complete)\11. Monarch Trail - Luminescence.wav
Pre-gap length 0:00:02.00
Peak level 98.8 %
Extraction speed 9.9 X
Track quality 100.0 %
Test CRC AB36C9DE
Copy CRC AB36C9DE
Track not present in AccurateRip database
Copy OK
None of the tracks are present in the AccurateRip database
No errors occurred
End of status report
==== Log checksum 4E512C38CA96EFFEEC0107D00CC19A5A3DF7C168465403BC2F6E09BD24267DA5 ====

Содержание индексной карты (.CUE)

REM GENRE "Progressive Rock"
REM DATE 2014
REM DISCID 8E0FF80B
REM COMMENT "ExactAudioCopy v1.0b3"
PERFORMER "Various Artists"
TITLE "Prog P26: As Sure As Eggs Is Eggs"
FILE "01. Anathema - Anathema.wav" WAVE
TRACK 01 AUDIO
TITLE "Anathema"
PERFORMER "Anathema"
INDEX 01 00:00:00
TRACK 02 AUDIO
TITLE "Cusp Of Eternity"
PERFORMER "Opeth"
INDEX 00 06:40:42
FILE "02. Opeth - Cusp Of Eternity.wav" WAVE
INDEX 01 00:00:00
TRACK 03 AUDIO
TITLE "Watchtower On The Moon"
PERFORMER "Threshold"
INDEX 00 05:32:00
FILE "03. Threshold - Watchtower On The Moon.wav" WAVE
INDEX 01 00:00:00
TRACK 04 AUDIO
TITLE "Robin Again"
PERFORMER "Cap"
INDEX 00 05:30:57
FILE "04. Cap - Robin Again.wav" WAVE
INDEX 01 00:00:00
TRACK 05 AUDIO
TITLE "Fight Or Flight"
PERFORMER "Engineers"
INDEX 00 07:54:24
FILE "05. Engineers - Fight Or Flight.wav" WAVE
INDEX 01 00:00:00
TRACK 06 AUDIO
TITLE "Destroy The World We Love (Edit)"
PERFORMER "Knifeworld"
INDEX 00 04:17:36
FILE "06. Knifeworld - Destroy The World We Love (Edit).wav" WAVE
INDEX 01 00:00:00
TRACK 07 AUDIO
TITLE "Chelsea High Line"
PERFORMER "Chat Noir"
INDEX 00 04:24:61
FILE "07. Chat Noir - Chelsea High Line.wav" WAVE
INDEX 01 00:00:00
TRACK 08 AUDIO
TITLE "Two Words Ruder"
PERFORMER "Prescott"
INDEX 00 05:42:06
FILE "08. Prescott - Two Words Ruder.wav" WAVE
INDEX 01 00:00:00
TRACK 09 AUDIO
TITLE "Oak"
PERFORMER "Mumpbeak"
INDEX 00 05:17:29
FILE "09. Mumpbeak - Oak.wav" WAVE
INDEX 01 00:00:00
TRACK 10 AUDIO
TITLE "No Way To Say Goodbye"
PERFORMER "A Secret River"
INDEX 00 04:28:06
FILE "10. A Secret River - No Way To Say Goodbye.wav" WAVE
INDEX 01 00:00:00
TRACK 11 AUDIO
TITLE "Luminescence"
PERFORMER "Monarch Trail"
INDEX 00 06:49:19
FILE "11. Monarch Trail - Luminescence.wav" WAVE
INDEX 01 00:00:00

Лог проверки качества

-----------------------
DON'T MODIFY THIS FILE
-----------------------
PERFORMER: auCDtect Task Manager, ver. 1.5.1RC6 build 1.5.1.7
Copyright (c) 2008-2010 y-soft. All rights reserved
http://y-soft.org
ANALYZER: auCDtect: CD records authenticity detector, version 0.8.2
Copyright (c) 2004 Oleg Berngardt. All rights reserved.
Copyright (c) 2004 Alexander Djourik. All rights reserved.
FILE: 11. Monarch Trail - Luminescence.flac
Size: 81434861 Hash: 0FE1B9AA0EADBC0BDADEB1F4F4080379 Accuracy: -m0
Conclusion: CDDA 100%
Signature: BF64EAEAA081323AE078B96882EB6FF1ACE908BE
FILE: 10. A Secret River - No Way To Say Goodbye.flac
Size: 46628182 Hash: AE9D743EE31D420277922151C8C53DCB Accuracy: -m0
Conclusion: CDDA 100%
Signature: 0105D44734D9A87320A6137C41973BC1CA74BE6D
FILE: 09. Mumpbeak - Oak.flac
Size: 31408636 Hash: 9734036DF8109AF2312EC9B5E20FB85C Accuracy: -m0
Conclusion: CDDA 100%
Signature: FFC1189CB8ADE6E83C3945CEA1F4E7F181F6955F
FILE: 08. Prescott - Two Words Ruder.flac
Size: 30791720 Hash: ADD9578D571C8F4209A53147FB60970E Accuracy: -m0
Conclusion: CDDA 100%
Signature: 181C6DBD232096DB5F1F56BDEC230CA99BD0D5DD
FILE: 07. Chat Noir - Chelsea High Line.flac
Size: 35287241 Hash: 7013D49943526E7DC36B134FBC730CB4 Accuracy: -m0
Conclusion: CDDA 100%
Signature: DC233E48EC380C00C3A01EFC69A6BDBAB4E01BC4
FILE: 06. Knifeworld - Destroy The World We Love (Edit).flac
Size: 30840365 Hash: 6FE8F1080C7C6728E4400B149340AB2E Accuracy: -m0
Conclusion: CDDA 100%
Signature: FEB1EE72D9A286916738871157ACD41D4B354E2B
FILE: 05. Engineers - Fight Or Flight.flac
Size: 31008215 Hash: C7D2FA544FA649110E5984665668B3E9 Accuracy: -m0
Conclusion: CDDA 100%
Signature: D148E2EB470FBF577D27F80BA9CC32C1311EA0AC
FILE: 04. Cap - Robin Again.flac
Size: 50501351 Hash: 82950C6EBFB6C85F6FBEC5D1143913ED Accuracy: -m0
Conclusion: MPEG 95%
Signature: 1E439199AF03CA7D95D8047AF3FF3E92D268D3FD
FILE: 03. Threshold - Watchtower On The Moon.flac
Size: 43997802 Hash: 5A3C53ED67278320B4A50B6A74D8CD3D Accuracy: -m0
Conclusion: CDDA 100%
Signature: D5BDBBFD77568CC034C3FB20F0157EF4A2DEC031
FILE: 02. Opeth - Cusp Of Eternity.flac
Size: 39385429 Hash: 75BC0C483EAEC593F5DB72CE4764D06D Accuracy: -m0
Conclusion: CDDA 100%
Signature: 06D7378A0CCE7F3B91D3D59D4C4B0B8F2098934F
FILE: 01. Anathema - Anathema.flac
Size: 43021535 Hash: 0C35AE65B498A9E27F8C1B56E6FBB91A Accuracy: -m0
Conclusion: CDDA 100%
Signature: 5B8FC1CFA94DEC67BFD6A010B4699D99916B7904

Скриншот спектра частот

To download the file disable ad blocking, and reload the page.

disable adblock How to disable ad blocking?

Download by magnet link 445 MB Download Torrent

Login using:

Similar topics



   
Current time is: 15-Nov 23:59 :: All times are UTC + 3