Various Artists - Prog P25: Airborne
--Жанр: Progressive Rock
Носитель: CD
производитель диска: EU
Год издания: 2014
Издатель (лейбл): TeamRock
Аудиокодек: FLAC (*.flac)
Тип рипа: tracks+.cue
Битрейт аудио: lossless
Продолжительность: 01:07:35
Источник: internet
Наличие сканов : да
Треклист:
01. Robert Reed - Sanctury [00:07:22]
02. Perfect Beings - Fictions [00:04:54]
03. CAP - Soli Sull'olimpo [00:07:53]
04. The Gift - Road Runs On 'Til Morning [00:07:07]
05. Alien Quartet - Table For One (At Katz's Deli) [00:06:00]
06. Chat Noir - Chelsea High Line [00:05:44]
07. Interstatic - Caerbannog [00:05:20]
08. Epica - Unchain Utopia [00:04:45]
09. Collibus - The False Awakening [00:05:45]
10. Hammerhead - Psilocybin [00:12:41]

-

Лог создания рипа

Exact Audio Copy V1.0 beta 3 from 29. August 2011
EAC extraction logfile from 2. July 2014, 22:09
Various Artists / Prog - P25: Airborne
Used drive : ATAPI iHAS124 W Adapter: 1 ID: 0
Read mode : Secure
Utilize accurate stream : Yes
Defeat audio cache : Yes
Make use of C2 pointers : No
Read offset correction : 48
Overread into Lead-In and Lead-Out : No
Fill up missing offset samples with silence : Yes
Delete leading and trailing silent blocks : No
Null samples used in CRC calculations : Yes
Used interface : Native Win32 interface for Win NT & 2000
Gap handling : Appended to previous track
Used output format : User Defined Encoder
Selected bitrate : 896 kBit/s
Quality : High
Add ID3 tag : No
Command line compressor : C:\Program Files (x86)\FLAC Frontend\tools\flac.exe
Additional command line options : -8 -V -T "artist=%artist%" -T "albumartist=%albumartist%" -T "album=%albumtitle%" -T "title=%title%" -T "year=%year%" -T "tracknumber=%tracknr2%" -T "genre=%genre%" %source% -o %dest%
TOC of the extracted CD
Track | Start | Length | Start sector | End sector
---------------------------------------------------------
1 | 0:00.00 | 7:22.13 | 0 | 33162
2 | 7:22.13 | 4:54.43 | 33163 | 55255
3 | 12:16.56 | 7:53.17 | 55256 | 90747
4 | 20:09.73 | 7:07.29 | 90748 | 122801
5 | 27:17.27 | 6:00.69 | 122802 | 149870
6 | 33:18.21 | 5:44.06 | 149871 | 175676
7 | 39:02.27 | 5:20.58 | 175677 | 199734
8 | 44:23.10 | 4:45.70 | 199735 | 221179
9 | 49:09.05 | 5:45.11 | 221180 | 247065
10 | 54:54.16 | 12:41.36 | 247066 | 304176
Track 1
Filename F:\My Documents\My Music\Albums (Complete)\01. Robert Reed - Sanctury.wav
Pre-gap length 0:00:02.00
Peak level 98.8 %
Extraction speed 5.3 X
Track quality 100.0 %
Test CRC 408B4ECD
Copy CRC 408B4ECD
Track not present in AccurateRip database
Copy OK
Track 2
Filename F:\My Documents\My Music\Albums (Complete)\02. Perfect Beings - Fictions.wav
Pre-gap length 0:00:02.00
Peak level 99.8 %
Extraction speed 5.7 X
Track quality 100.0 %
Test CRC F60FE3AE
Copy CRC F60FE3AE
Track not present in AccurateRip database
Copy OK
Track 3
Filename F:\My Documents\My Music\Albums (Complete)\03. CAP - Soli Sull'olimpo.wav
Pre-gap length 0:00:02.00
Peak level 98.8 %
Extraction speed 6.5 X
Track quality 100.0 %
Test CRC 3EF251B8
Copy CRC 3EF251B8
Track not present in AccurateRip database
Copy OK
Track 4
Filename F:\My Documents\My Music\Albums (Complete)\04. The Gift - Road Runs On 'Til Morning.wav
Pre-gap length 0:00:02.00
Peak level 98.8 %
Extraction speed 7.2 X
Track quality 100.0 %
Test CRC 87096416
Copy CRC 87096416
Track not present in AccurateRip database
Copy OK
Track 5
Filename F:\My Documents\My Music\Albums (Complete)\05. Alien Quartet - Table For One (At Katz's Deli).wav
Pre-gap length 0:00:02.00
Peak level 98.8 %
Extraction speed 7.5 X
Track quality 100.0 %
Test CRC 427E3082
Copy CRC 427E3082
Track not present in AccurateRip database
Copy OK
Track 6
Filename F:\My Documents\My Music\Albums (Complete)\06. Chat Noir - Chelsea High Line.wav
Pre-gap length 0:00:02.00
Peak level 98.8 %
Extraction speed 7.8 X
Track quality 100.0 %
Test CRC 7D82D3D0
Copy CRC 7D82D3D0
Track not present in AccurateRip database
Copy OK
Track 7
Filename F:\My Documents\My Music\Albums (Complete)\07. Interstatic - Caerbannog.wav
Pre-gap length 0:00:02.00
Peak level 98.8 %
Extraction speed 7.9 X
Track quality 100.0 %
Test CRC C7CD8FEF
Copy CRC C7CD8FEF
Track not present in AccurateRip database
Copy OK
Track 8
Filename F:\My Documents\My Music\Albums (Complete)\08. Epica - Unchain Utopia.wav
Pre-gap length 0:00:02.00
Peak level 98.8 %
Extraction speed 8.1 X
Track quality 100.0 %
Test CRC 586DB796
Copy CRC 586DB796
Track not present in AccurateRip database
Copy OK
Track 9
Filename F:\My Documents\My Music\Albums (Complete)\09. Collibus - The False Awakening.wav
Pre-gap length 0:00:02.00
Peak level 99.0 %
Extraction speed 8.1 X
Track quality 100.0 %
Test CRC 08EA0842
Copy CRC 08EA0842
Track not present in AccurateRip database
Copy OK
Track 10
Filename F:\My Documents\My Music\Albums (Complete)\10. Hammerhead - Psilocybin.wav
Pre-gap length 0:00:02.00
Peak level 98.8 %
Extraction speed 5.2 X
Track quality 100.0 %
Test CRC 9A132560
Copy CRC 9A132560
Track not present in AccurateRip database
Copy OK
None of the tracks are present in the AccurateRip database
No errors occurred
End of status report
==== Log checksum 64B88CFC68AB1BED72453DA5E87E3425F301067BE8D3129B8EEC15519BE3DF05 ====

Содержание индексной карты (.CUE)

REM GENRE "Progressive Rock"
REM DATE 2014
REM DISCID 7F0FD70A
REM COMMENT "ExactAudioCopy v1.0b3"
PERFORMER "Various Artists"
TITLE "Prog - P25: Airborne"
FILE "01. Robert Reed - Sanctury.wav" WAVE
TRACK 01 AUDIO
TITLE "Sanctury"
PERFORMER "Robert Reed"
INDEX 01 00:00:00
INDEX 02 06:28:24
INDEX 03 06:30:09
INDEX 04 06:30:39
INDEX 05 06:35:69
TRACK 02 AUDIO
TITLE "Fictions"
PERFORMER "Perfect Beings"
INDEX 00 07:20:13
FILE "02. Perfect Beings - Fictions.wav" WAVE
INDEX 01 00:00:00
TRACK 03 AUDIO
TITLE "Soli Sull'olimpo"
PERFORMER "CAP"
INDEX 00 04:52:43
FILE "03. CAP - Soli Sull'olimpo.wav" WAVE
INDEX 01 00:00:00
TRACK 04 AUDIO
TITLE "Road Runs On 'Til Morning"
PERFORMER "The Gift"
INDEX 00 07:51:17
FILE "04. The Gift - Road Runs On 'Til Morning.wav" WAVE
INDEX 01 00:00:00
TRACK 05 AUDIO
TITLE "Table For One (At Katz's Deli)"
PERFORMER "Alien Quartet"
INDEX 00 07:05:29
FILE "05. Alien Quartet - Table For One (At Katz's Deli).wav" WAVE
INDEX 01 00:00:00
TRACK 06 AUDIO
TITLE "Chelsea High Line"
PERFORMER "Chat Noir"
INDEX 00 05:58:69
FILE "06. Chat Noir - Chelsea High Line.wav" WAVE
INDEX 01 00:00:00
TRACK 07 AUDIO
TITLE "Caerbannog"
PERFORMER "Interstatic"
INDEX 00 05:42:06
FILE "07. Interstatic - Caerbannog.wav" WAVE
INDEX 01 00:00:00
TRACK 08 AUDIO
TITLE "Unchain Utopia"
PERFORMER "Epica"
INDEX 00 05:18:58
FILE "08. Epica - Unchain Utopia.wav" WAVE
INDEX 01 00:00:00
TRACK 09 AUDIO
TITLE "The False Awakening"
PERFORMER "Collibus"
INDEX 00 04:43:70
FILE "09. Collibus - The False Awakening.wav" WAVE
INDEX 01 00:00:00
TRACK 10 AUDIO
TITLE "Psilocybin"
PERFORMER "Hammerhead"
INDEX 00 05:43:11
FILE "10. Hammerhead - Psilocybin.wav" WAVE
INDEX 01 00:00:00

Лог проверки качества

-----------------------
DON'T MODIFY THIS FILE
-----------------------
PERFORMER: auCDtect Task Manager, ver. 1.5.1RC6 build 1.5.1.7
Copyright (c) 2008-2010 y-soft. All rights reserved
http://y-soft.org
ANALYZER: auCDtect: CD records authenticity detector, version 0.8.2
Copyright (c) 2004 Oleg Berngardt. All rights reserved.
Copyright (c) 2004 Alexander Djourik. All rights reserved.
FILE: 10. Hammerhead - Psilocybin.flac
Size: 85413428 Hash: D6DA36665952D978B1565D037CFA9ADD Accuracy: -m0
Conclusion: CDDA 100%
Signature: 33CA57ADA6C41F9CE93A34A7D84757D445A4A900
FILE: 09. Collibus - The False Awakening.flac
Size: 43756280 Hash: 163BD623AD60E4477338E06CF1CDE962 Accuracy: -m0
Conclusion: CDDA 100%
Signature: 975BB554F4250DEEA20BD9B92A6712783345E5BF
FILE: 08. Epica - Unchain Utopia.flac
Size: 37462381 Hash: 99F0528244ED6182882308FE7A98B19B Accuracy: -m0
Conclusion: CDDA 99%
Signature: 005C9E357CD2EF3BBF7A39943554BBB5F05085F6
FILE: 07. Interstatic - Caerbannog.flac
Size: 40202615 Hash: B3DB2AAAF335D4647DEECC01C35E7399 Accuracy: -m0
Conclusion: CDDA 100%
Signature: F131FEDC169E4E8E5DB6E3F353F88AE58A64DA98
FILE: 06. Chat Noir - Chelsea High Line.flac
Size: 35856621 Hash: 0726A72C115420B5AFBF352B0E919D9C Accuracy: -m0
Conclusion: CDDA 100%
Signature: 5B970A4E1A9683624F7DA7A09D58352D0CEA5FCB
FILE: 05. Alien Quartet - Table For One (At Katz's Deli).flac
Size: 42394063 Hash: F0C394CA46EF637AD5DE23B34C121FC3 Accuracy: -m0
Conclusion: CDDA 99%
Signature: BF04C41655C13510858252226F6477E27369F195
FILE: 04. The Gift - Road Runs On 'Til Morning.flac
Size: 53228222 Hash: 33000C8DB4C3209B0A3D0FD03FFE46BD Accuracy: -m0
Conclusion: CDDA 99%
Signature: 5A7D013552CE130CAEBC1615195C729D628C2B99
FILE: 03. CAP - Soli Sull'olimpo.flac
Size: 47849995 Hash: 274370C4D7F5542A3E5E179165B71AD1 Accuracy: -m0
Conclusion: MPEG 95%
Signature: 60D21F617DA7FC91F2327E5FB9229A229B16204D
FILE: 02. Perfect Beings - Fictions.flac
Size: 33330834 Hash: EE03C34D8DEA9DA7682764CF61F339F1 Accuracy: -m0
Conclusion: CDDA 100%
Signature: 125E2D6BEBF17843897E7DADCA670A8E214AF139
FILE: 01. Robert Reed - Sanctury.flac
Size: 46389136 Hash: 930CA0AA358FB0D1C8937DD49C5F0C4A Accuracy: -m0
Conclusion: CDDA 58%
Signature: 7BC9C63FA0E175AB09782E39C0DF647C0277D890

Скриншот спектра частот

To download the file disable ad blocking, and reload the page.

disable adblock How to disable ad blocking?

Download by magnet link 447 MB Download Torrent

Login using:

Similar topics



   
Current time is: 20-Sep 00:08 :: All times are UTC ± 0