Various Artists - Prog P24: Little Fluffy Clouds
--Жанр: Progressive Rock
Носитель: CD
производитель диска: EU
Год издания: 2014
Издатель (лейбл): TeamRock
Аудиокодек: FLAC (*.flac)
Тип рипа: tracks+.cue
Битрейт аудио: lossless
Продолжительность: 00:58:36
Источник (релизер): internet
Наличие сканов: да
Треклист:
01. IQ - The Road Of Bones [00:08:32]
02. Anathema - The Lost Song, Part 3 [00:05:20]
03. Mostly Autumn - Dressed In Voices [00:05:49]
04. Dream The Electric Sheep - I Know What You Are [00:06:43]
05. Neon Leaves - Tickertape Nightlife [00:04:40]
06. Hi Science Fiction - Digitalis [00:04:07]
07. Tim Bowness - The Warm-Up Forever [00:04:08]
08. Tiles - Hide And Seek [00:08:10]
09. The Crimson Projekct - Elephant Talk [00:04:50]
10. Brimstone - Flapping Lips At Ankle Height [00:06:13]
--

Лог создания рипа

Exact Audio Copy V1.0 beta 3 from 29. August 2011
EAC extraction logfile from 28. May 2014, 20:52
Various Artists / Prog - P24: Little Fluffy Clouds
Used drive : ATAPI iHAS124 W Adapter: 1 ID: 0
Read mode : Secure
Utilize accurate stream : Yes
Defeat audio cache : Yes
Make use of C2 pointers : No
Read offset correction : 48
Overread into Lead-In and Lead-Out : No
Fill up missing offset samples with silence : Yes
Delete leading and trailing silent blocks : No
Null samples used in CRC calculations : Yes
Used interface : Native Win32 interface for Win NT & 2000
Gap handling : Appended to previous track
Used output format : User Defined Encoder
Selected bitrate : 896 kBit/s
Quality : High
Add ID3 tag : No
Command line compressor : C:\Program Files (x86)\FLAC Frontend\tools\flac.exe
Additional command line options : -8 -V -T "artist=%artist%" -T "albumartist=%albumartist%" -T "album=%albumtitle%" -T "title=%title%" -T "year=%year%" -T "tracknumber=%tracknr2%" -T "genre=%genre%" %source% -o %dest%
TOC of the extracted CD
Track | Start | Length | Start sector | End sector
---------------------------------------------------------
1 | 0:00.00 | 8:32.00 | 0 | 38399
2 | 8:32.00 | 5:20.00 | 38400 | 62399
3 | 13:52.00 | 5:49.60 | 62400 | 88634
4 | 19:41.60 | 6:43.65 | 88635 | 118924
5 | 26:25.50 | 4:40.12 | 118925 | 139936
6 | 31:05.62 | 4:07.54 | 139937 | 158515
7 | 35:13.41 | 4:08.36 | 158516 | 177151
8 | 39:22.02 | 8:10.20 | 177152 | 213921
9 | 47:32.22 | 4:50.56 | 213922 | 235727
10 | 52:23.03 | 6:13.71 | 235728 | 263773
Track 1
Filename F:\My Documents\My Music\Albums (Complete)\01. IQ - The Road Of Bones.wav
Pre-gap length 0:00:02.00
Peak level 99.8 %
Extraction speed 5.0 X
Track quality 100.0 %
Test CRC DE7DF3C6
Copy CRC DE7DF3C6
Track not present in AccurateRip database
Copy OK
Track 2
Filename F:\My Documents\My Music\Albums (Complete)\02. Anathema - The Lost Song, Part 3.wav
Pre-gap length 0:00:02.00
Peak level 98.7 %
Extraction speed 5.1 X
Track quality 99.9 %
Test CRC F6E83ED3
Copy CRC F6E83ED3
Track not present in AccurateRip database
Copy OK
Track 3
Filename F:\My Documents\My Music\Albums (Complete)\03. Mostly Autumn - Dressed In Voices.wav
Pre-gap length 0:00:02.00
Peak level 98.8 %
Extraction speed 6.1 X
Track quality 100.0 %
Test CRC CCA4A950
Copy CRC CCA4A950
Track not present in AccurateRip database
Copy OK
Track 4
Filename F:\My Documents\My Music\Albums (Complete)\04. Dream The Electric Sheep - I Know What You Are.wav
Pre-gap length 0:00:02.00
Peak level 100.0 %
Extraction speed 6.8 X
Track quality 100.0 %
Test CRC 4DF7AE7E
Copy CRC 4DF7AE7E
Track not present in AccurateRip database
Copy OK
Track 5
Filename F:\My Documents\My Music\Albums (Complete)\05. Neon Leaves - Tickertape Nightlife.wav
Pre-gap length 0:00:02.00
Peak level 98.8 %
Extraction speed 6.1 X
Track quality 99.9 %
Test CRC 3C2E1D1B
Copy CRC 3C2E1D1B
Track not present in AccurateRip database
Copy OK
Track 6
Filename F:\My Documents\My Music\Albums (Complete)\06. Hi Science Fiction - Digitalis.wav
Pre-gap length 0:00:02.00
Peak level 98.8 %
Extraction speed 6.9 X
Track quality 100.0 %
Test CRC F4D1CEB3
Copy CRC F4D1CEB3
Track not present in AccurateRip database
Copy OK
Track 7
Filename F:\My Documents\My Music\Albums (Complete)\07. Tim Bowness - The Warm-Up Forever.wav
Pre-gap length 0:00:02.00
Peak level 99.4 %
Extraction speed 7.3 X
Track quality 100.0 %
Test CRC 1DD85CB6
Copy CRC 1DD85CB6
Track not present in AccurateRip database
Copy OK
Track 8
Filename F:\My Documents\My Music\Albums (Complete)\08. Tiles - Hide And Seek.wav
Pre-gap length 0:00:02.00
Peak level 99.4 %
Extraction speed 7.9 X
Track quality 100.0 %
Test CRC CE034DC7
Copy CRC CE034DC7
Track not present in AccurateRip database
Copy OK
Track 9
Filename F:\My Documents\My Music\Albums (Complete)\09. The Crimson Projekct - Elephant Talk.wav
Pre-gap length 0:00:02.00
Peak level 98.8 %
Extraction speed 7.9 X
Track quality 100.0 %
Test CRC BE2390E8
Copy CRC BE2390E8
Track not present in AccurateRip database
Copy OK
Track 10
Filename F:\My Documents\My Music\Albums (Complete)\10. Brimstone - Flapping Lips At Ankle Height.wav
Pre-gap length 0:00:02.00
Peak level 98.3 %
Extraction speed 8.6 X
Track quality 100.0 %
Test CRC 1917C9F4
Copy CRC 1917C9F4
Track not present in AccurateRip database
Copy OK
None of the tracks are present in the AccurateRip database
No errors occurred
End of status report
==== Log checksum CBCC30E76C4A2779FD16296989C6686DB0CF44E111621BBD5FD74DA291913890 ====

Содержание индексной карты (.CUE)

REM GENRE "Progressive Rock"
REM DATE 2014
REM DISCID 8B0DBC0A
REM COMMENT "ExactAudioCopy v1.0b3"
PERFORMER "Various Artists"
TITLE "Prog - P24: Little Fluffy Clouds"
FILE "01. IQ - The Road Of Bones.wav" WAVE
TRACK 01 AUDIO
TITLE "The Road Of Bones"
PERFORMER "IQ"
INDEX 01 00:00:00
TRACK 02 AUDIO
TITLE "The Lost Song, Part 3"
PERFORMER "Anathema"
INDEX 00 08:30:00
FILE "02. Anathema - The Lost Song, Part 3.wav" WAVE
INDEX 01 00:00:00
TRACK 03 AUDIO
TITLE "Dressed In Voices"
PERFORMER "Mostly Autumn"
INDEX 00 05:18:00
FILE "03. Mostly Autumn - Dressed In Voices.wav" WAVE
INDEX 01 00:00:00
TRACK 04 AUDIO
TITLE "I Know What You Are"
PERFORMER "Dream The Electric Sheep"
INDEX 00 05:47:60
FILE "04. Dream The Electric Sheep - I Know What You Are.wav" WAVE
INDEX 01 00:00:00
TRACK 05 AUDIO
TITLE "Tickertape Nightlife"
PERFORMER "Neon Leaves"
INDEX 00 06:41:65
FILE "05. Neon Leaves - Tickertape Nightlife.wav" WAVE
INDEX 01 00:00:00
TRACK 06 AUDIO
TITLE "Digitalis"
PERFORMER "Hi Science Fiction"
INDEX 00 04:38:12
FILE "06. Hi Science Fiction - Digitalis.wav" WAVE
INDEX 01 00:00:00
TRACK 07 AUDIO
TITLE "The Warm-Up Forever"
PERFORMER "Tim Bowness"
INDEX 00 04:05:54
FILE "07. Tim Bowness - The Warm-Up Forever.wav" WAVE
INDEX 01 00:00:00
TRACK 08 AUDIO
TITLE "Hide And Seek"
PERFORMER "Tiles"
INDEX 00 04:06:36
FILE "08. Tiles - Hide And Seek.wav" WAVE
INDEX 01 00:00:00
TRACK 09 AUDIO
TITLE "Elephant Talk"
PERFORMER "The Crimson Projekct"
INDEX 00 08:08:20
FILE "09. The Crimson Projekct - Elephant Talk.wav" WAVE
INDEX 01 00:00:00
TRACK 10 AUDIO
TITLE "Flapping Lips At Ankle Height"
PERFORMER "Brimstone"
INDEX 00 04:48:56
FILE "10. Brimstone - Flapping Lips At Ankle Height.wav" WAVE
INDEX 01 00:00:00

Лог проверки качества

-----------------------
DON'T MODIFY THIS FILE
-----------------------
PERFORMER: auCDtect Task Manager, ver. 1.5.1RC6 build 1.5.1.7
Copyright (c) 2008-2010 y-soft. All rights reserved
http://y-soft.org
ANALYZER: auCDtect: CD records authenticity detector, version 0.8.2
Copyright (c) 2004 Oleg Berngardt. All rights reserved.
Copyright (c) 2004 Alexander Djourik. All rights reserved.
FILE: 10. Brimstone - Flapping Lips At Ankle Height.flac
Size: 46488546 Hash: D159654DF4CABE1B1D5A1B45501D4387 Accuracy: -m0
Conclusion: CDDA 100%
Signature: D3B273EA1DBF1DDBC9B47DD8F1C0351FFF49AE97
FILE: 09. The Crimson Projekct - Elephant Talk.flac
Size: 33757067 Hash: 73516033EEC4FE7B84A71742428963F5 Accuracy: -m0
Conclusion: CDDA 99%
Signature: 76DA85A3CCE7E663AFE703743FF07198AADDFCA5
FILE: 08. Tiles - Hide And Seek.flac
Size: 61262802 Hash: F8A937C6FD931487B59886CDD5794BB4 Accuracy: -m0
Conclusion: CDDA 100%
Signature: 15737CE4B785B44BE36DE9718E73C26C1CE788AD
FILE: 07. Tim Bowness - The Warm-Up Forever.flac
Size: 27295786 Hash: 8178E6AE01B7F6C5F7F4D8798EAA0A83 Accuracy: -m0
Conclusion: CDDA 100%
Signature: 49FA72361138429BE2E76FD625E13DC5E569B04E
FILE: 06. Hi Science Fiction - Digitalis.flac
Size: 24710335 Hash: 96E9F036C9BBE4F83555DBC4257CF455 Accuracy: -m0
Conclusion: CDDA 100%
Signature: 9180B1A0437086E1A95D26240A84137C3BC7D3DC
FILE: 05. Neon Leaves - Tickertape Nightlife.flac
Size: 29590781 Hash: AB0AC037D142632D4C68D66E98A74B26 Accuracy: -m0
Conclusion: CDDA 100%
Signature: EA41C91A7B0442EE600EFB5880250F19AFCE4BC9
FILE: 04. Dream The Electric Sheep - I Know What You Are.flac
Size: 42024316 Hash: 113DCE0FBC8602149E8F5540A28F4E23 Accuracy: -m0
Conclusion: CDDA 100%
Signature: 2A7B10CF6727DE7862FEC60B2BBD16744EEF0453
FILE: 03. Mostly Autumn - Dressed In Voices.flac
Size: 37478479 Hash: D26C777CB8E38D5B4EAD4B0F07E28F53 Accuracy: -m0
Conclusion: CDDA 99%
Signature: 7A3066D3D3D400FD0A66800F7780A5468B15D4F1
FILE: 02. Anathema - The Lost Song, Part 3.flac
Size: 36392055 Hash: 50C8DFDA6C011B32A6A9AE3B238DD720 Accuracy: -m0
Conclusion: CDDA 100%
Signature: 148567F4C50B7F1009A424C3DB22121A1E947A47
FILE: 01. IQ - The Road Of Bones.flac
Size: 55623477 Hash: 4CC9872A1D5CB3518CDC64FCBFC1AC16 Accuracy: -m0
Conclusion: CDDA 100%
Signature: 5F711D8039F6B1F29F01C784738B80F0C259E86D

Скриншот спектра частот

To download the file disable ad blocking, and reload the page.

disable adblock How to disable ad blocking?

Download by magnet link 378 MB Download Torrent

Login using:

Similar topics



   
Current time is: 15-Nov 21:59 :: All times are UTC + 3