Various Artists - Prog P23: A Lifetime Of Adventure ...
--Жанр: Progressive Rock
Носитель: CD
Страна-производитель диска: EU
Год издания: 2014
Издатель (лейбл): TeamRock
Аудиокодек: FLAC (*.flac)
Тип рипа: tracks+.cue
Битрейт аудио: lossless
Продолжительность: 01:05:18
Источник (релизер): internet
Наличие сканов: да
Треклист:
01. Sontaag - Interstellar Genocide [00:03:35]
02. Nick Magnus - Time [00:06:24]
03. Halo Blind - Better [00:04:26]
04. Se Delan - Tonight [00:04:09]
05. Aisles - Melancholia [00:10:38]
06. Matt Stevens - The Bridge [00:11:46]
07. Cap - Robin Delle Stelle [00:07:50]
08. Eyes & No Eyes - Hidden Thieves [00:06:29]
09. John Bassett - Stay Away From The Dark [00:04:08]
10. Preacher - Signals [00:05:51]

-

Лог создания рипа

Exact Audio Copy V1.0 beta 3 from 29. August 2011
EAC extraction logfile from 23. April 2014, 21:47
Various Artists / Prog - P23: A Lifetime Of Adventure ...
Used drive : ATAPI iHAS124 W Adapter: 1 ID: 0
Read mode : Secure
Utilize accurate stream : Yes
Defeat audio cache : Yes
Make use of C2 pointers : No
Read offset correction : 48
Overread into Lead-In and Lead-Out : No
Fill up missing offset samples with silence : Yes
Delete leading and trailing silent blocks : No
Null samples used in CRC calculations : Yes
Used interface : Native Win32 interface for Win NT & 2000
Gap handling : Appended to previous track
Used output format : User Defined Encoder
Selected bitrate : 896 kBit/s
Quality : High
Add ID3 tag : No
Command line compressor : C:\Program Files (x86)\FLAC\flac.exe
Additional command line options : -8 -V -T "artist=%artist%" -T "albumartist=%albumartist%" -T "album=%albumtitle%" -T "title=%title%" -T "year=%year%" -T "tracknumber=%tracknr2%" -T "genre=%genre%" %source% -o %dest%
TOC of the extracted CD
Track | Start | Length | Start sector | End sector
---------------------------------------------------------
1 | 0:00.00 | 3:35.30 | 0 | 16154
2 | 3:35.30 | 6:24.28 | 16155 | 44982
3 | 9:59.58 | 4:26.01 | 44983 | 64933
4 | 14:25.59 | 4:09.32 | 64934 | 83640
5 | 18:35.16 | 10:38.20 | 83641 | 131510
6 | 29:13.36 | 11:46.00 | 131511 | 184460
7 | 40:59.36 | 7:50.33 | 184461 | 219743
8 | 48:49.69 | 6:29.30 | 219744 | 248948
9 | 55:19.24 | 4:08.04 | 248949 | 267552
10 | 59:27.28 | 5:51.26 | 267553 | 293903
Track 1
Filename F:\My Documents\My Music\Albums (Complete)\01. Sontaag - Interstellar Genocide.wav
Pre-gap length 0:00:02.00
Peak level 89.1 %
Extraction speed 1.9 X
Track quality 100.0 %
Test CRC 17BA97D7
Copy CRC 17BA97D7
Track not present in AccurateRip database
Copy OK
Track 2
Filename F:\My Documents\My Music\Albums (Complete)\02. Nick Magnus - Time.wav
Pre-gap length 0:00:02.00
Peak level 98.8 %
Extraction speed 2.3 X
Track quality 100.0 %
Test CRC 138CD563
Copy CRC 138CD563
Track not present in AccurateRip database
Copy OK
Track 3
Filename F:\My Documents\My Music\Albums (Complete)\03. Halo Blind - Better.wav
Pre-gap length 0:00:02.00
Peak level 98.8 %
Extraction speed 2.5 X
Track quality 100.0 %
Test CRC 156F4062
Copy CRC 156F4062
Track not present in AccurateRip database
Copy OK
Track 4
Filename F:\My Documents\My Music\Albums (Complete)\04. Se Delan - Tonight.wav
Pre-gap length 0:00:02.00
Peak level 98.8 %
Extraction speed 2.6 X
Track quality 100.0 %
Test CRC CC035ADD
Copy CRC CC035ADD
Track not present in AccurateRip database
Copy OK
Track 5
Filename F:\My Documents\My Music\Albums (Complete)\05. Aisles - Melancholia.wav
Pre-gap length 0:00:02.00
Peak level 98.8 %
Extraction speed 3.1 X
Track quality 100.0 %
Test CRC 15A7E30A
Copy CRC 15A7E30A
Track not present in AccurateRip database
Copy OK
Track 6
Filename F:\My Documents\My Music\Albums (Complete)\06. Matt Stevens - The Bridge.wav
Pre-gap length 0:00:02.00
Peak level 98.8 %
Extraction speed 3.5 X
Track quality 100.0 %
Test CRC FE76D03B
Copy CRC FE76D03B
Track not present in AccurateRip database
Copy OK
Track 7
Filename F:\My Documents\My Music\Albums (Complete)\07. Cap - Robin Delle Stelle.wav
Pre-gap length 0:00:02.00
Peak level 98.8 %
Extraction speed 3.5 X
Track quality 99.9 %
Test CRC F5E36B9A
Copy CRC F5E36B9A
Track not present in AccurateRip database
Copy OK
Track 8
Filename F:\My Documents\My Music\Albums (Complete)\08. Eyes & No Eyes - Hidden Thieves.wav
Pre-gap length 0:00:02.00
Peak level 98.8 %
Extraction speed 3.6 X
Track quality 99.9 %
Test CRC 759E3924
Copy CRC 759E3924
Track not present in AccurateRip database
Copy OK
Track 9
Filename F:\My Documents\My Music\Albums (Complete)\09. John Bassett - Stay Away From The Dark.wav
Pre-gap length 0:00:02.00
Peak level 98.8 %
Extraction speed 3.9 X
Track quality 100.0 %
Test CRC 40B9A586
Copy CRC 40B9A586
Track not present in AccurateRip database
Copy OK
Track 10
Filename F:\My Documents\My Music\Albums (Complete)\10. Preacher - Signals.wav
Pre-gap length 0:00:02.00
Peak level 94.4 %
Extraction speed 4.2 X
Track quality 100.0 %
Test CRC 65F0723B
Copy CRC 65F0723B
Track not present in AccurateRip database
Copy OK
None of the tracks are present in the AccurateRip database
No errors occurred
End of status report
==== Log checksum E1D90FA35F58DD1262D1185EFE5D1057689E22BCD2724B654A7D38FAADECC292 ====

Содержание индексной карты (.CUE)

REM GENRE "Progressive Rock"
REM DATE 2014
REM DISCID 800F4E0A
REM COMMENT "ExactAudioCopy v1.0b3"
PERFORMER "Various Artists"
TITLE "Prog - P23: A Lifetime Of Adventure ..."
FILE "01. Sontaag - Interstellar Genocide.wav" WAVE
TRACK 01 AUDIO
TITLE "Interstellar Genocide"
PERFORMER "Sontaag"
INDEX 01 00:00:00
TRACK 02 AUDIO
TITLE "Time"
PERFORMER "Nick Magnus"
INDEX 00 03:33:30
FILE "02. Nick Magnus - Time.wav" WAVE
INDEX 01 00:00:00
TRACK 03 AUDIO
TITLE "Better"
PERFORMER "Halo Blind"
INDEX 00 06:22:28
FILE "03. Halo Blind - Better.wav" WAVE
INDEX 01 00:00:00
TRACK 04 AUDIO
TITLE "Tonight"
PERFORMER "Se Delan"
INDEX 00 04:24:01
FILE "04. Se Delan - Tonight.wav" WAVE
INDEX 01 00:00:00
TRACK 05 AUDIO
TITLE "Melancholia"
PERFORMER "Aisles"
INDEX 00 04:07:32
FILE "05. Aisles - Melancholia.wav" WAVE
INDEX 01 00:00:00
TRACK 06 AUDIO
TITLE "The Bridge"
PERFORMER "Matt Stevens"
INDEX 00 10:36:20
FILE "06. Matt Stevens - The Bridge.wav" WAVE
INDEX 01 00:00:00
TRACK 07 AUDIO
TITLE "Robin Delle Stelle"
PERFORMER "Cap"
INDEX 00 11:44:00
FILE "07. Cap - Robin Delle Stelle.wav" WAVE
INDEX 01 00:00:00
TRACK 08 AUDIO
TITLE "Hidden Thieves"
PERFORMER "Eyes & No Eyes"
INDEX 00 07:48:33
FILE "08. Eyes & No Eyes - Hidden Thieves.wav" WAVE
INDEX 01 00:00:00
TRACK 09 AUDIO
TITLE "Stay Away From The Dark"
PERFORMER "John Bassett"
INDEX 00 06:27:30
FILE "09. John Bassett - Stay Away From The Dark.wav" WAVE
INDEX 01 00:00:00
TRACK 10 AUDIO
TITLE "Signals"
PERFORMER "Preacher"
INDEX 00 04:06:04
FILE "10. Preacher - Signals.wav" WAVE
INDEX 01 00:00:00

Лог проверки качества

-----------------------
DON'T MODIFY THIS FILE
-----------------------
PERFORMER: auCDtect Task Manager, ver. 1.5.1RC6 build 1.5.1.7
Copyright (c) 2008-2010 y-soft. All rights reserved
http://y-soft.org
ANALYZER: auCDtect: CD records authenticity detector, version 0.8.2
Copyright (c) 2004 Oleg Berngardt. All rights reserved.
Copyright (c) 2004 Alexander Djourik. All rights reserved.
FILE: 10. Preacher - Signals.flac
Size: 41554434 Hash: B3B6DD534C17ED248009F4FBEFDEA419 Accuracy: -m0
Conclusion: CDDA 100%
Signature: 3DAD6E4CCB64D83902CAC718BD7738E06454E0AF
FILE: 09. John Bassett - Stay Away From The Dark.flac
Size: 31177139 Hash: F017B2F2CF23646E36697C3B325A9E73 Accuracy: -m0
Conclusion: CDDA 100%
Signature: E0B3DBB3600E11E6E76433CB00A5DBB828BCD92C
FILE: 08. Eyes & No Eyes - Hidden Thieves.flac
Size: 38589765 Hash: 3FC1D9AEE5B1BEEAB91CB45178248D23 Accuracy: -m0
Conclusion: CDDA 99%
Signature: 25E5A50E1E7B52D7257AADF4259CAFF97033F2E7
FILE: 07. Cap - Robin Delle Stelle.flac
Size: 47663150 Hash: AAFE086C62A46456C834DBC2C70BB06D Accuracy: -m0
Conclusion: MPEG 95%
Signature: DC05372FB0270AECAA856C46D315D9C710383F62
FILE: 06. Matt Stevens - The Bridge.flac
Size: 70602003 Hash: 75987EF1DC6350E8E3B5CB3EA45365CF Accuracy: -m0
Conclusion: CDDA 100%
Signature: 633129BB549C5E3778F100CF0038CAFDE0B6326E
FILE: 05. Aisles - Melancholia.flac
Size: 70471460 Hash: 3A2CB6A8B8692B844B0C75B77B1E1745 Accuracy: -m0
Conclusion: CDDA 100%
Signature: 8A2B2EE5A573563187D9E7A02C98A9542CF41604
FILE: 04. Se Delan - Tonight.flac
Size: 28313418 Hash: 1A9A49AB7F9F644F4D9B8F021E82BDCB Accuracy: -m0
Conclusion: MPEG 95%
Signature: 9530AF92BB99EB100D78C1FDC4FCA20D04AA795D
FILE: 03. Halo Blind - Better.flac
Size: 29423830 Hash: 6078C0737F927975497173F2BA7D4B41 Accuracy: -m0
Conclusion: CDDA 100%
Signature: 8D6A5AAA1027EF47E637E8EE88C248BE4EF8300F
FILE: 02. Nick Magnus - Time.flac
Size: 45867548 Hash: E9F98FD9C676F6BB36C7C2EB762926D0 Accuracy: -m0
Conclusion: CDDA 100%
Signature: 1D937FBC59EA9D61A36812837D0318D1A8633A62
FILE: 01. Sontaag - Interstellar Genocide.flac
Size: 29011938 Hash: 409003D33A9D80C7A87A27CCFAA912E9 Accuracy: -m0
Conclusion: CDDA 100%
Signature: 0A80B3B478FF2CB8F14317FAB9B6481D5AE5A7FF

Скриншот спектра частот

To download the file disable ad blocking, and reload the page.

disable adblock How to disable ad blocking?

Download by magnet link 415 MB Download Torrent

Login using:

Similar topics



   
Current time is: 20-Sep 01:24 :: All times are UTC ± 0