Various Artists - Prog P22: A Wilderness Of Mirrors
--Жанр: Progressive Rock
Носитель: CD
производитель диска: EU
Год издания: 2014
Издатель (лейбл): TeamRock
Аудиокодек: FLAC (*.flac)
Тип рипа: tracks+.cue
Битрейт аудио: lossless
Продолжительность: 00:57:37
Источник: internet
Наличие сканов: да
Треклист:
01. Lee Abraham - Closing The Door [00:06:17]
02. John Wesley - Disconnect [00:05:20]
03. Crippled Black Phoenix - Northern Comfort [00:06:04]
04. Panic Room - Incarnate [00:07:37]
05. Tuomas Holopainen - A Lifetime Of Adventure [00:06:10]
06. Loreena McKennitt - The Old Ways [00:05:50]
07. Gazpacho - The Wizard of Altai Mountain (Edit) [00:02:32]
08. Galahad - 21st Century Painted Lady [00:04:31]
09. Motorpsycho - Cloudwalker (A Darker Blue) [00:06:06]
10. Edison's Children - The Seventh Sign (Single Edit) [00:07:06]

-

Лог создания рипа

Exact Audio Copy V1.0 beta 3 from 29. August 2011
EAC extraction logfile from 3. April 2014, 8:21
Various Artists / Prog - P22: A Wilderness Of Mirrors
Used drive : ATAPI iHAS124 W Adapter: 1 ID: 0
Read mode : Secure
Utilize accurate stream : Yes
Defeat audio cache : Yes
Make use of C2 pointers : No
Read offset correction : 48
Overread into Lead-In and Lead-Out : No
Fill up missing offset samples with silence : Yes
Delete leading and trailing silent blocks : No
Null samples used in CRC calculations : Yes
Used interface : Native Win32 interface for Win NT & 2000
Gap handling : Appended to previous track
Used output format : User Defined Encoder
Selected bitrate : 896 kBit/s
Quality : High
Add ID3 tag : No
Command line compressor : C:\Program Files (x86)\FLAC\flac.exe
Additional command line options : -8 -V -T "artist=%artist%" -T "albumartist=%albumartist%" -T "album=%albumtitle%" -T "title=%title%" -T "year=%year%" -T "tracknumber=%tracknr2%" -T "genre=%genre%" %source% -o %dest%
TOC of the extracted CD
Track | Start | Length | Start sector | End sector
---------------------------------------------------------
1 | 0:00.00 | 6:17.45 | 0 | 28319
2 | 6:17.45 | 5:20.38 | 28320 | 52357
3 | 11:38.08 | 6:04.34 | 52358 | 79691
4 | 17:42.42 | 7:37.38 | 79692 | 114004
5 | 25:20.05 | 6:10.41 | 114005 | 141795
6 | 31:30.46 | 5:50.26 | 141796 | 168071
7 | 37:20.72 | 2:32.25 | 168072 | 179496
8 | 39:53.22 | 4:31.54 | 179497 | 199875
9 | 44:25.01 | 6:06.00 | 199876 | 227325
10 | 50:31.01 | 7:06.00 | 227326 | 259275
11 | 60:09.01 | 5:26.11 | 270676 | 295136
Track 1
Filename F:\My Documents\My Music\Albums (Complete)\01. Lee Abraham - Closing The Door.wav
Pre-gap length 0:00:02.00
Peak level 98.8 %
Extraction speed 4.8 X
Track quality 100.0 %
Test CRC B368322A
Copy CRC B368322A
Track not present in AccurateRip database
Copy OK
Track 2
Filename F:\My Documents\My Music\Albums (Complete)\02. John Wesley - Disconnect.wav
Pre-gap length 0:00:02.00
Peak level 100.0 %
Extraction speed 5.3 X
Track quality 100.0 %
Test CRC 6DA868B9
Copy CRC 6DA868B9
Track not present in AccurateRip database
Copy OK
Track 3
Filename F:\My Documents\My Music\Albums (Complete)\03. Crippled Black Phoenix - Northern Comfort.wav
Pre-gap length 0:00:02.00
Peak level 98.6 %
Extraction speed 6.0 X
Track quality 100.0 %
Test CRC DCBD13EE
Copy CRC DCBD13EE
Track not present in AccurateRip database
Copy OK
Track 4
Filename F:\My Documents\My Music\Albums (Complete)\04. Panic Room - Incarnate.wav
Pre-gap length 0:00:02.00
Peak level 98.8 %
Extraction speed 6.3 X
Track quality 99.9 %
Test CRC 4F981ED4
Copy CRC 4F981ED4
Track not present in AccurateRip database
Copy OK
Track 5
Filename F:\My Documents\My Music\Albums (Complete)\05. Tuomas Holopainen - A Lifetime Of Adventure.wav
Pre-gap length 0:00:02.00
Peak level 99.9 %
Extraction speed 7.0 X
Track quality 100.0 %
Test CRC 6F76DF18
Copy CRC 6F76DF18
Track not present in AccurateRip database
Copy OK
Track 6
Filename F:\My Documents\My Music\Albums (Complete)\06. Loreena McKennitt - The Old Ways.wav
Pre-gap length 0:00:02.00
Peak level 98.8 %
Extraction speed 7.3 X
Track quality 100.0 %
Test CRC 0DF34736
Copy CRC 0DF34736
Track not present in AccurateRip database
Copy OK
Track 7
Filename F:\My Documents\My Music\Albums (Complete)\07. Gazpacho - The Wizard of Altai Mountain (Edit).wav
Pre-gap length 0:00:02.00
Peak level 98.8 %
Extraction speed 6.6 X
Track quality 100.0 %
Test CRC CCCB2ABE
Copy CRC CCCB2ABE
Track not present in AccurateRip database
Copy OK
Track 8
Filename F:\My Documents\My Music\Albums (Complete)\08. Galahad - 21st Century Painted Lady.wav
Pre-gap length 0:00:02.00
Peak level 98.8 %
Extraction speed 7.5 X
Track quality 100.0 %
Test CRC 9936E744
Copy CRC 9936E744
Track not present in AccurateRip database
Copy OK
Track 9
Filename F:\My Documents\My Music\Albums (Complete)\09. Motorpsycho - Cloudwalker (A Darker Blue).wav
Pre-gap length 0:00:02.00
Peak level 98.3 %
Extraction speed 7.8 X
Track quality 100.0 %
Test CRC 6CE7DB7A
Copy CRC 6CE7DB7A
Track not present in AccurateRip database
Copy OK
Track 10
Filename F:\My Documents\My Music\Albums (Complete)\10. Edison's Children - The Seventh Sign (Single Edit).wav
Pre-gap length 0:00:02.00
Peak level 98.8 %
Extraction speed 8.9 X
Track quality 100.0 %
Test CRC 1369FEB2
Copy CRC 1369FEB2
Track not present in AccurateRip database
Copy OK
None of the tracks are present in the AccurateRip database
No errors occurred
End of status report
==== Log checksum BF5AC138EE6D332E09848D9D70BFD72863F02579F0AA05047EAB458687C4C441 ====

Содержание индексной карты (.CUE)

REM GENRE "Progressive Rock"
REM DATE 2014
REM DISCID 8B0F5F0B
REM COMMENT "ExactAudioCopy v1.0b3"
PERFORMER "Various Artists"
TITLE "Prog - P22: A Wilderness Of Mirrors"
FILE "01. Lee Abraham - Closing The Door.wav" WAVE
TRACK 01 AUDIO
TITLE "Closing The Door"
PERFORMER "Lee Abraham"
INDEX 01 00:00:00
TRACK 02 AUDIO
TITLE "Disconnect"
PERFORMER "John Wesley"
INDEX 00 06:15:45
FILE "02. John Wesley - Disconnect.wav" WAVE
INDEX 01 00:00:00
TRACK 03 AUDIO
TITLE "Northern Comfort"
PERFORMER "Crippled Black Phoenix"
INDEX 00 05:18:38
FILE "03. Crippled Black Phoenix - Northern Comfort.wav" WAVE
INDEX 01 00:00:00
TRACK 04 AUDIO
TITLE "Incarnate"
PERFORMER "Panic Room"
INDEX 00 06:02:34
FILE "04. Panic Room - Incarnate.wav" WAVE
INDEX 01 00:00:00
TRACK 05 AUDIO
TITLE "A Lifetime Of Adventure"
PERFORMER "Tuomas Holopainen"
INDEX 00 07:35:38
FILE "05. Tuomas Holopainen - A Lifetime Of Adventure.wav" WAVE
INDEX 01 00:00:00
TRACK 06 AUDIO
TITLE "The Old Ways"
PERFORMER "Loreena McKennitt"
INDEX 00 06:08:41
FILE "06. Loreena McKennitt - The Old Ways.wav" WAVE
INDEX 01 00:00:00
TRACK 07 AUDIO
TITLE "The Wizard of Altai Mountain (Edit)"
PERFORMER "Gazpacho"
INDEX 00 05:48:26
FILE "07. Gazpacho - The Wizard of Altai Mountain (Edit).wav" WAVE
INDEX 01 00:00:00
TRACK 08 AUDIO
TITLE "21st Century Painted Lady"
PERFORMER "Galahad"
INDEX 00 02:30:25
FILE "08. Galahad - 21st Century Painted Lady.wav" WAVE
INDEX 01 00:00:00
TRACK 09 AUDIO
TITLE "Cloudwalker (A Darker Blue)"
PERFORMER "Motorpsycho"
INDEX 00 04:29:54
FILE "09. Motorpsycho - Cloudwalker (A Darker Blue).wav" WAVE
INDEX 01 00:00:00
TRACK 10 AUDIO
TITLE "The Seventh Sign (Single Edit)"
PERFORMER "Edison's Children"
INDEX 00 06:04:00
FILE "10. Edison's Children - The Seventh Sign (Single Edit).wav" WAVE
INDEX 01 00:00:00
TRACK 11 MODEx/2xxx
TITLE "Data"
PERFORMER "Various Artists"
INDEX 00 07:06:00

Лог проверки качества

-----------------------
DON'T MODIFY THIS FILE
-----------------------
PERFORMER: auCDtect Task Manager, ver. 1.5.1RC6 build 1.5.1.7
Copyright (c) 2008-2010 y-soft. All rights reserved
http://y-soft.org
ANALYZER: auCDtect: CD records authenticity detector, version 0.8.2
Copyright (c) 2004 Oleg Berngardt. All rights reserved.
Copyright (c) 2004 Alexander Djourik. All rights reserved.
FILE: 10. Edison's Children - The Seventh Sign (Single Edit).flac
Size: 52491354 Hash: B5F8DFF12ADDB49C2880AE77823224FD Accuracy: -m0
Conclusion: CDDA 100%
Signature: FC806871765FE8EEAE6A855110EFF427A8355996
FILE: 09. Motorpsycho - Cloudwalker (A Darker Blue).flac
Size: 39970311 Hash: 9813F43C5C179088EB72B4380217C7EB Accuracy: -m0
Conclusion: CDDA 100%
Signature: DBA2F08E555C7D4A381DA6B29CCB1CB0F324CB53
FILE: 08. Galahad - 21st Century Painted Lady.flac
Size: 30351577 Hash: 7C406EC28AEBE248A05B2A32A0E08D99 Accuracy: -m0
Conclusion: CDDA 99%
Signature: 7C072CD6D38F0325ECE478963BD4E4D95C1D9CE1
FILE: 07. Gazpacho - The Wizard of Altai Mountain (Edit).flac
Size: 15197581 Hash: F4844FFED2C99208202ADA178E40D46C Accuracy: -m0
Conclusion: CDDA 100%
Signature: 4DAF92B66F1D2834AF1EC8AAF099394B8E893450
FILE: 06. Loreena McKennitt - The Old Ways.flac
Size: 37833598 Hash: 4B14AFFE9F398FEA58E2BED7CA9150FF Accuracy: -m0
Conclusion: CDDA 100%
Signature: BAA0ACC74C71A6408251F008C03B1CC562B61D41
FILE: 05. Tuomas Holopainen - A Lifetime Of Adventure.flac
Size: 42186113 Hash: EDEBD576D0AEF6319A04A44E0F90CFF9 Accuracy: -m0
Conclusion: CDDA 100%
Signature: 8D4D6038F38DA642243D37BA5A3F24A98F201C16
FILE: 04. Panic Room - Incarnate.flac
Size: 54430202 Hash: E29A2B5564B132DEBD8577ACDE9171D8 Accuracy: -m0
Conclusion: CDDA 100%
Signature: B93CA4F4F1E2A56A5EC42537D48BE67FE750C3C8
FILE: 03. Crippled Black Phoenix - Northern Comfort.flac
Size: 40773659 Hash: 6CDBACA3ED6A9445D0D46F6532DB42C5 Accuracy: -m0
Conclusion: CDDA 100%
Signature: CD8DF7053590A64CE0D9CA6B7EB6EA96371D1690
FILE: 02. John Wesley - Disconnect.flac
Size: 38158209 Hash: 0B8947D2E028BB6E2E012C8D93CBD9B2 Accuracy: -m0
Conclusion: CDDA 100%
Signature: 1FA2B839A7E85EA293FB22EF699F303B59FE9F6D
FILE: 01. Lee Abraham - Closing The Door.flac
Size: 47494213 Hash: 8E4520A267CBC0CDE47812E008804601 Accuracy: -m0
Conclusion: CDDA 100%
Signature: AC15DA846DA4FD9A11814D970A88958098E523B8

Скриншот спектра частот

To download the file disable ad blocking, and reload the page.

disable adblock How to disable ad blocking?

Download by magnet link 382 MB Download Torrent

Login using:

Similar topics



   
Current time is: 15-Nov 23:38 :: All times are UTC + 3