Various Artists - Prog P21: Pigs On The Wing
--Жанр: Progressive Rock
Носитель: CD
производитель диска: EU
Год издания: 2014
Издатель (лейбл): TeamRock
Аудиокодек: FLAC (*.flac)
Тип рипа: tracks+.cue
Битрейт аудио: lossless
Продолжительность: 00:58:34
Источник: internet
Наличие сканов: да
Треклист:
01. Bigelf - Alien Frequency [00:04:14]
02. Synaesthesia - Epiphany [00:06:59]
03. Dream The Electric Sheep - How Long We Wait [00:09:30]
04. Däng - Danaides [00:05:12]
05. Peter Hammill & Gary Lucas - Cash [00:02:54]
06. Colin Edwin & Lorenzo Feliciati - I-Dea [00:05:59]
07. Alan J Bound - Float [00:09:23]
08. Timotheos - The Scattering [00:06:00]
09. Freedom To Glide - When The Whistle Blows [00:08:18]

-

Лог создания рипа

Exact Audio Copy V1.0 beta 3 from 29. August 2011
EAC extraction logfile from 13. February 2014, 9:47
Various Artists / Prog - P21: Pigs On The Wing
Used drive : ATAPI iHAS124 W Adapter: 1 ID: 0
Read mode : Secure
Utilize accurate stream : Yes
Defeat audio cache : Yes
Make use of C2 pointers : No
Read offset correction : 48
Overread into Lead-In and Lead-Out : No
Fill up missing offset samples with silence : Yes
Delete leading and trailing silent blocks : No
Null samples used in CRC calculations : Yes
Used interface : Native Win32 interface for Win NT & 2000
Gap handling : Appended to previous track
Used output format : User Defined Encoder
Selected bitrate : 896 kBit/s
Quality : High
Add ID3 tag : No
Command line compressor : C:\Program Files (x86)\FLAC\flac.exe
Additional command line options : -8 -V -T "artist=%artist%" -T "albumartist=%albumartist%" -T "album=%albumtitle%" -T "title=%title%" -T "year=%year%" -T "tracknumber=%tracknr2%" -T "genre=%genre%" %source% -o %dest%
TOC of the extracted CD
Track | Start | Length | Start sector | End sector
---------------------------------------------------------
1 | 0:00.00 | 4:14.68 | 0 | 19117
2 | 4:14.68 | 6:59.19 | 19118 | 50561
3 | 11:14.12 | 9:30.51 | 50562 | 93362
4 | 20:44.63 | 5:12.53 | 93363 | 116815
5 | 25:57.41 | 2:54.50 | 116816 | 129915
6 | 28:52.16 | 5:59.00 | 129916 | 156840
7 | 34:51.16 | 9:23.60 | 156841 | 199125
8 | 44:15.01 | 6:00.50 | 199126 | 226175
9 | 50:15.51 | 8:18.67 | 226176 | 263592
Track 1
Filename F:\My Documents\My Music\Albums (Complete)\01. Bigelf - Alien Frequency.wav
Pre-gap length 0:00:02.00
Peak level 98.8 %
Extraction speed 1.8 X
Track quality 100.0 %
Test CRC 48E7DFD3
Copy CRC 48E7DFD3
Track not present in AccurateRip database
Copy OK
Track 2
Filename F:\My Documents\My Music\Albums (Complete)\02. Synaesthesia - Epiphany.wav
Pre-gap length 0:00:02.00
Peak level 98.8 %
Extraction speed 2.2 X
Track quality 100.0 %
Test CRC 35BD019F
Copy CRC 35BD019F
Track not present in AccurateRip database
Copy OK
Track 3
Filename F:\My Documents\My Music\Albums (Complete)\03. Dream The Electric Sheep - How Long We Wait.wav
Pre-gap length 0:00:02.00
Peak level 100.0 %
Extraction speed 2.5 X
Track quality 99.9 %
Test CRC 9E459592
Copy CRC 9E459592
Track not present in AccurateRip database
Copy OK
Track 4
Filename F:\My Documents\My Music\Albums (Complete)\04. Däng - Danaides.wav
Pre-gap length 0:00:02.00
Peak level 98.8 %
Extraction speed 2.6 X
Track quality 99.9 %
Test CRC 3323484E
Copy CRC 3323484E
Track not present in AccurateRip database
Copy OK
Track 5
Filename F:\My Documents\My Music\Albums (Complete)\05. Peter Hammill & Gary Lucas - Cash.wav
Pre-gap length 0:00:02.00
Peak level 98.8 %
Extraction speed 2.8 X
Track quality 100.0 %
Test CRC 5D4C842E
Copy CRC 5D4C842E
Track not present in AccurateRip database
Copy OK
Track 6
Filename F:\My Documents\My Music\Albums (Complete)\06. Colin Edwin & Lorenzo Feliciati - I-Dea.wav
Pre-gap length 0:00:02.00
Peak level 98.8 %
Extraction speed 3.2 X
Track quality 100.0 %
Test CRC DC346E53
Copy CRC DC346E53
Track not present in AccurateRip database
Copy OK
Track 7
Filename F:\My Documents\My Music\Albums (Complete)\07. Alan J Bound - Float.wav
Pre-gap length 0:00:02.00
Peak level 98.8 %
Extraction speed 3.5 X
Track quality 100.0 %
Test CRC 62056A16
Copy CRC 62056A16
Track not present in AccurateRip database
Copy OK
Track 8
Filename F:\My Documents\My Music\Albums (Complete)\08. Timotheos - The Scattering.wav
Pre-gap length 0:00:02.00
Peak level 98.8 %
Extraction speed 3.6 X
Track quality 100.0 %
Test CRC 863813D6
Copy CRC 863813D6
Track not present in AccurateRip database
Copy OK
Track 9
Filename F:\My Documents\My Music\Albums (Complete)\09. Freedom To Glide - When The Whistle Blows.wav
Pre-gap length 0:00:02.00
Peak level 98.8 %
Extraction speed 3.9 X
Track quality 100.0 %
Test CRC A719C511
Copy CRC A719C511
Track not present in AccurateRip database
Copy OK
None of the tracks are present in the AccurateRip database
No errors occurred
End of status report
==== Log checksum BD0DA7CB8E8704DD73400920FD65F41A626ACA334B682F8959D196927BE1191B ====

Содержание индексной карты (.CUE)

REM GENRE "Progressive Rock"
REM DATE 2014
REM DISCID 7F0DBA09
REM COMMENT "ExactAudioCopy v1.0b3"
PERFORMER "Various Artists"
TITLE "Prog - P21: Pigs On The Wing"
FILE "01. Bigelf - Alien Frequency.wav" WAVE
TRACK 01 AUDIO
TITLE "Alien Frequency"
PERFORMER "Bigelf"
INDEX 01 00:00:00
TRACK 02 AUDIO
TITLE "Epiphany"
PERFORMER "Synaesthesia"
INDEX 00 04:12:68
FILE "02. Synaesthesia - Epiphany.wav" WAVE
INDEX 01 00:00:00
TRACK 03 AUDIO
TITLE "How Long We Wait"
PERFORMER "Dream The Electric Sheep"
INDEX 00 06:57:19
FILE "03. Dream The Electric Sheep - How Long We Wait.wav" WAVE
INDEX 01 00:00:00
TRACK 04 AUDIO
TITLE "Danaides"
PERFORMER "Dдng"
INDEX 00 09:28:51
FILE "04. Dдng - Danaides.wav" WAVE
INDEX 01 00:00:00
TRACK 05 AUDIO
TITLE "Cash"
PERFORMER "Peter Hammill & Gary Lucas"
INDEX 00 05:10:53
FILE "05. Peter Hammill & Gary Lucas - Cash.wav" WAVE
INDEX 01 00:00:00
TRACK 06 AUDIO
TITLE "I-Dea"
PERFORMER "Colin Edwin & Lorenzo Feliciati"
INDEX 00 02:52:50
FILE "06. Colin Edwin & Lorenzo Feliciati - I-Dea.wav" WAVE
INDEX 01 00:00:00
TRACK 07 AUDIO
TITLE "Float"
PERFORMER "Alan J Bound"
INDEX 00 05:57:00
FILE "07. Alan J Bound - Float.wav" WAVE
INDEX 01 00:00:00
TRACK 08 AUDIO
TITLE "The Scattering"
PERFORMER "Timotheos"
INDEX 00 09:21:60
FILE "08. Timotheos - The Scattering.wav" WAVE
INDEX 01 00:00:00
TRACK 09 AUDIO
TITLE "When The Whistle Blows"
PERFORMER "Freedom To Glide"
INDEX 00 05:58:50
FILE "09. Freedom To Glide - When The Whistle Blows.wav" WAVE
INDEX 01 00:00:00

Лог проверки качества

-----------------------
DON'T MODIFY THIS FILE
-----------------------
PERFORMER: auCDtect Task Manager, ver. 1.5.1RC6 build 1.5.1.7
Copyright (c) 2008-2010 y-soft. All rights reserved
http://y-soft.org
ANALYZER: auCDtect: CD records authenticity detector, version 0.8.2
Copyright (c) 2004 Oleg Berngardt. All rights reserved.
Copyright (c) 2004 Alexander Djourik. All rights reserved.
FILE: 09. Freedom To Glide - When The Whistle Blows.flac
Size: 53082440 Hash: BFE6E1A3BA87ED534590C03D89CB45F5 Accuracy: -m0
Conclusion: CDDA 100%
Signature: C466DF9ED2AB230DEE3F4BEF734BDD96875F9B1A
FILE: 08. Timotheos - The Scattering.flac
Size: 30493413 Hash: 008F95EF8FBBF5450B8C49FE32E50BC0 Accuracy: -m0
Conclusion: CDDA 100%
Signature: D0F112EA07265BF64AE3AF6DBF78B8FCA4B00981
FILE: 07. Alan J Bound - Float.flac
Size: 71204318 Hash: 37DA5CF2814573FB18502AB50A12B958 Accuracy: -m0
Conclusion: CDDA 100%
Signature: 6767CFEC71F2A66AED2A6B515A14227853971126
FILE: 06. Colin Edwin & Lorenzo Feliciati - I-Dea.flac
Size: 39393107 Hash: CB102F5DDAD45EA6ADBCF1264B93B13B Accuracy: -m0
Conclusion: CDDA 100%
Signature: BED27C2445A3CFF0A1AFF99BDF1C2CBEBB8D7764
FILE: 05. Peter Hammill & Gary Lucas - Cash.flac
Size: 16325671 Hash: 4200887578D250F7BA6714312FEF6592 Accuracy: -m0
Conclusion: CDDA 100%
Signature: 07FB2BB5862C36C22E11EED3FC51FE32214F283A
FILE: 04. Däng - Danaides.flac
Size: 31512693 Hash: 83E57B6A57EB9EB08E77A8F918C54674 Accuracy: -m0
Conclusion: MPEG 95%
Signature: 636B03B89F106ABC5677BB38CE5BDE9ECA58D986
FILE: 03. Dream The Electric Sheep - How Long We Wait.flac
Size: 67405144 Hash: A1C07BB4B38A560F95004D7DBC7176CB Accuracy: -m0
Conclusion: CDDA 100%
Signature: B1485B36C09C7C232036579AED64AE5C379879EB
FILE: 02. Synaesthesia - Epiphany.flac
Size: 51796542 Hash: 7B57D088A7667B75CEBE397DB82D3C24 Accuracy: -m0
Conclusion: CDDA 100%
Signature: B395AF63B8C9CBA9A15D09A5C13A69F6FAEC6F61
FILE: 01. Bigelf - Alien Frequency.flac
Size: 31476803 Hash: AED21AE779639D2C8F6D6FD4220401F3 Accuracy: -m0
Conclusion: CDDA 99%
Signature: C7133AA4C81FB59146346C8E9D27D1CC231A810F

Скриншот спектра частот

To download the file disable ad blocking, and reload the page.

disable adblock How to disable ad blocking?

Download by magnet link 376 MB Download Torrent

Login using:

Similar topics



   
Current time is: 23-Sep 16:11 :: All times are UTC ± 0