Various Artists - Prog P20: Elephant Talk
--Жанр: Progressive Rock
Носитель: CD
производитель диска: EU
Год издания: 2014
Издатель (лейбл): TeamRock
Аудиокодек: FLAC (*.flac)
Тип рипа: tracks+.cue
Битрейт аудио: lossless
Продолжительность: 01:00:58
Источник: internet
Наличие сканов: да
Треклист:
01. Transatlantic - Black As The Sky [00:06:43]
02. Messenger - Somniloquist [00:05:16]
03. Pylo - Enemies [00:06:24]
04. Airbag - Redemption [00:06:59]
05. Aisles - 4.45 AM [00:04:07]
06. Schnauser - Walking Stick And Cat [00:03:14]
07. The Prognosis - The Legend Of Parker Baul [00:07:22]
08. Nosound - Someone Starts To Fade Away [00:08:54]
09. Darkroom - Karhupuisto, Beautiful Retreat [00:06:37]
10. Marcello Paganini - Somewhere Somehow [00:05:16]

-

Лог создания рипа

Exact Audio Copy V1.0 beta 3 from 29. August 2011
EAC extraction logfile from 9. January 2014, 10:50
Various Artists / Prog - P20: Elephant Talk
Used drive : ATAPI iHAS124 W Adapter: 1 ID: 0
Read mode : Secure
Utilize accurate stream : Yes
Defeat audio cache : Yes
Make use of C2 pointers : No
Read offset correction : 48
Overread into Lead-In and Lead-Out : No
Fill up missing offset samples with silence : Yes
Delete leading and trailing silent blocks : No
Null samples used in CRC calculations : Yes
Used interface : Native Win32 interface for Win NT & 2000
Gap handling : Appended to previous track
Used output format : User Defined Encoder
Selected bitrate : 896 kBit/s
Quality : High
Add ID3 tag : No
Command line compressor : C:\Program Files (x86)\FLAC\flac.exe
Additional command line options : -8 -V -T "artist=%artist%" -T "albumartist=%albumartist%" -T "album=%albumtitle%" -T "title=%title%" -T "year=%year%" -T "tracknumber=%tracknr2%" -T "genre=%genre%" %source% -o %dest%
TOC of the extracted CD
Track | Start | Length | Start sector | End sector
---------------------------------------------------------
1 | 0:00.00 | 6:43.67 | 0 | 30291
2 | 6:43.67 | 5:16.56 | 30292 | 54047
3 | 12:00.48 | 6:24.52 | 54048 | 82899
4 | 18:25.25 | 6:59.54 | 82900 | 114378
5 | 25:25.04 | 4:07.54 | 114379 | 132957
6 | 29:32.58 | 3:14.04 | 132958 | 147511
7 | 32:46.62 | 7:22.51 | 147512 | 180712
8 | 40:09.38 | 8:54.55 | 180713 | 220817
9 | 49:04.18 | 6:37.60 | 220818 | 250652
10 | 55:42.03 | 5:16.48 | 250653 | 274400
Track 1
Filename F:\My Documents\My Music\Albums (Complete)\01. Transatlantic - Black As The Sky.wav
Pre-gap length 0:00:02.00
Peak level 98.8 %
Extraction speed 4.9 X
Track quality 100.0 %
Test CRC A2FA7FE3
Copy CRC A2FA7FE3
Track not present in AccurateRip database
Copy OK
Track 2
Filename F:\My Documents\My Music\Albums (Complete)\02. Messenger - Somniloquist.wav
Pre-gap length 0:00:02.00
Peak level 98.8 %
Extraction speed 5.0 X
Track quality 99.9 %
Test CRC 9510FC81
Copy CRC 9510FC81
Track not present in AccurateRip database
Copy OK
Track 3
Filename F:\My Documents\My Music\Albums (Complete)\03. Pylo - Enemies.wav
Pre-gap length 0:00:02.00
Peak level 99.9 %
Extraction speed 6.2 X
Track quality 100.0 %
Test CRC 711CDC08
Copy CRC 711CDC08
Track not present in AccurateRip database
Copy OK
Track 4
Filename F:\My Documents\My Music\Albums (Complete)\04. Airbag - Redemption.wav
Pre-gap length 0:00:02.00
Peak level 98.8 %
Extraction speed 6.8 X
Track quality 100.0 %
Test CRC DC796DEF
Copy CRC DC796DEF
Track not present in AccurateRip database
Copy OK
Track 5
Filename F:\My Documents\My Music\Albums (Complete)\05. Aisles - 4.45 AM.wav
Pre-gap length 0:00:02.00
Peak level 98.9 %
Extraction speed 6.9 X
Track quality 100.0 %
Test CRC 589D2125
Copy CRC 589D2125
Track not present in AccurateRip database
Copy OK
Track 6
Filename F:\My Documents\My Music\Albums (Complete)\06. Schnauser - Walking Stick And Cat.wav
Pre-gap length 0:00:02.00
Peak level 98.8 %
Extraction speed 6.9 X
Track quality 100.0 %
Test CRC AFBCF45F
Copy CRC AFBCF45F
Track not present in AccurateRip database
Copy OK
Track 7
Filename F:\My Documents\My Music\Albums (Complete)\07. The Prognosis - The Legend Of Parker Baul.wav
Pre-gap length 0:00:02.00
Peak level 98.8 %
Extraction speed 8.0 X
Track quality 100.0 %
Test CRC 8E070367
Copy CRC 8E070367
Track not present in AccurateRip database
Copy OK
Track 8
Filename F:\My Documents\My Music\Albums (Complete)\08. Nosound - Someone Starts To Fade Away.wav
Pre-gap length 0:00:02.00
Peak level 98.8 %
Extraction speed 8.6 X
Track quality 100.0 %
Test CRC 34C1B5A7
Copy CRC 34C1B5A7
Track not present in AccurateRip database
Copy OK
Track 9
Filename F:\My Documents\My Music\Albums (Complete)\09. Darkroom - Karhupuisto, Beautiful Retreat.wav
Pre-gap length 0:00:02.00
Peak level 98.8 %
Extraction speed 8.9 X
Track quality 100.0 %
Test CRC F7FB3CEB
Copy CRC F7FB3CEB
Track not present in AccurateRip database
Copy OK
Track 10
Filename F:\My Documents\My Music\Albums (Complete)\10. Marcello Paganini - Somewhere Somehow.wav
Pre-gap length 0:00:02.00
Peak level 98.8 %
Extraction speed 8.7 X
Track quality 100.0 %
Test CRC 9BB61D0B
Copy CRC 9BB61D0B
Track not present in AccurateRip database
Copy OK
None of the tracks are present in the AccurateRip database
No errors occurred
End of status report
==== Log checksum 68052B8A85229F6DB8F78549A19EA6F44C2DE4EBBAE139CBCBD2D7F7B7DB8578 ====

Содержание индексной карты (.CUE)

REM GENRE "Progressive Rock"
REM DATE 2014
REM DISCID 840E4A0A
REM COMMENT "ExactAudioCopy v1.0b3"
PERFORMER "Various Artists"
TITLE "Prog - P20: Elephant Talk"
FILE "01. Transatlantic - Black As The Sky.wav" WAVE
TRACK 01 AUDIO
TITLE "Black As The Sky"
PERFORMER "Transatlantic"
INDEX 01 00:00:00
TRACK 02 AUDIO
TITLE "Somniloquist"
PERFORMER "Messenger"
INDEX 00 06:41:67
FILE "02. Messenger - Somniloquist.wav" WAVE
INDEX 01 00:00:00
TRACK 03 AUDIO
TITLE "Enemies"
PERFORMER "Pylo"
INDEX 00 05:14:56
FILE "03. Pylo - Enemies.wav" WAVE
INDEX 01 00:00:00
TRACK 04 AUDIO
TITLE "Redemption"
PERFORMER "Airbag"
INDEX 00 06:22:52
FILE "04. Airbag - Redemption.wav" WAVE
INDEX 01 00:00:00
TRACK 05 AUDIO
TITLE "4.45 AM"
PERFORMER "Aisles"
INDEX 00 06:57:54
FILE "05. Aisles - 4.45 AM.wav" WAVE
INDEX 01 00:00:00
TRACK 06 AUDIO
TITLE "Walking Stick And Cat"
PERFORMER "Schnauser"
INDEX 00 04:05:54
FILE "06. Schnauser - Walking Stick And Cat.wav" WAVE
INDEX 01 00:00:00
TRACK 07 AUDIO
TITLE "The Legend Of Parker Baul"
PERFORMER "The Prognosis"
INDEX 00 03:12:04
FILE "07. The Prognosis - The Legend Of Parker Baul.wav" WAVE
INDEX 01 00:00:00
TRACK 08 AUDIO
TITLE "Someone Starts To Fade Away"
PERFORMER "Nosound"
INDEX 00 07:20:51
FILE "08. Nosound - Someone Starts To Fade Away.wav" WAVE
INDEX 01 00:00:00
TRACK 09 AUDIO
TITLE "Karhupuisto, Beautiful Retreat"
PERFORMER "Darkroom"
INDEX 00 08:52:55
FILE "09. Darkroom - Karhupuisto, Beautiful Retreat.wav" WAVE
INDEX 01 00:00:00
TRACK 10 AUDIO
TITLE "Somewhere Somehow"
PERFORMER "Marcello Paganini"
INDEX 00 06:35:60
FILE "10. Marcello Paganini - Somewhere Somehow.wav" WAVE
INDEX 01 00:00:00

Лог проверки качества

-----------------------
DON'T MODIFY THIS FILE
-----------------------
PERFORMER: auCDtect Task Manager, ver. 1.5.1RC6 build 1.5.1.7
Copyright (c) 2008-2010 y-soft. All rights reserved
http://y-soft.org
ANALYZER: auCDtect: CD records authenticity detector, version 0.8.2
Copyright (c) 2004 Oleg Berngardt. All rights reserved.
Copyright (c) 2004 Alexander Djourik. All rights reserved.
FILE: 10. Marcello Paganini - Somewhere Somehow.flac
Size: 42288318 Hash: 42DD14CF860DC91AEE3C20AC0566E6C5 Accuracy: -m0
Conclusion: CDDA 100%
Signature: 4556BB15FDCB083F0BA0D29D5D9A8E0E435F731B
FILE: 09. Darkroom - Karhupuisto, Beautiful Retreat.flac
Size: 25951252 Hash: A059247A625BBC17AF466AC674DBAEF6 Accuracy: -m0
Conclusion: CDDA 100%
Signature: 381011EAF6AC329BE6665558550E37C2FEC43BD6
FILE: 08. Nosound - Someone Starts To Fade Away.flac
Size: 44410487 Hash: CA5DF51D2892ACAFA782154454ECD418 Accuracy: -m0
Conclusion: CDDA 42%
Signature: 2C39F80AAEB52224D88751643C440E4E8608EAC6
FILE: 07. The Prognosis - The Legend Of Parker Baul.flac
Size: 40728817 Hash: 47787884D6B70BA182C998E5457E8248 Accuracy: -m0
Conclusion: MPEG 100%
Signature: 3D13890886E282AE71CC96F2857DDF6E38B1D0D6
FILE: 06. Schnauser - Walking Stick And Cat.flac
Size: 22536337 Hash: 8931F8C58D87A7AD278C97DF3FAD2A1B Accuracy: -m0
Conclusion: CDDA 99%
Signature: 72FAFA7173E8B37469862528284E34039D0CC111
FILE: 05. Aisles - 4.45 AM.flac
Size: 29834757 Hash: F894EC5F17E46423D6BDC6816BC2D09E Accuracy: -m0
Conclusion: CDDA 100%
Signature: FC7CF5B09378D2B9F036A9BD91F0AD8491559ED7
FILE: 04. Airbag - Redemption.flac
Size: 44558629 Hash: 30F5BA246ABF21481F0CB4EEAC5DA59D Accuracy: -m0
Conclusion: MPEG 90%
Signature: 06FC0A8E55B25439A254358A42A54C1A6D7AC35E
FILE: 03. Pylo - Enemies.flac
Size: 42397567 Hash: 8D08552C513059A216A39486A9F9F3B9 Accuracy: -m0
Conclusion: CDDA 100%
Signature: 87ECCBB637365B218793EE955E2720B0CE92D2A7
FILE: 02. Messenger - Somniloquist.flac
Size: 38423056 Hash: 0ACF2CEB95168AE2B89BC9025BCF6CE3 Accuracy: -m0
Conclusion: MPEG 95%
Signature: DA083986AC37299415AFE86E47820934DC30748D
FILE: 01. Transatlantic - Black As The Sky.flac
Size: 53163344 Hash: 2847849F874B9D291CE487AA1443028A Accuracy: -m0
Conclusion: CDDA 100%
Signature: 95C898E337088AD20924B756B7D8F22AF0E6EE75

Скриншот спектра частот

To download the file disable ad blocking, and reload the page.

disable adblock How to disable ad blocking?

Download by magnet link 369 MB Download Torrent

Login using:

Similar topics



   
Current time is: 20-Sep 01:28 :: All times are UTC ± 0