Various Artists - Prog P19: Smash And Scatteration!
-Жанр: Progressive Rock
Носитель: CD
производитель диска: EU
Год издания: 2013
Издатель (лейбл): TeamRock
Аудиокодек: FLAC (*.flac)
Тип рипа: tracks+.cue
Битрейт аудио: lossless
Продолжительность: 01:01:34
Источник: internet
Наличие сканов: да
Треклист:
01. Mostly Autumn - Unquiet Tears [00:05:24]
02. Solstice - Black Water [00:08:51]
03. Sisare - Isolation [00:07:06]
04. Flying Colors - The Storm [00:04:33]
05. Agent - Made Of Gold [00:04:00]
06. Prospekt - Shroud [00:07:39]
07. Circle Of Illusion - New Age [00:08:10]
08. Sand - Clay [00:04:34]
09. Antlered Man - GDZ [00:04:43]
10. Here & Now - Telly Song [00:06:30]

-

Лог создания рипа

Exact Audio Copy V1.0 beta 3 from 29. August 2011
EAC extraction logfile from 4. December 2013, 21:52
Various Artists / Prog - P19: Smash And Scatteration!
Used drive : ATAPI iHAS124 W Adapter: 1 ID: 0
Read mode : Secure
Utilize accurate stream : Yes
Defeat audio cache : Yes
Make use of C2 pointers : No
Read offset correction : 48
Overread into Lead-In and Lead-Out : No
Fill up missing offset samples with silence : Yes
Delete leading and trailing silent blocks : No
Null samples used in CRC calculations : Yes
Used interface : Native Win32 interface for Win NT & 2000
Gap handling : Appended to previous track
Used output format : User Defined Encoder
Selected bitrate : 896 kBit/s
Quality : High
Add ID3 tag : No
Command line compressor : C:\Program Files (x86)\FLAC\flac.exe
Additional command line options : -8 -V -T "artist=%artist%" -T "albumartist=%albumartist%" -T "album=%albumtitle%" -T "title=%title%" -T "year=%year%" -T "tracknumber=%tracknr2%" -T "genre=%genre%" %source% -o %dest%
TOC of the extracted CD
Track | Start | Length | Start sector | End sector
---------------------------------------------------------
1 | 0:00.00 | 5:24.47 | 0 | 24346
2 | 5:24.47 | 8:51.38 | 24347 | 64209
3 | 14:16.10 | 7:06.27 | 64210 | 96186
4 | 21:22.37 | 4:33.00 | 96187 | 116661
5 | 25:55.37 | 4:00.45 | 116662 | 134706
6 | 29:56.07 | 7:39.35 | 134707 | 169166
7 | 37:35.42 | 8:10.38 | 169167 | 205954
8 | 45:46.05 | 4:34.42 | 205955 | 226546
9 | 50:20.47 | 4:43.33 | 226547 | 247804
10 | 55:04.05 | 6:30.49 | 247805 | 277103
Track 1
Filename F:\My Documents\My Music\Albums (Complete)\01. Mostly Autumn - Unquiet Tears.wav
Pre-gap length 0:00:02.00
Peak level 88.6 %
Extraction speed 4.8 X
Track quality 100.0 %
Test CRC 8C14A790
Copy CRC 8C14A790
Track not present in AccurateRip database
Copy OK
Track 2
Filename F:\My Documents\My Music\Albums (Complete)\02. Solstice - Black Water.wav
Pre-gap length 0:00:02.00
Peak level 89.1 %
Extraction speed 5.5 X
Track quality 99.9 %
Test CRC 1C427459
Copy CRC 1C427459
Track not present in AccurateRip database
Copy OK
Track 3
Filename F:\My Documents\My Music\Albums (Complete)\03. Sisare - Isolation.wav
Pre-gap length 0:00:02.00
Peak level 96.6 %
Extraction speed 6.5 X
Track quality 100.0 %
Test CRC C6DDF916
Copy CRC C6DDF916
Track not present in AccurateRip database
Copy OK
Track 4
Filename F:\My Documents\My Music\Albums (Complete)\04. Flying Colors - The Storm.wav
Pre-gap length 0:00:02.00
Peak level 98.1 %
Extraction speed 6.7 X
Track quality 100.0 %
Test CRC F77BA86F
Copy CRC F77BA86F
Track not present in AccurateRip database
Copy OK
Track 5
Filename F:\My Documents\My Music\Albums (Complete)\05. Agent - Made Of Gold.wav
Pre-gap length 0:00:02.00
Peak level 99.8 %
Extraction speed 6.9 X
Track quality 100.0 %
Test CRC 71426A5C
Copy CRC 71426A5C
Track not present in AccurateRip database
Copy OK
Track 6
Filename F:\My Documents\My Music\Albums (Complete)\06. Prospekt - Shroud.wav
Pre-gap length 0:00:02.00
Peak level 98.8 %
Extraction speed 7.3 X
Track quality 99.9 %
Test CRC 5A7D6A4C
Copy CRC 5A7D6A4C
Track not present in AccurateRip database
Copy OK
Track 7
Filename F:\My Documents\My Music\Albums (Complete)\07. Circle Of Illusion - New Age.wav
Pre-gap length 0:00:02.00
Peak level 96.3 %
Extraction speed 8.4 X
Track quality 100.0 %
Test CRC 2C06E24B
Copy CRC 2C06E24B
Track not present in AccurateRip database
Copy OK
Track 8
Filename F:\My Documents\My Music\Albums (Complete)\08. Sand - Clay.wav
Pre-gap length 0:00:02.00
Peak level 90.1 %
Extraction speed 7.3 X
Track quality 99.9 %
Test CRC 0374230B
Copy CRC 0374230B
Track not present in AccurateRip database
Copy OK
Track 9
Filename F:\My Documents\My Music\Albums (Complete)\09. Antlered Man - GDZ.wav
Pre-gap length 0:00:02.00
Peak level 100.0 %
Extraction speed 8.4 X
Track quality 100.0 %
Test CRC 50769E60
Copy CRC 50769E60
Track not present in AccurateRip database
Copy OK
Track 10
Filename F:\My Documents\My Music\Albums (Complete)\10. Here & Now - Telly Song.wav
Pre-gap length 0:00:02.00
Peak level 89.1 %
Extraction speed 8.6 X
Track quality 100.0 %
Test CRC E1BF010B
Copy CRC E1BF010B
Track not present in AccurateRip database
Copy OK
None of the tracks are present in the AccurateRip database
No errors occurred
End of status report
==== Log checksum 7AD3C92714FD273E969A35377CF1F9B864411F2AE7D582DA9DB2C28A08A9CB2C ====

Содержание индексной карты (.CUE)

REM GENRE "Progressive Rock"
REM DATE 2013
REM DISCID 940E6E0A
REM COMMENT "ExactAudioCopy v1.0b3"
PERFORMER "Various Artists"
TITLE "Prog - P19: Smash And Scatteration!"
FILE "01. Mostly Autumn - Unquiet Tears.wav" WAVE
TRACK 01 AUDIO
TITLE "Unquiet Tears"
PERFORMER "Mostly Autumn"
INDEX 01 00:00:00
TRACK 02 AUDIO
TITLE "Black Water"
PERFORMER "Solstice"
INDEX 00 05:22:47
FILE "02. Solstice - Black Water.wav" WAVE
INDEX 01 00:00:00
TRACK 03 AUDIO
TITLE "Isolation"
PERFORMER "Sisare"
INDEX 00 08:49:38
FILE "03. Sisare - Isolation.wav" WAVE
INDEX 01 00:00:00
TRACK 04 AUDIO
TITLE "The Storm"
PERFORMER "Flying Colors"
INDEX 00 07:04:27
FILE "04. Flying Colors - The Storm.wav" WAVE
INDEX 01 00:00:00
TRACK 05 AUDIO
TITLE "Made Of Gold"
PERFORMER "Agent"
INDEX 00 04:31:00
FILE "05. Agent - Made Of Gold.wav" WAVE
INDEX 01 00:00:00
INDEX 02 01:44:70
TRACK 06 AUDIO
TITLE "Shroud"
PERFORMER "Prospekt"
INDEX 00 03:58:45
FILE "06. Prospekt - Shroud.wav" WAVE
INDEX 01 00:00:00
TRACK 07 AUDIO
TITLE "New Age"
PERFORMER "Circle Of Illusion"
INDEX 00 07:37:35
FILE "07. Circle Of Illusion - New Age.wav" WAVE
INDEX 01 00:00:00
TRACK 08 AUDIO
TITLE "Clay"
PERFORMER "Sand"
INDEX 00 08:08:38
FILE "08. Sand - Clay.wav" WAVE
INDEX 01 00:00:00
TRACK 09 AUDIO
TITLE "GDZ"
PERFORMER "Antlered Man"
INDEX 00 04:32:42
FILE "09. Antlered Man - GDZ.wav" WAVE
INDEX 01 00:00:00
TRACK 10 AUDIO
TITLE "Telly Song"
PERFORMER "Here & Now"
INDEX 00 04:41:33
FILE "10. Here & Now - Telly Song.wav" WAVE
INDEX 01 00:00:00

Лог проверки качества

-----------------------
DON'T MODIFY THIS FILE
-----------------------
PERFORMER: auCDtect Task Manager, ver. 1.5.1RC6 build 1.5.1.7
Copyright (c) 2008-2010 y-soft. All rights reserved
http://y-soft.org
ANALYZER: auCDtect: CD records authenticity detector, version 0.8.2
Copyright (c) 2004 Oleg Berngardt. All rights reserved.
Copyright (c) 2004 Alexander Djourik. All rights reserved.
FILE: 10. Here & Now - Telly Song.flac
Size: 42890763 Hash: FF2F9F90DD376181672F0604CCCD9CAF Accuracy: -m0
Conclusion: CDDA 100%
Signature: 73D694F5EDA9A9AEDB290A6C5481A6A02B19F949
FILE: 09. Antlered Man - GDZ.flac
Size: 38058641 Hash: 507D35CC7181B619C3CFC87675497109 Accuracy: -m0
Conclusion: CDDA 100%
Signature: BD9E979EF9D159B5F27420DD0FBE2847CF5E7212
FILE: 08. Sand - Clay.flac
Size: 34216174 Hash: 7D648C4C7962FEBDA7516ABD6C3235D9 Accuracy: -m0
Conclusion: CDDA 100%
Signature: C8DB5CD9EB1853BBB1A02DB3ECF9BF9A765EA681
FILE: 07. Circle Of Illusion - New Age.flac
Size: 61596366 Hash: 056863DDC4345CCB25EF96BB568AA84D Accuracy: -m0
Conclusion: CDDA 100%
Signature: B4037C8B3D75B305A021AB7B20D8C1FD5843E225
FILE: 06. Prospekt - Shroud.flac
Size: 60840590 Hash: D110A893C649C0541C8B4C034EFCBD2A Accuracy: -m0
Conclusion: CDDA 100%
Signature: E69BC128DCE5327CE0A4E2A2FFD833258AA16F5E
FILE: 05. Agent - Made Of Gold.flac
Size: 30847431 Hash: EE41C17EA00A8B3C9F741B3F4F3D0F21 Accuracy: -m0
Conclusion: CDDA 100%
Signature: E37C199A54BA784AEFA6F05FFFDEAE6898353B2D
FILE: 04. Flying Colors - The Storm.flac
Size: 30678809 Hash: 6D5D2BDA153E6843C28CAAB2434293DE Accuracy: -m0
Conclusion: CDDA 100%
Signature: E15B57C361DE7825D820728BD50CD79AB40E4FE5
FILE: 03. Sisare - Isolation.flac
Size: 54398634 Hash: 3C7ECCB893A5FEBC4999A65622F82116 Accuracy: -m0
Conclusion: CDDA 99%
Signature: 850B3BB7DA600BD58F1B2B533B6863388428AA8F
FILE: 02. Solstice - Black Water.flac
Size: 57532473 Hash: 6460A7193359ED618D86E9361826250A Accuracy: -m0
Conclusion: CDDA 99%
Signature: B6AE5B64C6A03008B57B2030FA5FBBB64693F2E4
FILE: 01. Mostly Autumn - Unquiet Tears.flac
Size: 30546864 Hash: 5776A5F2CB201D49694F33AE187A4F82 Accuracy: -m0
Conclusion: MPEG 95%
Signature: B9D605B0E780FB6AEF915305A0FD45FF537FA936

Скриншот спектра частот

To download the file disable ad blocking, and reload the page.

disable adblock How to disable ad blocking?

Download by magnet link 422 MB Download Torrent

Login using:

Similar topics



   
Current time is: 15-Nov 21:32 :: All times are UTC + 3