Various Artists - Prog P18: Childhood's End
--Жанр: Progressive Rock
Носитель: CD
Год издания: 2013
Издатель (лейбл): TeamRock
Аудиокодек: FLAC (*.flac)
Тип рипа: tracks+.cue
Битрейт аудио: lossless
Продолжительность: 00:46:51
Источник: internet
Наличие сканов: да
Треклист:
01. Anathema - Untouchable, Part 2 [00:05:44]
02. Katatonia - The One You Are Looking For Is Not Here [00:03:56]
03. The Flower Kings - Desolation Road [00:04:02]
04. White Willow - Now In These Fairy Lands [00:05:27]
05. Ayreon - Progressive Waves [00:03:28]
06. Lalu - Momento [00:03:41]
07. The Opium Cartel - White Wolf [00:06:15]
08. Withem - Miracle [00:04:13]
09. Protest The Hero - Clarity [00:05:34]
10. Mumpbeak - Forelock [00:04:29]

-

Лог создания рипа

Exact Audio Copy V1.0 beta 3 from 29. August 2011
EAC extraction logfile from 31. October 2013, 23:23
Various / Prog - P18: Childhood's End
Used drive : ATAPI iHAS124 W Adapter: 1 ID: 0
Read mode : Secure
Utilize accurate stream : Yes
Defeat audio cache : Yes
Make use of C2 pointers : No
Read offset correction : 48
Overread into Lead-In and Lead-Out : No
Fill up missing offset samples with silence : Yes
Delete leading and trailing silent blocks : No
Null samples used in CRC calculations : Yes
Used interface : Native Win32 interface for Win NT & 2000
Gap handling : Appended to previous track
Used output format : User Defined Encoder
Selected bitrate : 896 kBit/s
Quality : High
Add ID3 tag : No
Command line compressor : C:\Program Files (x86)\FLAC\flac.exe
Additional command line options : -8 -V -T "artist=%artist%" -T "albumartist=%albumartist%" -T "album=%albumtitle%" -T "title=%title%" -T "year=%year%" -T "tracknumber=%tracknr2%" -T "genre=%genre%" %source% -o %dest%
TOC of the extracted CD
Track | Start | Length | Start sector | End sector
---------------------------------------------------------
1 | 0:00.00 | 5:44.00 | 0 | 25799
2 | 5:44.00 | 3:56.19 | 25800 | 43518
3 | 9:40.19 | 4:02.30 | 43519 | 61698
4 | 13:42.49 | 5:27.00 | 61699 | 86223
5 | 19:09.49 | 3:28.00 | 86224 | 101823
6 | 22:37.49 | 3:41.00 | 101824 | 118398
7 | 26:18.49 | 6:15.60 | 118399 | 146583
8 | 32:34.34 | 4:13.45 | 146584 | 165603
9 | 36:48.04 | 5:34.00 | 165604 | 190653
10 | 42:22.04 | 4:29.15 | 190654 | 210843
Track 1
Filename F:\My Documents\My Music\Albums (Complete)\01. Anathema - Untouchable, Part 2.wav
Pre-gap length 0:00:02.00
Peak level 94.3 %
Extraction speed 4.7 X
Track quality 100.0 %
Test CRC AC41CB38
Copy CRC AC41CB38
Track not present in AccurateRip database
Copy OK
Track 2
Filename F:\My Documents\My Music\Albums (Complete)\02. Katatonia - The One You Are Looking For Is Not Here.wav
Pre-gap length 0:00:02.00
Peak level 93.9 %
Extraction speed 5.2 X
Track quality 100.0 %
Test CRC 8375B9F2
Copy CRC 8375B9F2
Track not present in AccurateRip database
Copy OK
Track 3
Filename F:\My Documents\My Music\Albums (Complete)\03. The Flower Kings - Desolation Road.wav
Pre-gap length 0:00:02.00
Peak level 98.8 %
Extraction speed 5.6 X
Track quality 100.0 %
Test CRC DE749906
Copy CRC DE749906
Track not present in AccurateRip database
Copy OK
Track 4
Filename F:\My Documents\My Music\Albums (Complete)\04. White Willow - Now In These Fairy Lands.wav
Pre-gap length 0:00:02.00
Peak level 98.8 %
Extraction speed 5.7 X
Track quality 99.9 %
Test CRC C62EE98A
Copy CRC C62EE98A
Track not present in AccurateRip database
Copy OK
Track 5
Filename F:\My Documents\My Music\Albums (Complete)\05. Ayreon - Progressive Waves.wav
Pre-gap length 0:00:02.00
Peak level 98.5 %
Extraction speed 6.3 X
Track quality 100.0 %
Test CRC 18B0F4E9
Copy CRC 18B0F4E9
Track not present in AccurateRip database
Copy OK
Track 6
Filename F:\My Documents\My Music\Albums (Complete)\06. Lalu - Momento.wav
Pre-gap length 0:00:02.00
Peak level 97.0 %
Extraction speed 6.6 X
Track quality 100.0 %
Test CRC FFBD9175
Copy CRC FFBD9175
Track not present in AccurateRip database
Copy OK
Track 7
Filename F:\My Documents\My Music\Albums (Complete)\07. The Opium Cartel - White Wolf.wav
Pre-gap length 0:00:02.00
Peak level 98.8 %
Extraction speed 6.8 X
Track quality 99.9 %
Test CRC 3F013E9E
Copy CRC 3F013E9E
Track not present in AccurateRip database
Copy OK
Track 8
Filename F:\My Documents\My Music\Albums (Complete)\08. Withem - Miracle.wav
Pre-gap length 0:00:02.00
Peak level 97.7 %
Extraction speed 6.7 X
Track quality 99.9 %
Test CRC 382BF0C2
Copy CRC 382BF0C2
Track not present in AccurateRip database
Copy OK
Track 9
Filename F:\My Documents\My Music\Albums (Complete)\09. Protest The Hero - Clarity.wav
Pre-gap length 0:00:02.00
Peak level 100.0 %
Extraction speed 7.4 X
Track quality 99.9 %
Test CRC 295948C4
Copy CRC 295948C4
Track not present in AccurateRip database
Copy OK
Track 10
Filename F:\My Documents\My Music\Albums (Complete)\10. Mumpbeak - Forelock.wav
Pre-gap length 0:00:02.00
Peak level 96.6 %
Extraction speed 8.1 X
Track quality 100.0 %
Test CRC 254100E7
Copy CRC 254100E7
Track not present in AccurateRip database
Copy OK
None of the tracks are present in the AccurateRip database
No errors occurred
End of status report
==== Log checksum 259E807221DB3F5DFD9131940FBBF3603DCBF2990FAC5D47EF6EA7951C2D4B23 ====

Содержание индексной карты (.CUE)

REM GENRE "Progressive Rock"
REM DATE 2013
REM DISCID 7D0AFB0A
REM COMMENT "ExactAudioCopy v1.0b3"
PERFORMER "Various"
TITLE "Prog - P18: Childhood's End"
FILE "01. Anathema - Untouchable, Part 2.wav" WAVE
TRACK 01 AUDIO
TITLE "Untouchable, Part 2"
PERFORMER "Anathema"
INDEX 01 00:00:00
TRACK 02 AUDIO
TITLE "The One You Are Looking For Is Not Here"
PERFORMER "Katatonia"
INDEX 00 05:42:00
FILE "02. Katatonia - The One You Are Looking For Is Not Here.wav" WAVE
INDEX 01 00:00:00
TRACK 03 AUDIO
TITLE "Desolation Road"
PERFORMER "The Flower Kings"
INDEX 00 03:54:19
FILE "03. The Flower Kings - Desolation Road.wav" WAVE
INDEX 01 00:00:00
TRACK 04 AUDIO
TITLE "Now In These Fairy Lands"
PERFORMER "White Willow"
INDEX 00 04:00:30
FILE "04. White Willow - Now In These Fairy Lands.wav" WAVE
INDEX 01 00:00:00
TRACK 05 AUDIO
TITLE "Progressive Waves"
PERFORMER "Ayreon"
INDEX 00 05:25:00
FILE "05. Ayreon - Progressive Waves.wav" WAVE
INDEX 01 00:00:00
TRACK 06 AUDIO
TITLE "Momento"
PERFORMER "Lalu"
INDEX 00 03:26:00
FILE "06. Lalu - Momento.wav" WAVE
INDEX 01 00:00:00
TRACK 07 AUDIO
TITLE "White Wolf"
PERFORMER "The Opium Cartel"
INDEX 00 03:39:00
FILE "07. The Opium Cartel - White Wolf.wav" WAVE
INDEX 01 00:00:00
TRACK 08 AUDIO
TITLE "Miracle"
PERFORMER "Withem"
INDEX 00 06:13:60
FILE "08. Withem - Miracle.wav" WAVE
INDEX 01 00:00:00
TRACK 09 AUDIO
TITLE "Clarity"
PERFORMER "Protest The Hero"
INDEX 00 04:11:45
FILE "09. Protest The Hero - Clarity.wav" WAVE
INDEX 01 00:00:00
TRACK 10 AUDIO
TITLE "Forelock"
PERFORMER "Mumpbeak"
INDEX 00 05:32:00
FILE "10. Mumpbeak - Forelock.wav" WAVE
INDEX 01 00:00:00

Лог проверки качества

-----------------------
DON'T MODIFY THIS FILE
-----------------------
PERFORMER: auCDtect Task Manager, ver. 1.5.1RC6 build 1.5.1.7
Copyright (c) 2008-2010 y-soft. All rights reserved
http://y-soft.org
ANALYZER: auCDtect: CD records authenticity detector, version 0.8.2
Copyright (c) 2004 Oleg Berngardt. All rights reserved.
Copyright (c) 2004 Alexander Djourik. All rights reserved.
FILE: 10. Mumpbeak - Forelock.flac
Size: 31809647 Hash: 8C426793E1B01A83CBBC89B4F01C5C3F Accuracy: -m0
Conclusion: CDDA 100%
Signature: B4A13B2175970B6F9F21CFBB0757F94D2627A762
FILE: 09. Protest The Hero - Clarity.flac
Size: 43507766 Hash: 814FFF793B76BB54DBA1DD9E8FDB377A Accuracy: -m0
Conclusion: CDDA 99%
Signature: 5C65E601C1297F39206839ED0EFA05006766C63F
FILE: 08. Withem - Miracle.flac
Size: 32709953 Hash: B0EFCD63E75DE5EF53DAFF4EC89F6C23 Accuracy: -m0
Conclusion: CDDA 100%
Signature: 4E9CC171823106CF64604AB0A203A654387C9D62
FILE: 07. The Opium Cartel - White Wolf.flac
Size: 44999117 Hash: 04B8C6933853FD6AB323F8227D3D6C51 Accuracy: -m0
Conclusion: CDDA 100%
Signature: A2A7E5FD725546D87D49CC5EB429256000E5A907
FILE: 06. Lalu - Momento.flac
Size: 26432961 Hash: 92196AB13EB1071DDD9495DB5DAAE574 Accuracy: -m0
Conclusion: CDDA 100%
Signature: FD87BD8F7144EAD9B4645654BA7AD98361B05118
FILE: 05. Ayreon - Progressive Waves.flac
Size: 26959865 Hash: C7A896BBA71BE792C2D6C3B489DB3C19 Accuracy: -m0
Conclusion: CDDA 100%
Signature: 469DD3C771B418D731C6E624A29F224084E37F73
FILE: 04. White Willow - Now In These Fairy Lands.flac
Size: 38652476 Hash: 5DAD72C01C6F64D432FEA7016CF84D4C Accuracy: -m0
Conclusion: CDDA 100%
Signature: 572A3ADC75972565074C1A2FB668C6B51EE54BF8
FILE: 03. The Flower Kings - Desolation Road.flac
Size: 29483621 Hash: 9ADF925B146FBF07849BACDBB173BB5F Accuracy: -m0
Conclusion: CDDA 100%
Signature: 32A859B3A96BF1FDA201798FE08BCF1D9C4FF29F
FILE: 02. Katatonia - The One You Are Looking For Is Not Here.flac
Size: 23750123 Hash: 476223C40A0F200F28FEA036CBBEDD83 Accuracy: -m0
Conclusion: CDDA 100%
Signature: F7D343448F2ACBAB5317CEF3145486749BA257BB
FILE: 01. Anathema - Untouchable, Part 2.flac
Size: 37904576 Hash: 9B2FDA8A6BABFD742D38216766FB7002 Accuracy: -m0
Conclusion: CDDA 100%
Signature: 6E74E6C804C1C88A4A289AD14C032B3A9289EABA

Скриншот спектра частот

To download the file disable ad blocking, and reload the page.

disable adblock How to disable ad blocking?

Download by magnet link 322 MB Download Torrent

Login using:

Similar topics



   
Current time is: 18-Sep 17:35 :: All times are UTC ± 0