Various Artists - Prog P17: Awaken The Stone King
--Жанр: Progressive Rock
Носитель: CD
производитель диска: EU
Год издания: 2013
Издатель (лейбл): TeamRock
Аудиокодек: FLAC (*.flac)
Тип рипа: tracks+.cue
Битрейт аудио: lossless
Продолжительность: 01:09:12
Источник: internet
Наличие сканов: да
Треклист:
01. John Lee's Barclay James Harvest - On Leave [00:09:13]
02. Haken - Cockroach King [00:08:16]
03. Aisles - 4.45 AM [00:04:08]
04. Thieves' Kitchen - Of Sparks And Spires [00:12:31]
05. PBII - Never Old [00:08:21]
06. Nik Turner - Fallen Angel STS-51-L [00:04:58]
07. Jeseter - V Zahradach Stromu (In The Garden Of Trees) [00:06:23]
08. Govea - Duelo (Mourning) [00:08:40]
09. A Cure For Siri - What You Get Is What You See [00:06:38]

-

Лог создания рипа

Exact Audio Copy V1.0 beta 3 from 29. August 2011
EAC extraction logfile from 25. September 2013, 23:46
Various Artists / Prog - P17: Awaken The Stone King
Used drive : ATAPI iHAS124 W Adapter: 1 ID: 0
Read mode : Secure
Utilize accurate stream : Yes
Defeat audio cache : Yes
Make use of C2 pointers : No
Read offset correction : 48
Overread into Lead-In and Lead-Out : No
Fill up missing offset samples with silence : Yes
Delete leading and trailing silent blocks : No
Null samples used in CRC calculations : Yes
Used interface : Native Win32 interface for Win NT & 2000
Gap handling : Appended to previous track
Used output format : User Defined Encoder
Selected bitrate : 896 kBit/s
Quality : High
Add ID3 tag : No
Command line compressor : C:\Program Files (x86)\FLAC\flac.exe
Additional command line options : -8 -V -T "artist=%artist%" -T "albumartist=%albumartist%" -T "album=%albumtitle%" -T "title=%title%" -T "year=%year%" -T "tracknumber=%tracknr2%" -T "genre=%genre%" %source% -o %dest%
TOC of the extracted CD
Track | Start | Length | Start sector | End sector
---------------------------------------------------------
1 | 0:00.00 | 9:13.01 | 0 | 41475
2 | 9:13.01 | 8:16.43 | 41476 | 78718
3 | 17:29.44 | 4:08.24 | 78719 | 97342
4 | 21:37.68 | 12:31.60 | 97343 | 153727
5 | 34:09.53 | 8:21.65 | 153728 | 191367
6 | 42:31.43 | 4:58.43 | 191368 | 213760
7 | 47:30.11 | 6:23.57 | 213761 | 242542
8 | 53:53.68 | 8:40.52 | 242543 | 281594
9 | 62:34.45 | 6:38.00 | 281595 | 311444
10 | 71:44.45 | 5:18.14 | 322845 | 346708
Track 1
Filename F:\My Documents\My Music\Albums (Complete)\01. John Lee's Barclay James Harvest - On Leave.wav
Pre-gap length 0:00:02.00
Peak level 99.4 %
Extraction speed 5.7 X
Track quality 100.0 %
Test CRC 227E413D
Copy CRC 227E413D
Track not present in AccurateRip database
Copy OK
Track 2
Filename F:\My Documents\My Music\Albums (Complete)\02. Haken - Cockroach King.wav
Pre-gap length 0:00:02.00
Peak level 97.7 %
Extraction speed 6.7 X
Track quality 100.0 %
Test CRC 1A715966
Copy CRC 1A715966
Track not present in AccurateRip database
Copy OK
Track 3
Filename F:\My Documents\My Music\Albums (Complete)\03. Aisles - 4.45 AM.wav
Pre-gap length 0:00:02.00
Peak level 99.0 %
Extraction speed 4.8 X
Track quality 99.9 %
Test CRC 0C7CB48D
Copy CRC 0C7CB48D
Track not present in AccurateRip database
Copy OK
Track 4
Filename F:\My Documents\My Music\Albums (Complete)\04. Thieves' Kitchen - Of Sparks And Spires.wav
Pre-gap length 0:00:02.00
Peak level 99.4 %
Extraction speed 8.2 X
Track quality 100.0 %
Test CRC 718BB2DB
Copy CRC 718BB2DB
Track not present in AccurateRip database
Copy OK
Track 5
Filename F:\My Documents\My Music\Albums (Complete)\05. PBII - Never Old.wav
Pre-gap length 0:00:02.00
Peak level 98.8 %
Extraction speed 8.9 X
Track quality 100.0 %
Test CRC B67DCEDA
Copy CRC B67DCEDA
Track not present in AccurateRip database
Copy OK
Track 6
Filename F:\My Documents\My Music\Albums (Complete)\06. Nik Turner - Fallen Angel STS-51-L.wav
Pre-gap length 0:00:02.00
Peak level 95.5 %
Extraction speed 8.8 X
Track quality 100.0 %
Test CRC 72F207EB
Copy CRC 72F207EB
Track not present in AccurateRip database
Copy OK
Track 7
Filename F:\My Documents\My Music\Albums (Complete)\07. Jeseter - V Zahradach Stromu (In The Garden Of Trees).wav
Pre-gap length 0:00:02.00
Peak level 100.0 %
Extraction speed 7.3 X
Track quality 99.9 %
Test CRC 4EE3D62B
Copy CRC 4EE3D62B
Track not present in AccurateRip database
Copy OK
Track 8
Filename F:\My Documents\My Music\Albums (Complete)\08. Govea - Duelo (Mourning).wav
Pre-gap length 0:00:02.00
Peak level 97.7 %
Extraction speed 9.9 X
Track quality 100.0 %
Test CRC 78277528
Copy CRC 78277528
Track not present in AccurateRip database
Copy OK
Track 9
Filename F:\My Documents\My Music\Albums (Complete)\09. A Cure For Siri - What You Get Is What You See.wav
Pre-gap length 0:00:02.00
Peak level 100.0 %
Extraction speed 10.3 X
Track quality 100.0 %
Test CRC CF0730F6
Copy CRC CF0730F6
Track not present in AccurateRip database
Copy OK
None of the tracks are present in the AccurateRip database
No errors occurred
End of status report
==== Log checksum 16D14C7C4F67996F60E019120C70E6B12339DB12968F5212C06D4A1FC12CCDAE ====

Содержание индексной карты (.CUE)

REM GENRE "Progressive Rock"
REM DATE 2013
REM DISCID 84120E0A
REM COMMENT "ExactAudioCopy v1.0b3"
PERFORMER "Various Artists"
TITLE "Prog - P17: Awaken The Stone King"
FILE "01. John Lee's Barclay James Harvest - On Leave.wav" WAVE
TRACK 01 AUDIO
TITLE "On Leave"
PERFORMER "John Lee's Barclay James Harvest"
INDEX 01 00:00:00
TRACK 02 AUDIO
TITLE "Cockroach King"
PERFORMER "Haken"
INDEX 00 09:11:01
FILE "02. Haken - Cockroach King.wav" WAVE
INDEX 01 00:00:00
TRACK 03 AUDIO
TITLE "4.45 AM"
PERFORMER "Aisles"
INDEX 00 08:14:43
FILE "03. Aisles - 4.45 AM.wav" WAVE
INDEX 01 00:00:00
TRACK 04 AUDIO
TITLE "Of Sparks And Spires"
PERFORMER "Thieves' Kitchen"
INDEX 00 04:06:24
FILE "04. Thieves' Kitchen - Of Sparks And Spires.wav" WAVE
INDEX 01 00:00:00
TRACK 05 AUDIO
TITLE "Never Old"
PERFORMER "PBII"
INDEX 00 12:29:60
FILE "05. PBII - Never Old.wav" WAVE
INDEX 01 00:00:00
TRACK 06 AUDIO
TITLE "Fallen Angel STS-51-L"
PERFORMER "Nik Turner"
INDEX 00 08:19:65
FILE "06. Nik Turner - Fallen Angel STS-51-L.wav" WAVE
INDEX 01 00:00:00
TRACK 07 AUDIO
TITLE "V Zahradach Stromu (In The Garden Of Trees)"
PERFORMER "Jeseter"
INDEX 00 04:56:43
FILE "07. Jeseter - V Zahradach Stromu (In The Garden Of Trees).wav" WAVE
INDEX 01 00:00:00
TRACK 08 AUDIO
TITLE "Duelo (Mourning)"
PERFORMER "Govea"
INDEX 00 06:21:57
FILE "08. Govea - Duelo (Mourning).wav" WAVE
INDEX 01 00:00:00
TRACK 09 AUDIO
TITLE "What You Get Is What You See"
PERFORMER "A Cure For Siri"
INDEX 00 08:38:52
FILE "09. A Cure For Siri - What You Get Is What You See.wav" WAVE
INDEX 01 00:00:00
TRACK 10 MODEx/2xxx
TITLE "Data"
PERFORMER "Various Artists"
INDEX 00 06:38:00

Лог проверки качества

-----------------------
DON'T MODIFY THIS FILE
-----------------------
PERFORMER: auCDtect Task Manager, ver. 1.5.1RC6 build 1.5.1.7
Copyright (c) 2008-2010 y-soft. All rights reserved
http://y-soft.org
ANALYZER: auCDtect: CD records authenticity detector, version 0.8.2
Copyright (c) 2004 Oleg Berngardt. All rights reserved.
Copyright (c) 2004 Alexander Djourik. All rights reserved.
FILE: 09. A Cure For Siri - What You Get Is What You See.flac
Size: 49886587 Hash: C2B5F423A2336A474A76A83949D521BD Accuracy: -m0
Conclusion: CDDA 100%
Signature: 8ED99B0E2FA1BC7D47142FA38EA683342796B2C9
FILE: 08. Govea - Duelo (Mourning).flac
Size: 51714370 Hash: FF4B1448FF8DC61ED2FB1FF69D852165 Accuracy: -m0
Conclusion: CDDA 100%
Signature: 9EEB793E2BE42F2E01180D48851F41D93E0FEE13
FILE: 07. Jeseter - V Zahradach Stromu (In The Garden Of Trees).flac
Size: 43252448 Hash: 646A42C8CB6D7F91760CCEB1BCDDEFE4 Accuracy: -m0
Conclusion: CDDA 100%
Signature: 2C3F469C29E2FDA28C6B00AE09A4337B64E4C665
FILE: 06. Nik Turner - Fallen Angel STS-51-L.flac
Size: 34989179 Hash: 68112C0140417279F0035099ED4EAB34 Accuracy: -m0
Conclusion: CDDA 100%
Signature: AF2225967A581CE6DE94A0D3C7C0BFCC055CF19C
FILE: 05. PBII - Never Old.flac
Size: 61689454 Hash: 74C43B5E224F807641D77D6E16D71E8B Accuracy: -m0
Conclusion: CDDA 100%
Signature: 1F248263F4A22B9D477CBF002678F9BF419CAC00
FILE: 04. Thieves' Kitchen - Of Sparks And Spires.flac
Size: 79223719 Hash: 3A1E5C12306CCB776CCEA0027C64AA3E Accuracy: -m0
Conclusion: CDDA 100%
Signature: AE070925DD27D5E59A21C3697DDD4F0522FA15BC
FILE: 03. Aisles - 4.45 AM.flac
Size: 30160630 Hash: 64D7A688443F7861895825F0417BDBB4 Accuracy: -m0
Conclusion: CDDA 100%
Signature: 89E9F3CA5D3AC3DAD3E52358EAEBA9EA7329F3B8
FILE: 02. Haken - Cockroach King.flac
Size: 58825978 Hash: ED64439A1C604943D3755A6FB56AA058 Accuracy: -m0
Conclusion: CDDA 100%
Signature: EFB27E6B0E871EB311915071FE053B4DCE603286
FILE: 01. John Lee's Barclay James Harvest - On Leave.flac
Size: 54892583 Hash: 36D7A0D7761B262BB82011727BA5414C Accuracy: -m0
Conclusion: CDDA 100%
Signature: EE91B5797CEFFF30F554E15DC2A75DCCE3465CE0

Скриншот спектра частот

To download the file disable ad blocking, and reload the page.

disable adblock How to disable ad blocking?

Download by magnet link 445 MB Download Torrent

Login using:

Similar topics



   
Current time is: 16-Nov 00:48 :: All times are UTC + 3