Various Artists - Prog P16: Arriving Somewhere... But Not Here
--Жанр: Progressive Rock
Носитель: CD
производитель диска: EU
Год издания: 2013
Издатель (лейбл): Future
Аудиокодек: FLAC (*.flac)
Тип рипа: tracks+.cue
Битрейт аудио: lossless
Продолжительность: 01:13:33
Источник: internet
Наличие сканов : да
Треклист:
01. Moon Safari - Mega Moon [00:08:21]
02. Dead End Space - Breathe In, Breathe Out [00:09:58]
03. Karnivool - Nachash [00:04:49]
04. Maschine - Rubidium [00:06:10]
05. KingBathmat - Sentinel [00:08:44]
06. Blackfield - Pills [00:03:34]
07. The Windmill - The Masque [00:12:50]
08. The Custodian - Other People's Lives [00:06:59]
09. Fish On Friday - Back To Your Moon [00:05:55]
10. The Rhythm Thieves - Two Fat Legs [00:06:09]

-

Лог создания рипа

Exact Audio Copy V1.0 beta 3 from 29. August 2011
EAC extraction logfile from 29. August 2013, 20:09
Various Artists / Prog - P16: Arriving Somewhere... But Not Here
Used drive : TSSTcorpCDDVDW SH-224BB Adapter: 1 ID: 0
Read mode : Secure
Utilize accurate stream : Yes
Defeat audio cache : Yes
Make use of C2 pointers : No
Read offset correction : 6
Overread into Lead-In and Lead-Out : No
Fill up missing offset samples with silence : Yes
Delete leading and trailing silent blocks : No
Null samples used in CRC calculations : Yes
Used interface : Native Win32 interface for Win NT & 2000
Gap handling : Appended to previous track
Used output format : User Defined Encoder
Selected bitrate : 896 kBit/s
Quality : High
Add ID3 tag : No
Command line compressor : C:\Program Files (x86)\FLAC\flac.exe
Additional command line options : -8 -V -T "artist=%artist%" -T "albumartist=%albumartist%" -T "album=%albumtitle%" -T "title=%title%" -T "year=%year%" -T "tracknumber=%tracknr2%" -T "genre=%genre%" %source% -o %dest%
TOC of the extracted CD
Track | Start | Length | Start sector | End sector
---------------------------------------------------------
1 | 0:00.00 | 8:21.39 | 0 | 37613
2 | 8:21.39 | 9:58.18 | 37614 | 82481
3 | 18:19.57 | 4:49.48 | 82482 | 104204
4 | 23:09.30 | 6:10.47 | 104205 | 132001
5 | 29:20.02 | 8:44.48 | 132002 | 171349
6 | 38:04.50 | 3:34.09 | 171350 | 187408
7 | 41:38.59 | 12:50.41 | 187409 | 245199
8 | 54:29.25 | 6:59.71 | 245200 | 276695
9 | 61:29.21 | 5:55.44 | 276696 | 303364
10 | 67:24.65 | 6:09.10 | 303365 | 331049
Track 1
Filename F:\My Documents\My Music\Albums (Complete)\01. Moon Safari - Mega Moon.wav
Pre-gap length 0:00:02.00
Peak level 100.0 %
Extraction speed 2.0 X
Track quality 100.0 %
Test CRC 5CC3D68C
Copy CRC 5CC3D68C
Track not present in AccurateRip database
Copy OK
Track 2
Filename F:\My Documents\My Music\Albums (Complete)\02. Dead End Space - Breathe In, Breathe Out.wav
Peak level 97.5 %
Extraction speed 2.3 X
Track quality 99.9 %
Test CRC 69E62A98
Copy CRC 69E62A98
Track not present in AccurateRip database
Copy OK
Track 3
Filename F:\My Documents\My Music\Albums (Complete)\03. Karnivool - Nachash.wav
Peak level 100.0 %
Extraction speed 2.6 X
Track quality 100.0 %
Test CRC C13D2AC8
Copy CRC C13D2AC8
Track not present in AccurateRip database
Copy OK
Track 4
Filename F:\My Documents\My Music\Albums (Complete)\04. Maschine - Rubidium.wav
Peak level 98.8 %
Extraction speed 2.8 X
Track quality 100.0 %
Test CRC 499B0CF2
Copy CRC 499B0CF2
Track not present in AccurateRip database
Copy OK
Track 5
Filename F:\My Documents\My Music\Albums (Complete)\05. KingBathmat - Sentinel.wav
Peak level 98.8 %
Extraction speed 3.2 X
Track quality 100.0 %
Test CRC 1B99FC6A
Copy CRC 1B99FC6A
Track not present in AccurateRip database
Copy OK
Track 6
Filename F:\My Documents\My Music\Albums (Complete)\06. Blackfield - Pills.wav
Peak level 96.9 %
Extraction speed 2.3 X
Track quality 99.9 %
Test CRC 9A0B5A3B
Copy CRC 9A0B5A3B
Track not present in AccurateRip database
Copy OK
Track 7
Filename F:\My Documents\My Music\Albums (Complete)\07. The Windmill - The Masque.wav
Peak level 94.4 %
Extraction speed 3.3 X
Track quality 99.9 %
Test CRC FBEA71CB
Copy CRC FBEA71CB
Track not present in AccurateRip database
Copy OK
Track 8
Filename F:\My Documents\My Music\Albums (Complete)\08. The Custodian - Other People's Lives.wav
Peak level 97.7 %
Extraction speed 3.1 X
Track quality 99.9 %
Test CRC 94A396A5
Copy CRC 94A396A5
Track not present in AccurateRip database
Copy OK
Track 9
Filename F:\My Documents\My Music\Albums (Complete)\09. Fish On Friday - Back To Your Moon.wav
Peak level 98.8 %
Extraction speed 3.0 X
Track quality 99.9 %
Test CRC 0A52A23E
Copy CRC 0A52A23E
Track not present in AccurateRip database
Copy OK
Track 10
Filename F:\My Documents\My Music\Albums (Complete)\10. The Rhythm Thieves - Two Fat Legs.wav
Peak level 100.0 %
Extraction speed 4.0 X
Track quality 100.0 %
Test CRC 564FDA0F
Copy CRC 564FDA0F
Track not present in AccurateRip database
Copy OK
None of the tracks are present in the AccurateRip database
No errors occurred
End of status report
==== Log checksum 1A1E1E47B66F6F73AC32CC479AD943FD4740DE0E1F29E21F7ACF9D16E9F5F3E4 ====

Содержание индексной карты (.CUE)

REM GENRE "Progressive Rock"
REM DATE 2013
REM DISCID 72113E0A
REM COMMENT "ExactAudioCopy v1.0b3"
PERFORMER "Various Artists"
TITLE "Prog - P16: Arriving Somewhere... But Not Here"
FILE "01. Moon Safari - Mega Moon.wav" WAVE
TRACK 01 AUDIO
TITLE "Mega Moon"
PERFORMER "Moon Safari"
INDEX 01 00:00:00
FILE "02. Dead End Space - Breathe In, Breathe Out.wav" WAVE
TRACK 02 AUDIO
TITLE "Breathe In, Breathe Out"
PERFORMER "Dead End Space"
INDEX 01 00:00:00
FILE "03. Karnivool - Nachash.wav" WAVE
TRACK 03 AUDIO
TITLE "Nachash"
PERFORMER "Karnivool"
INDEX 01 00:00:00
FILE "04. Maschine - Rubidium.wav" WAVE
TRACK 04 AUDIO
TITLE "Rubidium"
PERFORMER "Maschine"
INDEX 01 00:00:00
FILE "05. KingBathmat - Sentinel.wav" WAVE
TRACK 05 AUDIO
TITLE "Sentinel"
PERFORMER "KingBathmat"
INDEX 01 00:00:00
FILE "06. Blackfield - Pills.wav" WAVE
TRACK 06 AUDIO
TITLE "Pills"
PERFORMER "Blackfield"
INDEX 01 00:00:00
FILE "07. The Windmill - The Masque.wav" WAVE
TRACK 07 AUDIO
TITLE "The Masque"
PERFORMER "The Windmill"
INDEX 01 00:00:00
FILE "08. The Custodian - Other People's Lives.wav" WAVE
TRACK 08 AUDIO
TITLE "Other People's Lives"
PERFORMER "The Custodian"
INDEX 01 00:00:00
FILE "09. Fish On Friday - Back To Your Moon.wav" WAVE
TRACK 09 AUDIO
TITLE "Back To Your Moon"
PERFORMER "Fish On Friday"
INDEX 01 00:00:00
FILE "10. The Rhythm Thieves - Two Fat Legs.wav" WAVE
TRACK 10 AUDIO
TITLE "Two Fat Legs"
PERFORMER "The Rhythm Thieves"
INDEX 01 00:00:00

Лог проверки качества

-----------------------
DON'T MODIFY THIS FILE
-----------------------
PERFORMER: auCDtect Task Manager, ver. 1.5.1RC6 build 1.5.1.7
Copyright (c) 2008-2010 y-soft. All rights reserved
http://y-soft.org
ANALYZER: auCDtect: CD records authenticity detector, version 0.8.2
Copyright (c) 2004 Oleg Berngardt. All rights reserved.
Copyright (c) 2004 Alexander Djourik. All rights reserved.
FILE: 10. The Rhythm Thieves - Two Fat Legs.flac
Size: 33603732 Hash: 239785EC9B48BE4AC270C03D65EF4C97 Accuracy: -m0
Conclusion: MPEG 95%
Signature: 6542604ED1C5D067BCB6EB8E25FB9B3828612774
FILE: 09. Fish On Friday - Back To Your Moon.flac
Size: 39820460 Hash: 662584F503512FB87CF6A00F4D6BF018 Accuracy: -m0
Conclusion: CDDA 100%
Signature: 29DB4DF6802D2E2A8C39DE78F9D63F1CD201B9EE
FILE: 08. The Custodian - Other People's Lives.flac
Size: 42104506 Hash: 8991F5DAE0D30AB1794A9E5C6047A97A Accuracy: -m0
Conclusion: CDDA 100%
Signature: 0943F41E0EF9FCCBEF642F67F2F7E83BA3C68326
FILE: 07. The Windmill - The Masque.flac
Size: 88581625 Hash: F265D77F103EFA7A0F0618E24E64914C Accuracy: -m0
Conclusion: CDDA 100%
Signature: 88A761873F203C5B5A2BBBC548AF2B38C8978C9A
FILE: 06. Blackfield - Pills.flac
Size: 21108807 Hash: A6F065E128B072BC5AA8C8B25011DF4B Accuracy: -m0
Conclusion: CDDA 100%
Signature: 342299895865367E86DB7C516334E9D25EE405A8
FILE: 05. KingBathmat - Sentinel.flac
Size: 59808120 Hash: 219793E223D822A4487B093FE57DFCD9 Accuracy: -m0
Conclusion: CDDA 100%
Signature: D3D6489AFD97D11A605B996A9B3888BD5E2D59C1
FILE: 04. Maschine - Rubidium.flac
Size: 44694055 Hash: B02BD540715BDBE2DC6052ED87B42756 Accuracy: -m0
Conclusion: CDDA 100%
Signature: 24E1F5F29FA6CA444CF782200B9B01F033350AAA
FILE: 03. Karnivool - Nachash.flac
Size: 32458776 Hash: D96464C5F070D2521F913C1F0109A7C8 Accuracy: -m0
Conclusion: MPEG 95%
Signature: B369C86543A7C9828027D443C3279D46499D6D99
FILE: 02. Dead End Space - Breathe In, Breathe Out.flac
Size: 71700873 Hash: 487E3641E1F853F04528382844006959 Accuracy: -m0
Conclusion: CDDA 99%
Signature: 86F7795DE4A739F98041CD9CCBE4BC841E0BCAF5
FILE: 01. Moon Safari - Mega Moon.flac
Size: 56714033 Hash: 2BA6A9A682BC789794E76C59DBBD8B08 Accuracy: -m0
Conclusion: CDDA 100%
Signature: 674ADF93896FE07D72E593F6D7AD33DE9D2EF07B

Скриншот спектра частот

To download the file disable ad blocking, and reload the page.

disable adblock How to disable ad blocking?

Download by magnet link 470 MB Download Torrent

Login using:

Similar topics



   
Current time is: 23-Sep 15:47 :: All times are UTC ± 0