Various Artists - Prog P15: Tangerine Dreaming
--Жанр: Progressive Rock
Носитель: CD
производитель диска: EU
Год издания: 2013
Издатель (лейбл): TeamRock
Аудиокодек: FLAC (*.flac)
Тип рипа: tracks+.cue
Битрейт аудио: lossless
Продолжительность: 00:59:20
Источник: internet
Наличие сканов: да
Треклист:
01. Rovo & System 7 - Hinotori [00:05:07]
02. Beyond-O-Matic - Wish [00:07:49]
03. Shineback (feat. Dec Burke) - Fears Aren't Toys [00:05:20]
04. The Windmill - Not Alone [00:09:12]
05. Telergy - Accusations [00:09:20]
06. Days Between Stations - In Utero, Visionary [00:12:46]
07. Syzygy - Coronation [00:09:43]

-

Лог создания рипа

Exact Audio Copy V1.0 beta 3 from 29. August 2011
EAC extraction logfile from 17. July 2013, 23:04
Various Artists / Prog - P15: Tangerine Dreaming
Used drive : TSSTcorpCDDVDW SH-224BB Adapter: 1 ID: 0
Read mode : Secure
Utilize accurate stream : Yes
Defeat audio cache : Yes
Make use of C2 pointers : No
Read offset correction : 6
Overread into Lead-In and Lead-Out : No
Fill up missing offset samples with silence : Yes
Delete leading and trailing silent blocks : No
Null samples used in CRC calculations : Yes
Used interface : Native Win32 interface for Win NT & 2000
Gap handling : Appended to previous track
Used output format : User Defined Encoder
Selected bitrate : 896 kBit/s
Quality : High
Add ID3 tag : No
Command line compressor : C:\Program Files (x86)\FLAC\flac.exe
Additional command line options : -8 -V -T "artist=%artist%" -T "albumartist=%albumartist%" -T "album=%albumtitle%" -T "title=%title%" -T "year=%year%" -T "tracknumber=%tracknr2%" -T "genre=%genre%" %source% -o %dest%
TOC of the extracted CD
Track | Start | Length | Start sector | End sector
---------------------------------------------------------
1 | 0:00.00 | 5:07.63 | 0 | 23087
2 | 5:07.63 | 7:49.00 | 23088 | 58262
3 | 12:56.63 | 5:20.17 | 58263 | 82279
4 | 18:17.05 | 9:12.00 | 82280 | 123679
5 | 27:29.05 | 9:20.20 | 123680 | 165699
6 | 36:49.25 | 12:46.71 | 165700 | 223220
7 | 49:36.21 | 9:43.63 | 223221 | 267008
Track 1
Filename F:\My Documents\My Music\Albums (Complete)\01. Rovo & System 7 - Hinotori.wav
Pre-gap length 0:00:02.00
Peak level 99.6 %
Extraction speed 1.8 X
Track quality 100.0 %
Test CRC 66414045
Copy CRC 66414045
Track not present in AccurateRip database
Copy OK
Track 2
Filename F:\My Documents\My Music\Albums (Complete)\02. Beyond-O-Matic - Wish.wav
Pre-gap length 0:00:02.00
Peak level 99.6 %
Extraction speed 2.2 X
Track quality 100.0 %
Test CRC 3B0310C7
Copy CRC 3B0310C7
Track not present in AccurateRip database
Copy OK
Track 3
Filename F:\My Documents\My Music\Albums (Complete)\03. Shineback (feat. Dec Burke) - Fears Aren't Toys.wav
Pre-gap length 0:00:02.00
Peak level 99.6 %
Extraction speed 2.3 X
Track quality 100.0 %
Test CRC 6F770ADB
Copy CRC 6F770ADB
Track not present in AccurateRip database
Copy OK
Track 4
Filename F:\My Documents\My Music\Albums (Complete)\04. The Windmill - Not Alone.wav
Pre-gap length 0:00:02.00
Peak level 99.6 %
Extraction speed 2.7 X
Track quality 100.0 %
Test CRC F0BF7C49
Copy CRC F0BF7C49
Track not present in AccurateRip database
Copy OK
Track 5
Filename F:\My Documents\My Music\Albums (Complete)\05. Telergy - Accusations.wav
Pre-gap length 0:00:02.00
Peak level 99.6 %
Extraction speed 3.0 X
Track quality 100.0 %
Test CRC BA337806
Copy CRC BA337806
Track not present in AccurateRip database
Copy OK
Track 6
Filename F:\My Documents\My Music\Albums (Complete)\06. Days Between Stations - In Utero, Visionary.wav
Pre-gap length 0:00:02.00
Peak level 99.6 %
Extraction speed 3.4 X
Track quality 100.0 %
Test CRC 4F4743CE
Copy CRC 4F4743CE
Track not present in AccurateRip database
Copy OK
Track 7
Filename F:\My Documents\My Music\Albums (Complete)\07. Syzygy - Coronation.wav
Pre-gap length 0:00:02.00
Peak level 99.6 %
Extraction speed 3.7 X
Track quality 100.0 %
Test CRC 1BCCBAD8
Copy CRC 1BCCBAD8
Track not present in AccurateRip database
Copy OK
None of the tracks are present in the AccurateRip database
No errors occurred
End of status report
==== Log checksum CE5D513A47236DCE64C74273F74FEEB23495A61347F2EF1D1FEF3C68BEB19505 ====

Содержание индексной карты (.CUE)

REM GENRE "Progressive Rock"
REM DATE 2013
REM DISCID 640DE807
REM COMMENT "ExactAudioCopy v1.0b3"
PERFORMER "Various Artists"
TITLE "Prog - P15: Tangerine Dreaming"
FILE "01. Rovo & System 7 - Hinotori.wav" WAVE
TRACK 01 AUDIO
TITLE "Hinotori"
PERFORMER "Rovo & System 7"
INDEX 01 00:00:00
TRACK 02 AUDIO
TITLE "Wish"
PERFORMER "Beyond-O-Matic"
INDEX 00 05:05:63
FILE "02. Beyond-O-Matic - Wish.wav" WAVE
INDEX 01 00:00:00
TRACK 03 AUDIO
TITLE "Fears Aren't Toys"
PERFORMER "Shineback (feat. Dec Burke)"
INDEX 00 07:47:00
FILE "03. Shineback (feat. Dec Burke) - Fears Aren't Toys.wav" WAVE
INDEX 01 00:00:00
TRACK 04 AUDIO
TITLE "Not Alone"
PERFORMER "The Windmill"
INDEX 00 05:18:17
FILE "04. The Windmill - Not Alone.wav" WAVE
INDEX 01 00:00:00
TRACK 05 AUDIO
TITLE "Accusations"
PERFORMER "Telergy"
INDEX 00 09:10:00
FILE "05. Telergy - Accusations.wav" WAVE
INDEX 01 00:00:00
TRACK 06 AUDIO
TITLE "In Utero, Visionary"
PERFORMER "Days Between Stations"
INDEX 00 09:18:20
FILE "06. Days Between Stations - In Utero, Visionary.wav" WAVE
INDEX 01 00:00:00
TRACK 07 AUDIO
TITLE "Coronation"
PERFORMER "Syzygy"
INDEX 00 12:44:71
FILE "07. Syzygy - Coronation.wav" WAVE
INDEX 01 00:00:00

Лог проверки качества

-----------------------
DON'T MODIFY THIS FILE
-----------------------
PERFORMER: auCDtect Task Manager, ver. 1.5.1RC6 build 1.5.1.7
Copyright (c) 2008-2010 y-soft. All rights reserved
http://y-soft.org
ANALYZER: auCDtect: CD records authenticity detector, version 0.8.2
Copyright (c) 2004 Oleg Berngardt. All rights reserved.
Copyright (c) 2004 Alexander Djourik. All rights reserved.
FILE: 07. Syzygy - Coronation.flac
Size: 73081116 Hash: 67D46571C9291705DF184CEE5C32325B Accuracy: -m0
Conclusion: CDDA 100%
Signature: 44FE5BE525CE53BA633896E93B693E337619BE2C
FILE: 06. Days Between Stations - In Utero, Visionary.flac
Size: 85683799 Hash: 56EBCCF037BB0AC6740E7C005DD4C561 Accuracy: -m0
Conclusion: CDDA 100%
Signature: 0F6A6B78D6E19CE9DE2A0421CC625445C7DBED4F
FILE: 05. Telergy - Accusations.flac
Size: 62446456 Hash: 3581A3410A1CB88D8325A3E40B6D96A8 Accuracy: -m0
Conclusion: ???
Signature: D8B8990B219B5A8FB4D5F7AA145489A55E0AF454
FILE: 04. The Windmill - Not Alone.flac
Size: 59833527 Hash: 22542B832EA1CD07B3C2761DF6D4ED4D Accuracy: -m0
Conclusion: CDDA 100%
Signature: D9F4EDCA85FFA0578279DCC1CDD0A54E5780A6FE
FILE: 03. Shineback (feat. Dec Burke) - Fears Aren't Toys.flac
Size: 40796414 Hash: 50C9FAEF4CAE454F340AAECE13FBFEDD Accuracy: -m0
Conclusion: CDDA 100%
Signature: B308F432C5828572B52F48C837B2BE5B53652145
FILE: 02. Beyond-O-Matic - Wish.flac
Size: 53576027 Hash: 95C8891C1D7DC0A019A0BDCD31876285 Accuracy: -m0
Conclusion: CDDA 100%
Signature: 518A0710132238F56A59D08575E08A3D865F1D6A
FILE: 01. Rovo & System 7 - Hinotori.flac
Size: 38762051 Hash: 19CA7FAE8B49AC92D00935926338CE0A Accuracy: -m0
Conclusion: CDDA 100%
Signature: 60BB9264CBDB6E2CF01DC536BFB479F4567706BD

Скриншот спектра частот

To download the file disable ad blocking, and reload the page.

disable adblock How to disable ad blocking?

Download by magnet link 397 MB Download Torrent

Login using:

Similar topics



   
Current time is: 23-Sep 16:54 :: All times are UTC ± 0