Various Artists - Prog P14: Brave New World
--Жанр: Progressive Rock
Носитель: CD
производитель диска: EU
Год издания: 2013
Издатель (лейбл): TeamRock
Аудиокодек: FLAC (*.flac)
Тип рипа: tracks+.cue
Битрейт аудио: lossless
Продолжительность: 01:03:38
Источник: internet
Наличие сканов: да
Треклист:
01. Sound Of Contact - Pale Blue Dot [00:04:46]
02. Wisdom Of Crowds - Frozen North [00:06:33]
03. The Tirith - The Daughter Of The Water [00:06:49]
04. Days Between Stations - Eggshell Man [00:12:00]
05. Luna Rossa - Gasp [00:04:23]
06. Nosound - I Miss The Ground [00:04:59]
07. Franck Carducci - Alice's Eerie Dream [00:06:29]
08. The Grand Astoria - Space Orchid vs Massive Drumkit [00:05:24]
09. Vespero - Red Machine [00:08:01]
10. J. Crist - Thank You [00:04:11]

-

Лог создания рипа

Exact Audio Copy V1.0 beta 3 from 29. August 2011
EAC extraction logfile from 4. June 2013, 9:43
Various Artists / Prog P14: Brave New World
Used drive : TSSTcorpCDDVDW SH-224BB Adapter: 1 ID: 0
Read mode : Secure
Utilize accurate stream : Yes
Defeat audio cache : Yes
Make use of C2 pointers : No
Read offset correction : 6
Overread into Lead-In and Lead-Out : No
Fill up missing offset samples with silence : Yes
Delete leading and trailing silent blocks : No
Null samples used in CRC calculations : Yes
Used interface : Native Win32 interface for Win NT & 2000
Gap handling : Appended to previous track
Used output format : User Defined Encoder
Selected bitrate : 896 kBit/s
Quality : High
Add ID3 tag : No
Command line compressor : C:\Program Files (x86)\FLAC\flac.exe
Additional command line options : -8 -V -T "artist=%artist%" -T "albumartist=%albumartist%" -T "album=%albumtitle%" -T "title=%title%" -T "year=%year%" -T "tracknumber=%tracknr2%" -T "genre=%genre%" %source% -o %dest%
TOC of the extracted CD
Track | Start | Length | Start sector | End sector
---------------------------------------------------------
1 | 0:00.00 | 4:46.17 | 0 | 21466
2 | 4:46.17 | 6:33.15 | 21467 | 50956
3 | 11:19.32 | 6:49.23 | 50957 | 81654
4 | 18:08.55 | 12:00.02 | 81655 | 135656
5 | 30:08.57 | 4:23.25 | 135657 | 155406
6 | 34:32.07 | 4:59.54 | 155407 | 177885
7 | 39:31.61 | 6:29.29 | 177886 | 207089
8 | 46:01.15 | 5:24.27 | 207090 | 231416
9 | 51:25.42 | 8:01.62 | 231417 | 267553
10 | 59:27.29 | 4:11.22 | 267554 | 286400
Track 1
Filename F:\My Documents\My Music\Albums (Complete)\01. Sound Of Contact - Pale Blue Dot.wav
Pre-gap length 0:00:02.00
Peak level 99.6 %
Extraction speed 1.8 X
Track quality 100.0 %
Test CRC 8C8873F9
Copy CRC 8C8873F9
Track not present in AccurateRip database
Copy OK
Track 2
Filename F:\My Documents\My Music\Albums (Complete)\02. Wisdom Of Crowds - Frozen North.wav
Pre-gap length 0:00:02.00
Peak level 99.6 %
Extraction speed 2.1 X
Track quality 100.0 %
Test CRC D1CB8BDD
Copy CRC D1CB8BDD
Track not present in AccurateRip database
Copy OK
Track 3
Filename F:\My Documents\My Music\Albums (Complete)\03. The Tirith - The Daughter Of The Water.wav
Pre-gap length 0:00:02.00
Peak level 99.6 %
Extraction speed 2.4 X
Track quality 100.0 %
Test CRC 85A6FD17
Copy CRC 85A6FD17
Track not present in AccurateRip database
Copy OK
Track 4
Filename F:\My Documents\My Music\Albums (Complete)\04. Days Between Stations - Eggshell Man.wav
Pre-gap length 0:00:02.00
Peak level 99.6 %
Extraction speed 2.9 X
Track quality 100.0 %
Test CRC E0A5A362
Copy CRC E0A5A362
Track not present in AccurateRip database
Copy OK
Track 5
Filename F:\My Documents\My Music\Albums (Complete)\05. Luna Rossa - Gasp.wav
Pre-gap length 0:00:02.00
Peak level 99.6 %
Extraction speed 2.9 X
Track quality 100.0 %
Test CRC 4CAC4BA5
Copy CRC 4CAC4BA5
Track not present in AccurateRip database
Copy OK
Track 6
Filename F:\My Documents\My Music\Albums (Complete)\06. Nosound - I Miss The Ground.wav
Pre-gap length 0:00:02.00
Peak level 99.6 %
Extraction speed 3.0 X
Track quality 100.0 %
Test CRC 45779DF8
Copy CRC 45779DF8
Track not present in AccurateRip database
Copy OK
Track 7
Filename F:\My Documents\My Music\Albums (Complete)\07. Franck Carducci - Alice's Eerie Dream.wav
Pre-gap length 0:00:02.00
Peak level 99.6 %
Extraction speed 3.3 X
Track quality 100.0 %
Test CRC 013E76AB
Copy CRC 013E76AB
Track not present in AccurateRip database
Copy OK
Track 8
Filename F:\My Documents\My Music\Albums (Complete)\08. Space Orchid vs Massive Drumkit - The Grand Astoria.wav
Pre-gap length 0:00:02.00
Peak level 99.6 %
Extraction speed 2.7 X
Track quality 99.9 %
Test CRC AC45E2CE
Copy CRC AC45E2CE
Track not present in AccurateRip database
Copy OK
Track 9
Filename F:\My Documents\My Music\Albums (Complete)\09. Vespero - Red Machine.wav
Pre-gap length 0:00:02.00
Peak level 99.6 %
Extraction speed 3.7 X
Track quality 100.0 %
Test CRC 07FF99A7
Copy CRC 07FF99A7
Track not present in AccurateRip database
Copy OK
Track 10
Filename F:\My Documents\My Music\Albums (Complete)\10. J. Crist - Thank You.wav
Pre-gap length 0:00:02.00
Peak level 99.6 %
Extraction speed 3.6 X
Track quality 100.0 %
Test CRC 94A82192
Copy CRC 94A82192
Track not present in AccurateRip database
Copy OK
None of the tracks are present in the AccurateRip database
No errors occurred
End of status report
==== Log checksum C23B9DF50A83632BEF2E3A91527639BF687324D52F34A2C189BA96E73E6B847F ====

Содержание индексной карты (.CUE)

REM GENRE "Progressive Rock"
REM DATE 2013
REM DISCID 8E0EEA0A
REM COMMENT "ExactAudioCopy v1.0b3"
PERFORMER "Various Artists"
TITLE "Prog P14: Brave New World"
FILE "01. Sound Of Contact - Pale Blue Dot.wav" WAVE
TRACK 01 AUDIO
TITLE "Pale Blue Dot"
PERFORMER "Sound Of Contact"
INDEX 01 00:00:00
TRACK 02 AUDIO
TITLE "Frozen North"
PERFORMER "Wisdom Of Crowds"
INDEX 00 04:44:17
FILE "02. Wisdom Of Crowds - Frozen North.wav" WAVE
INDEX 01 00:00:00
TRACK 03 AUDIO
TITLE "The Daughter Of The Water"
PERFORMER "The Tirith"
INDEX 00 06:31:15
FILE "03. The Tirith - The Daughter Of The Water.wav" WAVE
INDEX 01 00:00:00
TRACK 04 AUDIO
TITLE "Eggshell Man"
PERFORMER "Days Between Stations"
INDEX 00 06:47:23
FILE "04. Days Between Stations - Eggshell Man.wav" WAVE
INDEX 01 00:00:00
TRACK 05 AUDIO
TITLE "Gasp"
PERFORMER "Luna Rossa"
INDEX 00 11:58:02
FILE "05. Luna Rossa - Gasp.wav" WAVE
INDEX 01 00:00:00
TRACK 06 AUDIO
TITLE "I Miss The Ground"
PERFORMER "Nosound"
INDEX 00 04:21:25
FILE "06. Nosound - I Miss The Ground.wav" WAVE
INDEX 01 00:00:00
TRACK 07 AUDIO
TITLE "Alice's Eerie Dream"
PERFORMER "Franck Carducci"
INDEX 00 04:57:54
FILE "07. Franck Carducci - Alice's Eerie Dream.wav" WAVE
INDEX 01 00:00:00
TRACK 08 AUDIO
TITLE "Space Orchid vs Massive Drumkit"
PERFORMER "The Grand Astoria"
INDEX 00 06:27:29
FILE "08. The Grand Astoria - Space Orchid vs Massive Drumkit.wav" WAVE
INDEX 01 00:00:00
TRACK 09 AUDIO
TITLE "Red Machine"
PERFORMER "Vespero"
INDEX 00 05:22:27
FILE "09. Vespero - Red Machine.wav" WAVE
INDEX 01 00:00:00
TRACK 10 AUDIO
TITLE "Thank You"
PERFORMER "J. Crist"
INDEX 00 07:59:62
FILE "10. J. Crist - Thank You.wav" WAVE
INDEX 01 00:00:00

Лог проверки качества

-----------------------
DON'T MODIFY THIS FILE
-----------------------
PERFORMER: auCDtect Task Manager, ver. 1.5.1RC6 build 1.5.1.7
Copyright (c) 2008-2010 y-soft. All rights reserved
http://y-soft.org
ANALYZER: auCDtect: CD records authenticity detector, version 0.8.2
Copyright (c) 2004 Oleg Berngardt. All rights reserved.
Copyright (c) 2004 Alexander Djourik. All rights reserved.
FILE: 10. J. Crist - Thank You.flac
Size: 32342140 Hash: 6DAC9B4BE6530752561AB2A1812269DC Accuracy: -m0
Conclusion: CDDA 99%
Signature: 0B2FDC1A19755C3E3C3140F63831B010EE2D5CE7
FILE: 09. Vespero - Red Machine.flac
Size: 50150264 Hash: 9E2AC04509902D790D3A8A8846F73C86 Accuracy: -m0
Conclusion: CDDA 100%
Signature: FF7FB50A9D191F70063486C03D0E720EBE253126
FILE: 08. The Grand Astoria - Space Orchid vs Massive Drumkit.flac
Size: 36591358 Hash: 64B9A29C8C5C0E94E96E1FCBEC36F59C Accuracy: -m0
Conclusion: CDDA 100%
Signature: 2905E39A8EAF7ACBD1BFB3CA97341BF7455B5971
FILE: 07. Franck Carducci - Alice's Eerie Dream.flac
Size: 46610372 Hash: 373129DF8B6954987A7B1AE42B7DEDA1 Accuracy: -m0
Conclusion: CDDA 100%
Signature: 6E93D9318E180CA059FD3AC261269B72F6D6EFEB
FILE: 06. Nosound - I Miss The Ground.flac
Size: 34106439 Hash: AFB2F1CF6136E659C47ABA092F2572FA Accuracy: -m0
Conclusion: CDDA 99%
Signature: 27ACF0714E5088E84CDA7F2A1816F74FCC6DFC45
FILE: 05. Luna Rossa - Gasp.flac
Size: 27563014 Hash: 7AB04F249889C714FCC14BE6EC8ADFFF Accuracy: -m0
Conclusion: CDDA 100%
Signature: ABD0E4CC5D6314376FE33BF36AC655A69DBAD580
FILE: 04. Days Between Stations - Eggshell Man.flac
Size: 81083275 Hash: B6EC62AEBA552C5DB28BB58FFFCEF22F Accuracy: -m0
Conclusion: CDDA 100%
Signature: CDA630B2AB0E3486EF0DC597CD6641BF4E3E0BF0
FILE: 03. The Tirith - The Daughter Of The Water.flac
Size: 53129103 Hash: CA3C23DAD0B080F37AE25C23D7DA165D Accuracy: -m0
Conclusion: CDDA 100%
Signature: EF460644EFEBD1FAEAC18A932F4A180D8B02ABEE
FILE: 02. Wisdom Of Crowds - Frozen North.flac
Size: 42477077 Hash: 7C94A4DFDEDD1F977F3E32B98EEFC043 Accuracy: -m0
Conclusion: CDDA 100%
Signature: D7BFD0BD81F72ADDFA066EE1D78F7F2625D94CA6
FILE: 01. Sound Of Contact - Pale Blue Dot.flac
Size: 31778008 Hash: 9C600E0D15CDCE79DD65239BD276B768 Accuracy: -m0
Conclusion: CDDA 100%
Signature: 25A3D04CF2D33E2A47F3234500AE9D78689E6E1F

Скриншот спектра частот

To download the file disable ad blocking, and reload the page.

disable adblock How to disable ad blocking?

Download by magnet link 418 MB Download Torrent

Login using:

Similar topics



   
Current time is: 20-Nov 14:16 :: All times are UTC + 3