Various Artists - Prog P13: The Spirit Of Radial
--Жанр: Progressive Rock
Носитель: CD
производитель диска: EU
Год издания: 2013
Издатель (лейбл): Future
Аудиокодек: FLAC (*.flac)
Тип рипа: tracks+.cue
Битрейт аудио: lossless
Продолжительность: 00:53:41
Источник: internet
Наличие сканов: да
Треклист:
01. Spock's Beard - Afterthoughts [00:06:10]
02. Motorpsycho - The Afterglow [00:05:57]
03. Grand General - The Fall Of Troy [00:06:32]
04. Vienna Circle - Ballad Of Night [00:06:34]
05. Blue Cartoon - Light Ages [00:06:33]
06. Nine Stones Close - A Secret [00:05:33]
07. Hedvig Mollestad Trio - Lake Acid [00:05:14]
08. Lee Demkiw - M [00:05:01]
09. Paul Menel - Liza, Don't Follow Him Home [00:06:03]

-

Лог создания рипа

Exact Audio Copy V1.0 beta 3 from 29. August 2011
EAC extraction logfile from 26. April 2013, 12:04
Various / Prog P13: The Spirit Of Radial
Used drive : TSSTcorpCDDVDW SH-224BB Adapter: 1 ID: 0
Read mode : Secure
Utilize accurate stream : Yes
Defeat audio cache : Yes
Make use of C2 pointers : No
Read offset correction : 6
Overread into Lead-In and Lead-Out : No
Fill up missing offset samples with silence : Yes
Delete leading and trailing silent blocks : No
Null samples used in CRC calculations : Yes
Used interface : Native Win32 interface for Win NT & 2000
Gap handling : Appended to previous track
Used output format : User Defined Encoder
Selected bitrate : 896 kBit/s
Quality : High
Add ID3 tag : No
Command line compressor : C:\Program Files (x86)\FLAC\flac.exe
Additional command line options : -8 -V -T "artist=%artist%" -T "albumartist=%albumartist%" -T "album=%albumtitle%" -T "title=%title%" -T "year=%year%" -T "tracknumber=%tracknr2%" -T "genre=%genre%" %source% -o %dest%
TOC of the extracted CD
Track | Start | Length | Start sector | End sector
---------------------------------------------------------
1 | 0:00.00 | 6:10.22 | 0 | 27771
2 | 6:10.22 | 5:57.73 | 27772 | 54619
3 | 12:08.20 | 6:32.19 | 54620 | 84038
4 | 18:40.39 | 6:34.63 | 84039 | 113651
5 | 25:15.27 | 6:33.17 | 113652 | 143143
6 | 31:48.44 | 5:33.13 | 143144 | 168131
7 | 37:21.57 | 5:14.26 | 168132 | 191707
8 | 42:36.08 | 5:01.33 | 191708 | 214315
9 | 47:37.41 | 6:03.57 | 214316 | 241597
10 | 56:13.23 | 4:53.61 | 252998 | 275033
Track 1
Filename F:\My Documents\My Music\Albums (Complete)\01. Spock's Beard - Afterthoughts.wav
Pre-gap length 0:00:02.00
Peak level 100.0 %
Extraction speed 1.8 X
Track quality 100.0 %
Test CRC 06866336
Copy CRC 06866336
Track not present in AccurateRip database
Copy OK
Track 2
Filename F:\My Documents\My Music\Albums (Complete)\02. Motorpsycho - The Afterglow.wav
Pre-gap length 0:00:01.37
Peak level 98.1 %
Extraction speed 2.1 X
Track quality 100.0 %
Test CRC 1D0942D8
Copy CRC 1D0942D8
Track not present in AccurateRip database
Copy OK
Track 3
Filename F:\My Documents\My Music\Albums (Complete)\03. Grand General - The Fall Of Troy.wav
Pre-gap length 0:00:01.37
Peak level 99.9 %
Extraction speed 4.3 X
Track quality 100.0 %
Test CRC C67ED9DD
Copy CRC C67ED9DD
Track not present in AccurateRip database
Copy OK
Track 4
Filename F:\My Documents\My Music\Albums (Complete)\04. Vienna Circle - Ballad Of Night.wav
Pre-gap length 0:00:01.37
Peak level 99.0 %
Extraction speed 2.6 X
Track quality 100.0 %
Test CRC 80B253B7
Copy CRC 80B253B7
Track not present in AccurateRip database
Copy OK
Track 5
Filename F:\My Documents\My Music\Albums (Complete)\05. Blue Cartoon - Light Ages.wav
Pre-gap length 0:00:01.37
Peak level 100.0 %
Extraction speed 2.9 X
Track quality 100.0 %
Test CRC C72C545B
Copy CRC C72C545B
Track not present in AccurateRip database
Copy OK
Track 6
Filename F:\My Documents\My Music\Albums (Complete)\06. Nine Stones Close - A Secret.wav
Pre-gap length 0:00:01.37
Peak level 100.0 %
Extraction speed 3.0 X
Track quality 100.0 %
Test CRC 12BBAFEF
Copy CRC 12BBAFEF
Track not present in AccurateRip database
Copy OK
Track 7
Filename F:\My Documents\My Music\Albums (Complete)\07. Hedvig Mollestad Trio - Lake Acid.wav
Pre-gap length 0:00:01.37
Peak level 97.8 %
Extraction speed 3.1 X
Track quality 100.0 %
Test CRC 1E140F44
Copy CRC 1E140F44
Track not present in AccurateRip database
Copy OK
Track 8
Filename F:\My Documents\My Music\Albums (Complete)\08. Lee Demkiw - M.wav
Pre-gap length 0:00:01.37
Peak level 100.0 %
Extraction speed 2.6 X
Track quality 99.9 %
Test CRC 6C949CD9
Copy CRC 6C949CD9
Track not present in AccurateRip database
Copy OK
Track 9
Filename F:\My Documents\My Music\Albums (Complete)\09. Paul Menel - Liza, Don't Follow Him Home.wav
Pre-gap length 0:00:01.37
Peak level 99.6 %
Extraction speed 3.5 X
Track quality 100.0 %
Test CRC 1899CF3F
Copy CRC 1899CF3F
Track not present in AccurateRip database
Copy OK
None of the tracks are present in the AccurateRip database
No errors occurred
End of status report
==== Log checksum 873882DF8139CB4D3653D89B195872BB5E0D630079E07D8B5EABC26716C026ED ====

Содержание индексной карты (.CUE)

REM GENRE "Progressive Rock"
REM DATE 2013
REM DISCID 800E530A
REM COMMENT "ExactAudioCopy v1.0b3"
PERFORMER "Various"
TITLE "Prog P13: The Spirit Of Radial"
FILE "01. Spock's Beard - Afterthoughts.wav" WAVE
TRACK 01 AUDIO
TITLE "Afterthoughts"
PERFORMER "Spock's Beard"
INDEX 01 00:00:00
TRACK 02 AUDIO
TITLE "The Afterglow"
PERFORMER "Motorpsycho"
INDEX 00 06:08:60
FILE "02. Motorpsycho - The Afterglow.wav" WAVE
INDEX 01 00:00:00
TRACK 03 AUDIO
TITLE "The Fall Of Troy"
PERFORMER "Grand General"
INDEX 00 05:56:36
FILE "03. Grand General - The Fall Of Troy.wav" WAVE
INDEX 01 00:00:00
TRACK 04 AUDIO
TITLE "Ballad Of Night"
PERFORMER "Vienna Circle"
INDEX 00 06:30:57
FILE "04. Vienna Circle - Ballad Of Night.wav" WAVE
INDEX 01 00:00:00
TRACK 05 AUDIO
TITLE "Light Ages"
PERFORMER "Blue Cartoon"
INDEX 00 06:33:26
FILE "05. Blue Cartoon - Light Ages.wav" WAVE
INDEX 01 00:00:00
TRACK 06 AUDIO
TITLE "A Secret"
PERFORMER "Nine Stones Close"
INDEX 00 06:31:55
FILE "06. Nine Stones Close - A Secret.wav" WAVE
INDEX 01 00:00:00
TRACK 07 AUDIO
TITLE "Lake Acid"
PERFORMER "Hedvig Mollestad Trio"
INDEX 00 05:31:51
FILE "07. Hedvig Mollestad Trio - Lake Acid.wav" WAVE
INDEX 01 00:00:00
TRACK 08 AUDIO
TITLE "M"
PERFORMER "Lee Demkiw"
INDEX 00 05:12:64
FILE "08. Lee Demkiw - M.wav" WAVE
INDEX 01 00:00:00
TRACK 09 AUDIO
TITLE "Liza, Don't Follow Him Home"
PERFORMER "Paul Menel"
INDEX 00 04:59:71
FILE "09. Paul Menel - Liza, Don't Follow Him Home.wav" WAVE
INDEX 01 00:00:00

Лог проверки качества

-----------------------
DON'T MODIFY THIS FILE
-----------------------
PERFORMER: auCDtect Task Manager, ver. 1.5.1RC6 build 1.5.1.7
Copyright (c) 2008-2010 y-soft. All rights reserved
http://y-soft.org
ANALYZER: auCDtect: CD records authenticity detector, version 0.8.2
Copyright (c) 2004 Oleg Berngardt. All rights reserved.
Copyright (c) 2004 Alexander Djourik. All rights reserved.
FILE: 09. Paul Menel - Liza, Don't Follow Him Home.flac
Size: 44176470 Hash: 41407FA59CFB5518B3F1736F9EE70E6A Accuracy: -m0
Conclusion: CDDA 100%
Signature: 52EC5A6866514024CD75C2599D6998BCE360A430
FILE: 08. Lee Demkiw - M.flac
Size: 28564831 Hash: 92CA04549BF4A1A48AFBB1CFB3B1AAD1 Accuracy: -m0
Conclusion: MPEG 95%
Signature: C7B6832E3BF65B9133C74687C630FDBF57158091
FILE: 07. Hedvig Mollestad Trio - Lake Acid.flac
Size: 32912768 Hash: D084BADBA0D1B3B543A7C549BDD9E1E5 Accuracy: -m0
Conclusion: CDDA 100%
Signature: CA4A1EE17D35311B61C3DEC25F5185B047B1BBDC
FILE: 06. Nine Stones Close - A Secret.flac
Size: 31209058 Hash: B90A21B56B813CA0A8D70818DD523F15 Accuracy: -m0
Conclusion: CDDA 100%
Signature: BC0651ECE19105DF6BD2F90E6188371CB373938D
FILE: 05. Blue Cartoon - Light Ages.flac
Size: 43550102 Hash: 57AF585D0DFCBB14B5622B35E85B1879 Accuracy: -m0
Conclusion: CDDA 100%
Signature: 8645CDEA50B522772FF11622BCF3472091E0325D
FILE: 04. Vienna Circle - Ballad Of Night.flac
Size: 42979362 Hash: 42B631A294181C71398D63AA71400998 Accuracy: -m0
Conclusion: CDDA 100%
Signature: 41A5D789307FDF6A8A6A482E70412D54997FF52C
FILE: 03. Grand General - The Fall Of Troy.flac
Size: 43572364 Hash: 5ADAFDF70BB434020D9F0C09A69380F3 Accuracy: -m0
Conclusion: CDDA 100%
Signature: 882B2E1F9054650BAE852EC737FB134566AFD2FB
FILE: 02. Motorpsycho - The Afterglow.flac
Size: 37948017 Hash: 52A8EC8D1DC7255738689901CFB447BB Accuracy: -m0
Conclusion: CDDA 100%
Signature: 4BFF0E4FAB259DA54B93BA9781C3AF19AA70A955
FILE: 01. Spock's Beard - Afterthoughts.flac
Size: 45619397 Hash: 0471F210D52ED0DD9502A636FC029D64 Accuracy: -m0
Conclusion: CDDA 100%
Signature: F5C5CF9835C508D2640533E3FF4894756AABFBA1

Скриншот спектра частот

To download the file disable ad blocking, and reload the page.

disable adblock How to disable ad blocking?

Download by magnet link 337 MB Download Torrent

Login using:

Similar topics



   
Current time is: 20-Sep 00:51 :: All times are UTC ± 0