Various Artists - Prog P11: Sailing Uncharted Seas
--Жанр: Progressive Rock
Носитель: CD
производитель диска: EU
Год издания: 2013
Издатель (лейбл): Future
Аудиокодек: FLAC (*.flac)
Тип рипа: tracks+.cue
Битрейт аудио: lossless
Продолжительность: 00:57:34
Источник: internet
Наличие сканов : да
Треклист:
01. Von Hertzen Brothers - Insomniac [00:03:58]
02. Sanguine Hum - From The Ground Up [00:05:38]
03. Amplifier - Matmos (Edit) [00:07:00]
04. Big Big Train - Curator Of Butterflies [00:08:46]
05. IOEarth - Home (Live) [00:06:58]
06. Gordon Giltrap and Oliver Wakeman - Moneyfacturing [00:04:12]
07. Gandalf's Fist - Clouds [00:09:20]
08. September Code - B4U [00:05:34]
09. Aeon Zen - Downfall [00:06:04]

-

Лог создания рипа

Exact Audio Copy V1.0 beta 3 from 29. August 2011
EAC extraction logfile from 26. April 2013, 11:18
Various / Prog P11: Sailing Uncharted Seas
Used drive : TSSTcorpCDDVDW SH-224BB Adapter: 1 ID: 0
Read mode : Secure
Utilize accurate stream : Yes
Defeat audio cache : Yes
Make use of C2 pointers : No
Read offset correction : 6
Overread into Lead-In and Lead-Out : No
Fill up missing offset samples with silence : Yes
Delete leading and trailing silent blocks : No
Null samples used in CRC calculations : Yes
Used interface : Native Win32 interface for Win NT & 2000
Gap handling : Appended to previous track
Used output format : User Defined Encoder
Selected bitrate : 896 kBit/s
Quality : High
Add ID3 tag : No
Command line compressor : C:\Program Files (x86)\FLAC\flac.exe
Additional command line options : -8 -V -T "artist=%artist%" -T "albumartist=%albumartist%" -T "album=%albumtitle%" -T "title=%title%" -T "year=%year%" -T "tracknumber=%tracknr2%" -T "genre=%genre%" %source% -o %dest%
TOC of the extracted CD
Track | Start | Length | Start sector | End sector
---------------------------------------------------------
1 | 0:00.00 | 3:58.29 | 0 | 17878
2 | 3:58.29 | 5:38.00 | 17879 | 43228
3 | 9:36.29 | 7:00.57 | 43229 | 74785
4 | 16:37.11 | 8:46.17 | 74786 | 114252
5 | 25:23.28 | 6:58.66 | 114253 | 145668
6 | 32:22.19 | 4:12.52 | 145669 | 164620
7 | 36:34.71 | 9:20.44 | 164621 | 206664
8 | 45:55.40 | 5:34.74 | 206665 | 231788
9 | 51:30.39 | 6:04.05 | 231789 | 259093
10 | 60:06.44 | 4:54.06 | 270494 | 292549
Track 1
Filename F:\My Documents\My Music\Albums (Complete)\01. Von Hertzen Brothers - Insomniac.wav
Pre-gap length 0:00:02.00
Peak level 98.2 %
Extraction speed 1.5 X
Track quality 99.9 %
Test CRC 30416D1C
Copy CRC 30416D1C
Accurately ripped (confidence 1) [DE0FD7FE] (AR v2)
Copy OK
Track 2
Filename F:\My Documents\My Music\Albums (Complete)\02. Sanguine Hum - From The Ground Up.wav
Peak level 100.0 %
Extraction speed 1.8 X
Track quality 99.9 %
Test CRC 4B6D694B
Copy CRC 4B6D694B
Accurately ripped (confidence 1) [CFC87221] (AR v2)
Copy OK
Track 3
Filename F:\My Documents\My Music\Albums (Complete)\03. Amplifier - Matmos (Edit).wav
Peak level 99.9 %
Extraction speed 2.3 X
Track quality 100.0 %
Test CRC 7E382971
Copy CRC 7E382971
Accurately ripped (confidence 1) [60A0D753] (AR v2)
Copy OK
Track 4
Filename F:\My Documents\My Music\Albums (Complete)\04. Big Big Train - Curator Of Butterflies.wav
Peak level 99.8 %
Extraction speed 2.4 X
Track quality 99.9 %
Test CRC 5CAC2D88
Copy CRC 5CAC2D88
Accurately ripped (confidence 1) [D22DEF4A] (AR v2)
Copy OK
Track 5
Filename F:\My Documents\My Music\Albums (Complete)\05. IOEarth - Home (Live).wav
Peak level 100.0 %
Extraction speed 2.9 X
Track quality 100.0 %
Test CRC F6C071F9
Copy CRC F6C071F9
Accurately ripped (confidence 1) [427194DA] (AR v2)
Copy OK
Track 6
Filename F:\My Documents\My Music\Albums (Complete)\06. Gordon Giltrap and Oliver Wakeman - Moneyfacturing.wav
Peak level 96.6 %
Extraction speed 2.9 X
Track quality 100.0 %
Test CRC 13BF29A0
Copy CRC 13BF29A0
Accurately ripped (confidence 1) [48C9D549] (AR v2)
Copy OK
Track 7
Filename F:\My Documents\My Music\Albums (Complete)\07. Gandalf's Fist - Clouds.wav
Peak level 96.6 %
Extraction speed 3.3 X
Track quality 100.0 %
Test CRC FA683FF8
Copy CRC FA683FF8
Accurately ripped (confidence 1) [3C22147F] (AR v2)
Copy OK
Track 8
Filename F:\My Documents\My Music\Albums (Complete)\08. September Code - B4U.wav
Peak level 100.0 %
Extraction speed 2.7 X
Track quality 99.9 %
Test CRC 3B89C885
Copy CRC 3B89C885
Accurately ripped (confidence 1) [8E4062BC] (AR v2)
Copy OK
Track 9
Filename F:\My Documents\My Music\Albums (Complete)\09. Aeon Zen - Downfall.wav
Peak level 99.4 %
Extraction speed 3.6 X
Track quality 100.0 %
Test CRC 820F6C5B
Copy CRC 820F6C5B
Accurately ripped (confidence 1) [E983AF93] (AR v2)
Copy OK
All tracks accurately ripped
No errors occurred
End of status report
==== Log checksum E8052EE218423375AE2FFF62374AF3199E567911E554747B3ABC632F68A80650 ====

Содержание индексной карты (.CUE)

REM GENRE "Progressive Rock"
REM DATE 2013
REM DISCID 9C0F3C0A
REM COMMENT "ExactAudioCopy v1.0b3"
PERFORMER "Various"
TITLE "Prog P11: Sailing Uncharted Seas"
FILE "01. Von Hertzen Brothers - Insomniac.wav" WAVE
TRACK 01 AUDIO
TITLE "Insomniac"
PERFORMER "Von Hertzen Brothers"
INDEX 01 00:00:00
FILE "02. Sanguine Hum - From The Ground Up.wav" WAVE
TRACK 02 AUDIO
TITLE "From The Ground Up"
PERFORMER "Sanguine Hum"
INDEX 01 00:00:00
FILE "03. Amplifier - Matmos (Edit).wav" WAVE
TRACK 03 AUDIO
TITLE "Matmos (Edit)"
PERFORMER "Amplifier"
INDEX 01 00:00:00
FILE "04. Big Big Train - Curator Of Butterflies.wav" WAVE
TRACK 04 AUDIO
TITLE "Curator Of Butterflies"
PERFORMER "Big Big Train"
INDEX 01 00:00:00
FILE "05. IOEarth - Home (Live).wav" WAVE
TRACK 05 AUDIO
TITLE "Home (Live)"
PERFORMER "IOEarth"
INDEX 01 00:00:00
FILE "06. Gordon Giltrap and Oliver Wakeman - Moneyfacturing.wav" WAVE
TRACK 06 AUDIO
TITLE "Moneyfacturing"
PERFORMER "Gordon Giltrap and Oliver Wakeman"
INDEX 01 00:00:00
FILE "07. Gandalf's Fist - Clouds.wav" WAVE
TRACK 07 AUDIO
TITLE "Clouds"
PERFORMER "Gandalf's Fist"
INDEX 01 00:00:00
FILE "08. September Code - B4U.wav" WAVE
TRACK 08 AUDIO
TITLE "B4U"
PERFORMER "September Code"
INDEX 01 00:00:00
FILE "09. Aeon Zen - Downfall.wav" WAVE
TRACK 09 AUDIO
TITLE "Downfall"
PERFORMER "Aeon Zen"
INDEX 01 00:00:00

Лог проверки качества

-----------------------
DON'T MODIFY THIS FILE
-----------------------
PERFORMER: auCDtect Task Manager, ver. 1.5.1RC6 build 1.5.1.7
Copyright (c) 2008-2010 y-soft. All rights reserved
http://y-soft.org
ANALYZER: auCDtect: CD records authenticity detector, version 0.8.2
Copyright (c) 2004 Oleg Berngardt. All rights reserved.
Copyright (c) 2004 Alexander Djourik. All rights reserved.
FILE: 01. Von Hertzen Brothers - Insomniac.flac
Size: 30897522 Hash: E7ABD31EB59360BBB435E988B639D7BE Accuracy: -m0
Conclusion: CDDA 100%
Signature: 1AB49E0C900B878BFCE9525E20E41F38E498CB53
FILE: 02. Sanguine Hum - From The Ground Up.flac
Size: 39529260 Hash: 2B8B519811A0F5D7EAA285106B59D382 Accuracy: -m0
Conclusion: CDDA 100%
Signature: 3A62CCE0450E1CCB3FB7B040CE0922678DD7CB6E
FILE: 03. Amplifier - Matmos (Edit).flac
Size: 44423703 Hash: 4BBCDE6C07FC9392336108345F72F59E Accuracy: -m0
Conclusion: CDDA 100%
Signature: 53C2A5E15C638E16B5452523F5696D514F064025
FILE: 04. Big Big Train - Curator Of Butterflies.flac
Size: 57853201 Hash: 162A717A9D9320CB92E2983615867116 Accuracy: -m0
Conclusion: CDDA 100%
Signature: 0C18E172AB7C248DCA78EE01FA5DB7181DC6AF51
FILE: 05. IOEarth - Home (Live).flac
Size: 47524316 Hash: 636C91F64E45C4E4A35E46E0EFAD9EF7 Accuracy: -m0
Conclusion: CDDA 100%
Signature: 66747C1123F312D8F6E77FAE5C63C019590FFFDF
FILE: 06. Gordon Giltrap and Oliver Wakeman - Moneyfacturing.flac
Size: 31760270 Hash: B698885FA4643230F1D5F6186EE70AD8 Accuracy: -m0
Conclusion: CDDA 100%
Signature: F7B9989B05C579043D52750712766269AC4513BC
FILE: 07. Gandalf's Fist - Clouds.flac
Size: 68051355 Hash: 2F8F2B6C0C19C0D642D5970FB380A214 Accuracy: -m0
Conclusion: CDDA 99%
Signature: CDBBD426414522E2A8778930F101DD4B3199BE60
FILE: 08. September Code - B4U.flac
Size: 38970168 Hash: 2AC58BF617049F06E61CEC99A7347DF6 Accuracy: -m0
Conclusion: CDDA 100%
Signature: 249ED4EE5EDF60055671988AB870268F7872132A
FILE: 09. Aeon Zen - Downfall.flac
Size: 40969620 Hash: 16F7B99D5FEB59A250A745705C60A6B3 Accuracy: -m0
Conclusion: CDDA 100%
Signature: 6DC46B36628CD7468111360C61809D2F85B4B053

Скриншот спектра частот

To download the file disable ad blocking, and reload the page.

disable adblock How to disable ad blocking?

Download by magnet link 384 MB Download Torrent

Login using:

Similar topics



   
Current time is: 20-Sep 01:44 :: All times are UTC ± 0