Various Artists - Prog P10: Tipplers Tales
--Жанр: Progressive Rock
Носитель: CD
производитель диска: EU
Год издания: 2013
Издатель (лейбл): Future
Аудиокодек: FLAC (*.flac)
Тип рипа: tracks+.cue
Битрейт аудио: lossless
Продолжительность: 01:15:18
Источник: internet
Наличие сканов: да
Треклист:
01. Steve Wilson - Luminol [00:12:10]
02. Riverside - Celebrity Touch [00:06:46]
03. Lifesigns - Carousel [00:08:24]
04. Heather Findlay - Half A World [00:04:51]
05. Kingbathmat - Behind The Wall [00:09:15]
06. Super Best Friends Club - Evolution [00:05:34]
07. Godsticks - Borderstomp, Part 1 [00:05:05]
08. Trioscapes - Blast Off [00:05:28]
09. Splashgirl - Dulcimer [00:05:05]
10. Myriad - Beyond The Realm, Part 2 [00:09:08]
11. The Muffins - In The Ghost Light (Edit) [00:03:28]

-

Лог создания рипа

Exact Audio Copy V1.0 beta 3 from 29. August 2011
EAC extraction logfile from 26. April 2013, 8:41
Various / Prog P10: Tipplers Tales
Used drive : TSSTcorpCDDVDW SH-224BB Adapter: 1 ID: 0
Read mode : Secure
Utilize accurate stream : Yes
Defeat audio cache : Yes
Make use of C2 pointers : No
Read offset correction : 6
Overread into Lead-In and Lead-Out : No
Fill up missing offset samples with silence : Yes
Delete leading and trailing silent blocks : No
Null samples used in CRC calculations : Yes
Used interface : Native Win32 interface for Win NT & 2000
Gap handling : Appended to previous track
Used output format : User Defined Encoder
Selected bitrate : 896 kBit/s
Quality : High
Add ID3 tag : No
Command line compressor : C:\Program Files (x86)\FLAC\flac.exe
Additional command line options : -8 -V -T "artist=%artist%" -T "albumartist=%albumartist%" -T "album=%albumtitle%" -T "title=%title%" -T "year=%year%" -T "tracknumber=%tracknr2%" -T "genre=%genre%" %source% -o %dest%
TOC of the extracted CD
Track | Start | Length | Start sector | End sector
---------------------------------------------------------
1 | 0:00.00 | 12:10.09 | 0 | 54758
2 | 12:10.09 | 6:46.25 | 54759 | 85233
3 | 18:56.34 | 8:24.00 | 85234 | 123033
4 | 27:20.34 | 4:51.09 | 123034 | 144867
5 | 32:11.43 | 9:15.74 | 144868 | 186566
6 | 41:27.42 | 5:34.05 | 186567 | 211621
7 | 47:01.47 | 5:05.36 | 211622 | 234532
8 | 52:07.08 | 5:28.59 | 234533 | 259191
9 | 57:35.67 | 5:05.09 | 259192 | 282075
10 | 62:41.01 | 9:08.52 | 282076 | 323227
11 | 71:49.53 | 3:28.71 | 323228 | 338898
Track 1
Filename F:\My Documents\My Music\Albums (Complete)\01. Steve Wilson - Luminol.wav
Pre-gap length 0:00:02.00
Peak level 99.6 %
Extraction speed 2.2 X
Track quality 100.0 %
Test CRC 6F018C1E
Copy CRC 6F018C1E
Accurately ripped (confidence 2) [B29EF42F] (AR v1)
Copy OK
Track 2
Filename F:\My Documents\My Music\Albums (Complete)\02. Riverside - Celebrity Touch.wav
Peak level 99.6 %
Extraction speed 2.3 X
Track quality 99.9 %
Test CRC BDA6AEBF
Copy CRC BDA6AEBF
Accurately ripped (confidence 2) [382D56EB] (AR v1)
Copy OK
Track 3
Filename F:\My Documents\My Music\Albums (Complete)\03. Lifesigns - Carousel.wav
Peak level 99.6 %
Extraction speed 2.6 X
Track quality 99.9 %
Test CRC A49BD80D
Copy CRC A49BD80D
Accurately ripped (confidence 2) [5A89289B] (AR v1)
Copy OK
Track 4
Filename F:\My Documents\My Music\Albums (Complete)\04. Heather Findlay - Half A World.wav
Peak level 99.6 %
Extraction speed 2.9 X
Track quality 100.0 %
Test CRC C6F069AA
Copy CRC C6F069AA
Accurately ripped (confidence 2) [66A87873] (AR v1)
Copy OK
Track 5
Filename F:\My Documents\My Music\Albums (Complete)\05. Kingbathmat - Behind The Wall.wav
Peak level 99.6 %
Extraction speed 3.3 X
Track quality 100.0 %
Test CRC FFA6159A
Copy CRC FFA6159A
Accurately ripped (confidence 2) [15A7FF20] (AR v1)
Copy OK
Track 6
Filename F:\My Documents\My Music\Albums (Complete)\06. Super Best Friends Club - Evolution.wav
Peak level 99.6 %
Extraction speed 3.4 X
Track quality 100.0 %
Test CRC 2F25975B
Copy CRC 2F25975B
Accurately ripped (confidence 2) [767340D1] (AR v1)
Copy OK
Track 7
Filename F:\My Documents\My Music\Albums (Complete)\07. Godsticks - Borderstomp, Part 1.wav
Peak level 99.6 %
Extraction speed 3.5 X
Track quality 100.0 %
Test CRC D77CA303
Copy CRC D77CA303
Accurately ripped (confidence 2) [39CD127A] (AR v1)
Copy OK
Track 8
Filename F:\My Documents\My Music\Albums (Complete)\08. Trioscapes - Blast Off.wav
Peak level 99.6 %
Extraction speed 3.7 X
Track quality 100.0 %
Test CRC ABB84FB2
Copy CRC ABB84FB2
Accurately ripped (confidence 2) [D5CEB309] (AR v1)
Copy OK
Track 9
Filename F:\My Documents\My Music\Albums (Complete)\09. Splashgirl - Dulcimer.wav
Peak level 99.6 %
Extraction speed 2.9 X
Track quality 99.9 %
Test CRC 89263289
Copy CRC 89263289
Accurately ripped (confidence 2) [0E7DD183] (AR v1)
Copy OK
Track 10
Filename F:\My Documents\My Music\Albums (Complete)\10. Myriad - Beyond The Realm, Part 2.wav
Peak level 99.6 %
Extraction speed 4.1 X
Track quality 100.0 %
Test CRC 992CF6E0
Copy CRC 992CF6E0
Accurately ripped (confidence 2) [9594C123] (AR v1)
Copy OK
Track 11
Filename F:\My Documents\My Music\Albums (Complete)\11. The Muffins - In The Ghost Light (Edit).wav
Peak level 99.6 %
Extraction speed 3.9 X
Track quality 100.0 %
Test CRC DF8CAE5C
Copy CRC DF8CAE5C
Accurately ripped (confidence 2) [4E380CF4] (AR v1)
Copy OK
All tracks accurately ripped
No errors occurred
End of status report
==== Log checksum 1D543D5B0ACA76DB78D89E7DC0D7A28019EBB52FA82D5503182DDB46E3F669FC ====

Содержание индексной карты (.CUE)

REM GENRE "Progressive Rock"
REM DATE 2013
REM DISCID 9C11A60B
REM COMMENT "ExactAudioCopy v1.0b3"
PERFORMER "Various"
TITLE "Prog P10: Tipplers Tales"
FILE "01. Steve Wilson - Luminol.wav" WAVE
TRACK 01 AUDIO
TITLE "Luminol"
PERFORMER "Steve Wilson"
INDEX 01 00:00:00
FILE "02. Riverside - Celebrity Touch.wav" WAVE
TRACK 02 AUDIO
TITLE "Celebrity Touch"
PERFORMER "Riverside"
INDEX 01 00:00:00
FILE "03. Lifesigns - Carousel.wav" WAVE
TRACK 03 AUDIO
TITLE "Carousel"
PERFORMER "Lifesigns"
INDEX 01 00:00:00
FILE "04. Heather Findlay - Half A World.wav" WAVE
TRACK 04 AUDIO
TITLE "Half A World"
PERFORMER "Heather Findlay"
INDEX 01 00:00:00
FILE "05. Kingbathmat - Behind The Wall.wav" WAVE
TRACK 05 AUDIO
TITLE "Behind The Wall"
PERFORMER "Kingbathmat"
INDEX 01 00:00:00
FILE "06. Super Best Friends Club - Evolution.wav" WAVE
TRACK 06 AUDIO
TITLE "Evolution"
PERFORMER "Super Best Friends Club"
INDEX 01 00:00:00
FILE "07. Godsticks - Borderstomp, Part 1.wav" WAVE
TRACK 07 AUDIO
TITLE "Borderstomp, Part 1"
PERFORMER "Godsticks"
INDEX 01 00:00:00
FILE "08. Trioscapes - Blast Off.wav" WAVE
TRACK 08 AUDIO
TITLE "Blast Off"
PERFORMER "Trioscapes"
INDEX 01 00:00:00
FILE "09. Splashgirl - Dulcimer.wav" WAVE
TRACK 09 AUDIO
TITLE "Dulcimer"
PERFORMER "Splashgirl"
INDEX 01 00:00:00
FILE "10. Myriad - Beyond The Realm, Part 2.wav" WAVE
TRACK 10 AUDIO
TITLE "Beyond The Realm, Part 2"
PERFORMER "Myriad"
INDEX 01 00:00:00
FILE "11. The Muffins - In The Ghost Light (Edit).wav" WAVE
TRACK 11 AUDIO
TITLE "In The Ghost Light (Edit)"
PERFORMER "The Muffins"
INDEX 01 00:00:00

Лог проверки качества

-----------------------
DON'T MODIFY THIS FILE
-----------------------
PERFORMER: auCDtect Task Manager, ver. 1.5.1RC6 build 1.5.1.7
Copyright (c) 2008-2010 y-soft. All rights reserved
http://y-soft.org
ANALYZER: auCDtect: CD records authenticity detector, version 0.8.2
Copyright (c) 2004 Oleg Berngardt. All rights reserved.
Copyright (c) 2004 Alexander Djourik. All rights reserved.
FILE: 01. Steve Wilson - Luminol.flac
Size: 78438537 Hash: 42B05391DC89D602DE9D361A75915EE6 Accuracy: -m0
Conclusion: CDDA 100%
Signature: 0C79B7100B13B55F04C6AFF82943FCC0767FF110
FILE: 02. Riverside - Celebrity Touch.flac
Size: 47075060 Hash: 5EC114E0D2D90940723DF167397E77F8 Accuracy: -m0
Conclusion: CDDA 99%
Signature: 4F7156731052C104A21B79436927FE56509E0F26
FILE: 03. Lifesigns - Carousel.flac
Size: 53287898 Hash: 7AA53A08A8224C03593A762829C68A41 Accuracy: -m0
Conclusion: CDDA 100%
Signature: 823FCDDED25D130F645ED2CC0BD4F9A4BD452E44
FILE: 04. Heather Findlay - Half A World.flac
Size: 28925846 Hash: F33381C005F291DE829FA160EFEFABFD Accuracy: -m0
Conclusion: CDDA 100%
Signature: 9D1E1C69F496DF19FDF1E55FF3EB6ACC3E8802ED
FILE: 05. Kingbathmat - Behind The Wall.flac
Size: 69234847 Hash: ABB5403315A74DF12C18E2F238CA265A Accuracy: -m0
Conclusion: CDDA 100%
Signature: 70C9AE87839861F99D7E20C47DD2FD1445CFC0EC
FILE: 06. Super Best Friends Club - Evolution.flac
Size: 38454577 Hash: 4D7AEFCA5754B38C5CA510A555271511 Accuracy: -m0
Conclusion: CDDA 99%
Signature: 80696A06C1AF6BBC4392F74A7919B4ADD9F3394B
FILE: 07. Godsticks - Borderstomp, Part 1.flac
Size: 38756850 Hash: 51C9A6F6F94F86E5364CD9CC5084DEAE Accuracy: -m0
Conclusion: CDDA 100%
Signature: 889315B67721B317B9A91F6C2A7672C6CACB1BD6
FILE: 08. Trioscapes - Blast Off.flac
Size: 41722308 Hash: ACE356B0B1993A866612A7F0553C47F2 Accuracy: -m0
Conclusion: CDDA 100%
Signature: E16E78D4EE4F76FD021AC6D7FA0812938B6C250F
FILE: 09. Splashgirl - Dulcimer.flac
Size: 25550085 Hash: EE5E9A199D709D4560BCAAC95060F60C Accuracy: -m0
Conclusion: CDDA 100%
Signature: B372CABE7FE58E4715FCFE44B9F6F3D3ED5CA386
FILE: 10. Myriad - Beyond The Realm, Part 2.flac
Size: 71149618 Hash: 4EEECC1DCDD2F0935D326D3867C0CABF Accuracy: -m0
Conclusion: CDDA 100%
Signature: 070B6F4C63FAF9DA9DAB74EEDD01DA505C5EEF94
FILE: 11. The Muffins - In The Ghost Light (Edit).flac
Size: 22312879 Hash: 93C6D9EF3FAAE36FD2782A62B6CD6538 Accuracy: -m0
Conclusion: CDDA 100%
Signature: 6AD167F744473CB54A647EE4E5E544CC35354ADA

Скриншот спектра частот

To download the file disable ad blocking, and reload the page.

disable adblock How to disable ad blocking?

Download by magnet link 494 MB Download Torrent

Login using:

Similar topics



   
Current time is: 15-Nov 23:45 :: All times are UTC + 3