Various Artists - Prog P9: Head Space
--Жанр: Progressive Rock
Носитель: CD
Страна-производитель диска: EU
Год издания: 2012
Аудиокодек: FLAC (*.flac)
Тип рипа: tracks+.cue
Битрейт аудио: lossless
Продолжительность: 01:14:15
Источник (релизер): internet
Наличие сканов: да
Треклист:
01. King Crimson - Easy Money (Alternative Edit) [00:07:25]
02. Kompendium - Exordium [00:07:36]
03. Alan Reed - Kingdom Of The Blind [00:05:12]
04. Dave Brock - It's Never Too Late [00:04:33]
05. Distorted Harmony - Blue [00:07:24]
06. IOEarth - Moments [00:08:35]
07. The Paul Menel Band - She's Up On The Chair Again (Live Version) [00:06:29]
08. Cailyn Lloyd - Nocturne [00:07:11]
09. The Treat - Lepers And Deities [00:03:31]
10. Lo-Fi Resistence - Chalk Lines [00:06:49]
11. Sumo Babies - Under Pegasus [00:04:51]
12. John Lawton and Diana Express - Fairytale [00:04:32]

-

Лог создания рипа

Exact Audio Copy V1.0 beta 3 from 29. August 2011
EAC extraction logfile from 25. April 2013, 8:20
Various / Prog P9: Head Space
Used drive : TSSTcorpCDDVDW SH-224BB Adapter: 1 ID: 1
Read mode : Secure
Utilize accurate stream : Yes
Defeat audio cache : Yes
Make use of C2 pointers : No
Read offset correction : 6
Overread into Lead-In and Lead-Out : No
Fill up missing offset samples with silence : Yes
Delete leading and trailing silent blocks : No
Null samples used in CRC calculations : Yes
Used interface : Native Win32 interface for Win NT & 2000
Gap handling : Appended to previous track
Used output format : User Defined Encoder
Selected bitrate : 896 kBit/s
Quality : High
Add ID3 tag : No
Command line compressor : C:\Program Files (x86)\FLAC\flac.exe
Additional command line options : -8 -V -T "artist=%artist%" -T "albumartist=%albumartist%" -T "album=%albumtitle%" -T "title=%title%" -T "year=%year%" -T "tracknumber=%tracknr2%" -T "genre=%genre%" %source% -o %dest%
TOC of the extracted CD
Track | Start | Length | Start sector | End sector
---------------------------------------------------------
1 | 0:00.00 | 7:25.46 | 0 | 33420
2 | 7:25.46 | 7:36.65 | 33421 | 67685
3 | 15:02.36 | 5:12.59 | 67686 | 91144
4 | 20:15.20 | 4:33.70 | 91145 | 111689
5 | 24:49.15 | 7:24.01 | 111690 | 144990
6 | 32:13.16 | 8:35.44 | 144991 | 183659
7 | 40:48.60 | 6:29.27 | 183660 | 212861
8 | 47:18.12 | 7:11.62 | 212862 | 245248
9 | 54:29.74 | 3:31.74 | 245249 | 261147
10 | 58:01.73 | 6:49.44 | 261148 | 291866
11 | 64:51.42 | 4:51.51 | 291867 | 313742
12 | 69:43.18 | 4:32.19 | 313743 | 334161
Track 1
Filename F:\My Documents\My Music\Albums (Complete)\01. King Crimson - Easy Money (Alternative Edit).wav
Pre-gap length 0:00:02.00
Peak level 99.6 %
Extraction speed 2.0 X
Track quality 100.0 %
Test CRC A0F5262B
Copy CRC A0F5262B
Accurately ripped (confidence 2) [38405464] (AR v1)
Copy OK
Track 2
Filename F:\My Documents\My Music\Albums (Complete)\02. Kompendium - Exordium.wav
Peak level 99.6 %
Extraction speed 2.4 X
Track quality 100.0 %
Test CRC F24A97D8
Copy CRC F24A97D8
Accurately ripped (confidence 2) [B56F42F2] (AR v1)
Copy OK
Track 3
Filename F:\My Documents\My Music\Albums (Complete)\03. Alan Reed - Kingdom Of The Blind.wav
Peak level 99.6 %
Extraction speed 2.5 X
Track quality 100.0 %
Test CRC B5E6FE41
Copy CRC B5E6FE41
Accurately ripped (confidence 2) [BB74C138] (AR v1)
Copy OK
Track 4
Filename F:\My Documents\My Music\Albums (Complete)\04. Dave Brock - It's Never Too Late.wav
Peak level 99.6 %
Extraction speed 2.7 X
Track quality 100.0 %
Test CRC 8BFDA02A
Copy CRC 8BFDA02A
Accurately ripped (confidence 2) [7DFAE10E] (AR v1)
Copy OK
Track 5
Filename F:\My Documents\My Music\Albums (Complete)\05. Distorted Harmony - Blue.wav
Peak level 99.6 %
Extraction speed 3.0 X
Track quality 100.0 %
Test CRC 5DB1E844
Copy CRC 5DB1E844
Accurately ripped (confidence 2) [9C0DCD2A] (AR v1)
Copy OK
Track 6
Filename F:\My Documents\My Music\Albums (Complete)\06. IOEarth - Moments.wav
Peak level 99.6 %
Extraction speed 2.9 X
Track quality 99.9 %
Test CRC 5D992616
Copy CRC 5D992616
Accurately ripped (confidence 2) [E5841D62] (AR v1)
Copy OK
Track 7
Filename F:\My Documents\My Music\Albums (Complete)\07. The Paul Menel Band - She's Up On The Chair Again (Live Version).wav
Peak level 99.6 %
Extraction speed 3.4 X
Track quality 100.0 %
Test CRC 21740799
Copy CRC 21740799
Accurately ripped (confidence 2) [AA01BF19] (AR v1)
Copy OK
Track 8
Filename F:\My Documents\My Music\Albums (Complete)\08. Cailyn Lloyd - Nocturne.wav
Peak level 99.6 %
Extraction speed 3.7 X
Track quality 100.0 %
Test CRC 8143E027
Copy CRC 8143E027
Accurately ripped (confidence 2) [F86772D3] (AR v1)
Copy OK
Track 9
Filename F:\My Documents\My Music\Albums (Complete)\09. The Treat - Lepers And Deities.wav
Peak level 99.6 %
Extraction speed 3.5 X
Track quality 100.0 %
Test CRC CED01A12
Copy CRC CED01A12
Accurately ripped (confidence 2) [452706C1] (AR v1)
Copy OK
Track 10
Filename F:\My Documents\My Music\Albums (Complete)\10. Lo-Fi Resistence - Chalk Lines.wav
Peak level 99.6 %
Extraction speed 3.9 X
Track quality 100.0 %
Test CRC 6F0BD67C
Copy CRC 6F0BD67C
Accurately ripped (confidence 2) [50D8AACF] (AR v1)
Copy OK
Track 11
Filename F:\My Documents\My Music\Albums (Complete)\11. Sumo Babies - Under Pegasus.wav
Peak level 99.6 %
Extraction speed 2.6 X
Track quality 100.0 %
Test CRC 7B38DE4A
Copy CRC 7B38DE4A
Accurately ripped (confidence 2) [9E7D80D8] (AR v1)
Copy OK
Track 12
Filename F:\My Documents\My Music\Albums (Complete)\12. John Lawton and Diana Express - Fairytale.wav
Peak level 99.6 %
Extraction speed 2.9 X
Track quality 99.9 %
Test CRC 39E5059C
Copy CRC 39E5059C
Accurately ripped (confidence 2) [2B6DAFF8] (AR v1)
Copy OK
All tracks accurately ripped
No errors occurred
End of status report
==== Log checksum D24137864184A62BB7CAAF7F2707CD18D095724C5969B78D1BA67EE5FD809C1E ====

Содержание индексной карты (.CUE)

REM GENRE "Progressive Rock"
REM DATE 2012
REM DISCID AB11670C
REM COMMENT "ExactAudioCopy v1.0b3"
PERFORMER "Various"
TITLE "Prog P9: Head Space"
FILE "01. King Crimson - Easy Money (Alternative Edit).wav" WAVE
TRACK 01 AUDIO
TITLE "Easy Money (Alternative Edit)"
PERFORMER "King Crimson"
INDEX 01 00:00:00
FILE "02. Kompendium - Exordium.wav" WAVE
TRACK 02 AUDIO
TITLE "Exordium"
PERFORMER "Kompendium"
INDEX 01 00:00:00
FILE "03. Alan Reed - Kingdom Of The Blind.wav" WAVE
TRACK 03 AUDIO
TITLE "Kingdom Of The Blind"
PERFORMER "Alan Reed"
INDEX 01 00:00:00
FILE "04. Dave Brock - It's Never Too Late.wav" WAVE
TRACK 04 AUDIO
TITLE "It's Never Too Late"
PERFORMER "Dave Brock"
INDEX 01 00:00:00
FILE "05. Distorted Harmony - Blue.wav" WAVE
TRACK 05 AUDIO
TITLE "Blue"
PERFORMER "Distorted Harmony"
INDEX 01 00:00:00
FILE "06. IOEarth - Moments.wav" WAVE
TRACK 06 AUDIO
TITLE "Moments"
PERFORMER "IOEarth"
INDEX 01 00:00:00
FILE "07. The Paul Menel Band - She's Up On The Chair Again (Live Version).wav" WAVE
TRACK 07 AUDIO
TITLE "She's Up On The Chair Again (Live Version)"
PERFORMER "The Paul Menel Band"
INDEX 01 00:00:00
FILE "08. Cailyn Lloyd - Nocturne.wav" WAVE
TRACK 08 AUDIO
TITLE "Nocturne"
PERFORMER "Cailyn Lloyd"
INDEX 01 00:00:00
FILE "09. The Treat - Lepers And Deities.wav" WAVE
TRACK 09 AUDIO
TITLE "Lepers And Deities"
PERFORMER "The Treat"
INDEX 01 00:00:00
FILE "10. Lo-Fi Resistence - Chalk Lines.wav" WAVE
TRACK 10 AUDIO
TITLE "Chalk Lines"
PERFORMER "Lo-Fi Resistence"
INDEX 01 00:00:00
FILE "11. Sumo Babies - Under Pegasus.wav" WAVE
TRACK 11 AUDIO
TITLE "Under Pegasus"
PERFORMER "Sumo Babies"
INDEX 01 00:00:00
FILE "12. John Lawton and Diana Express - Fairytale.wav" WAVE
TRACK 12 AUDIO
TITLE "Fairytale"
PERFORMER "John Lawton and Diana Express"
INDEX 01 00:00:00

Лог проверки качества

-----------------------
DON'T MODIFY THIS FILE
-----------------------
PERFORMER: auCDtect Task Manager, ver. 1.5.1RC6 build 1.5.1.7
Copyright (c) 2008-2010 y-soft. All rights reserved
http://y-soft.org
ANALYZER: auCDtect: CD records authenticity detector, version 0.8.2
Copyright (c) 2004 Oleg Berngardt. All rights reserved.
Copyright (c) 2004 Alexander Djourik. All rights reserved.
FILE: 01. King Crimson - Easy Money (Alternative Edit).flac
Size: 51555477 Hash: 0415A090AD2B971C253001AE6C9084F3 Accuracy: -m0
Conclusion: CDDA 100%
Signature: F5701305720F72CFFE1603257D65B389250CFF47
FILE: 02. Kompendium - Exordium.flac
Size: 53157639 Hash: E17FB0B55E76A8A913941F91713E3AC6 Accuracy: -m0
Conclusion: CDDA 100%
Signature: 86937E523968F43BEC4F899DC3DA84191F095E7E
FILE: 03. Alan Reed - Kingdom Of The Blind.flac
Size: 38678374 Hash: 998CD12164C5309B327685A8597ABA45 Accuracy: -m0
Conclusion: CDDA 100%
Signature: 78617919C1A7D328766269F4E9C7C45D3AC1B934
FILE: 04. Dave Brock - It's Never Too Late.flac
Size: 29569356 Hash: 5452585900B34112323A3C4B5D87E2EF Accuracy: -m0
Conclusion: CDDA 100%
Signature: 68961B4C0BD24D4380A323CDACE078374C291896
FILE: 05. Distorted Harmony - Blue.flac
Size: 55539869 Hash: 15B70EB24BA217F1821E2B7CC610D03C Accuracy: -m0
Conclusion: CDDA 100%
Signature: 0D477E58EE9F213FDF49340603C8EE87101B2CB0
FILE: 06. IOEarth - Moments.flac
Size: 56985026 Hash: 232137F8F924E30F157F996D0670CD60 Accuracy: -m0
Conclusion: CDDA 100%
Signature: 060D1D3F894E26C725E6AE3FF28212534AC5263B
FILE: 07. The Paul Menel Band - She's Up On The Chair Again (Live Version).flac
Size: 42194769 Hash: D40A69C1B0AD05B5CD9331375500DD08 Accuracy: -m0
Conclusion: CDDA 100%
Signature: B2BF0B5461228E271E715E40515576CE0526C9AC
FILE: 08. Cailyn Lloyd - Nocturne.flac
Size: 44293644 Hash: 7FBF46C3A32E974F7CF64E6382316C13 Accuracy: -m0
Conclusion: CDDA 100%
Signature: 7C4734C0A9602F9290D247BCED3E7435628B9E42
FILE: 09. The Treat - Lepers And Deities.flac
Size: 26368868 Hash: D017ADBCCFAEB4CF2A5A694479DBC73D Accuracy: -m0
Conclusion: CDDA 100%
Signature: 8170280EA476B6CFE705DEA76EF622C35E60184D
FILE: 10. Lo-Fi Resistence - Chalk Lines.flac
Size: 50901577 Hash: 7C37C1A04AE26D7E37D4219D4A7CB634 Accuracy: -m0
Conclusion: CDDA 100%
Signature: 8F7430EF6F5B0A1C2DED18ECE6BD15E4B239730A
FILE: 11. Sumo Babies - Under Pegasus.flac
Size: 33847586 Hash: EA86D7234BDE2070373ECD25FD085FA6 Accuracy: -m0
Conclusion: MPEG 95%
Signature: 7B2CB5B48E2ABF32E34A10270CA17291D65AA1E6
FILE: 12. John Lawton and Diana Express - Fairytale.flac
Size: 29212498 Hash: 8EC211035E0521C055D4379A7EC11501 Accuracy: -m0
Conclusion: MPEG 95%
Signature: 9A3F9BADE5825E2EE0E2FAC5A2399816C19B763B

Скриншот спектра частот

To download the file disable ad blocking, and reload the page.

disable adblock How to disable ad blocking?

Download by magnet link 491 MB Download Torrent

Login using:

Similar topics



   
Current time is: 18-Sep 17:46 :: All times are UTC ± 0