Various Artists - Prog P8: Take The Long Way Home
--Жанр: Progressive Rock
Носитель: CD
производитель диска: EU
Год издания: 2012
Издатель (лейбл): Future
Аудиокодек: FLAC (*.flac)
Тип рипа: tracks+.cue
Битрейт аудио: lossless
Продолжительность: 01:03:21
Источник: internet
Наличие сканов: да
Треклист:
01. Steve Hackett - Chamber Of 32 Doors [00:06:00]
02. Mostly Autumn - Tennyson Mansion [00:07:08]
03. Kosmoratik - Years Ago, Miles Apart [00:04:40]
04. Tusmørke - The Quintessence Of Elements [00:06:00]
05. Elephants - The Riddler [00:06:13]
06. Panzerpapper - Ugler I Moseboka [00:07:39]
07. Naked Truth - Dust [00:07:39]
08. Paatos - Into The Flames [00:04:48]
09. Rian Adkinson - Cut Throat [00:04:48]
10. David Barron Band - A Place In Your Memory [00:04:32]
11. Heaven's Cry - Compass [00:03:49]
-

Лог создания рипа

Exact Audio Copy V1.0 beta 3 from 29. August 2011
EAC extraction logfile from 24. April 2013, 22:31
Various / Prog P8: Take The Long Way Home
Used drive : TSSTcorpCDDVDW SH-224BB Adapter: 1 ID: 0
Read mode : Secure
Utilize accurate stream : Yes
Defeat audio cache : Yes
Make use of C2 pointers : No
Read offset correction : 6
Overread into Lead-In and Lead-Out : No
Fill up missing offset samples with silence : Yes
Delete leading and trailing silent blocks : No
Null samples used in CRC calculations : Yes
Used interface : Native Win32 interface for Win NT & 2000
Gap handling : Appended to previous track
Used output format : User Defined Encoder
Selected bitrate : 896 kBit/s
Quality : High
Add ID3 tag : No
Command line compressor : C:\Program Files (x86)\FLAC\flac.exe
Additional command line options : -8 -V -T "artist=%artist%" -T "albumartist=%albumartist%" -T "album=%albumtitle%" -T "title=%title%" -T "year=%year%" -T "tracknumber=%tracknr2%" -T "genre=%genre%" %source% -o %dest%
TOC of the extracted CD
Track | Start | Length | Start sector | End sector
---------------------------------------------------------
1 | 0:00.00 | 6:00.18 | 0 | 27017
2 | 6:00.18 | 7:08.27 | 27018 | 59144
3 | 13:08.45 | 4:40.58 | 59145 | 80202
4 | 17:49.28 | 6:00.45 | 80203 | 107247
5 | 23:49.73 | 6:13.20 | 107248 | 135242
6 | 30:03.18 | 7:39.26 | 135243 | 169693
7 | 37:42.44 | 7:39.49 | 169694 | 204167
8 | 45:22.18 | 4:48.34 | 204168 | 225801
9 | 50:10.52 | 4:48.74 | 225802 | 247475
10 | 54:59.51 | 4:32.03 | 247476 | 267878
11 | 59:31.54 | 3:49.51 | 267879 | 285104
Track 1
Filename F:\My Documents\My Music\Albums (Complete)\01. Steve Hackett - Chamber Of 32 Doors.wav
Pre-gap length 0:00:02.00
Peak level 94.3 %
Extraction speed 1.9 X
Track quality 100.0 %
Test CRC A5ABCBDF
Copy CRC A5ABCBDF
Track not present in AccurateRip database
Copy OK
Track 2
Filename F:\My Documents\My Music\Albums (Complete)\02. Mostly Autumn - Tennyson Mansion.wav
Pre-gap length 0:00:02.00
Peak level 94.8 %
Extraction speed 2.2 X
Track quality 100.0 %
Test CRC D61331E6
Copy CRC D61331E6
Track not present in AccurateRip database
Copy OK
Track 3
Filename F:\My Documents\My Music\Albums (Complete)\03. Kosmoratik - Years Ago, Miles Apart.wav
Pre-gap length 0:00:02.00
Peak level 91.2 %
Extraction speed 2.3 X
Track quality 100.0 %
Test CRC AEA2E443
Copy CRC AEA2E443
Track not present in AccurateRip database
Copy OK
Track 4
Filename F:\My Documents\My Music\Albums (Complete)\04. Tusmørke - The Quintessence Of Elements.wav
Pre-gap length 0:00:02.00
Peak level 98.8 %
Extraction speed 2.6 X
Track quality 100.0 %
Test CRC 32931D19
Copy CRC 32931D19
Track not present in AccurateRip database
Copy OK
Track 5
Filename F:\My Documents\My Music\Albums (Complete)\05. Elephants - The Riddler.wav
Pre-gap length 0:00:02.00
Peak level 96.6 %
Extraction speed 2.8 X
Track quality 100.0 %
Test CRC F0F6310E
Copy CRC F0F6310E
Track not present in AccurateRip database
Copy OK
Track 6
Filename F:\My Documents\My Music\Albums (Complete)\06. Panzerpapper - Ugler I Moseboka.wav
Pre-gap length 0:00:02.00
Peak level 94.3 %
Extraction speed 3.1 X
Track quality 100.0 %
Test CRC 5B60C04F
Copy CRC 5B60C04F
Track not present in AccurateRip database
Copy OK
Track 7
Filename F:\My Documents\My Music\Albums (Complete)\07. Naked Truth - Dust.wav
Pre-gap length 0:00:02.00
Peak level 100.0 %
Extraction speed 3.3 X
Track quality 100.0 %
Test CRC 8A7BC743
Copy CRC 8A7BC743
Track not present in AccurateRip database
Copy OK
Track 8
Filename F:\My Documents\My Music\Albums (Complete)\08. Paatos - Into The Flames.wav
Pre-gap length 0:00:02.00
Peak level 98.6 %
Extraction speed 3.3 X
Track quality 100.0 %
Test CRC 9D9058D0
Copy CRC 9D9058D0
Track not present in AccurateRip database
Copy OK
Track 9
Filename F:\My Documents\My Music\Albums (Complete)\09. Rian Adkinson - Cut Throat.wav
Pre-gap length 0:00:02.00
Peak level 100.0 %
Extraction speed 3.4 X
Track quality 100.0 %
Test CRC 3C7E5B45
Copy CRC 3C7E5B45
Track not present in AccurateRip database
Copy OK
Track 10
Filename F:\My Documents\My Music\Albums (Complete)\10. David Barron Band - A Place In Your Memory.wav
Pre-gap length 0:00:02.00
Peak level 100.0 %
Extraction speed 3.5 X
Track quality 100.0 %
Test CRC DF01A079
Copy CRC DF01A079
Track not present in AccurateRip database
Copy OK
Track 11
Filename F:\My Documents\My Music\Albums (Complete)\11. Heaven's Cry - Compass.wav
Pre-gap length 0:00:02.00
Peak level 98.8 %
Extraction speed 3.5 X
Track quality 100.0 %
Test CRC C4118553
Copy CRC C4118553
Track not present in AccurateRip database
Copy OK
None of the tracks are present in the AccurateRip database
No errors occurred
End of status report
==== Log checksum 42A5D461A3859A22D2B2EF5A7A164B1FE02CDB93A8E303E204D17D3385A94ECE ====

Содержание индексной карты (.CUE)

REM GENRE "Progressive Rock"
REM DATE 2012
REM DISCID 790ED90B
REM COMMENT "ExactAudioCopy v1.0b3"
PERFORMER "Various"
TITLE "Prog P8: Take The Long Way Home"
FILE "01. Steve Hackett - Chamber Of 32 Doors.wav" WAVE
TRACK 01 AUDIO
TITLE "Chamber Of 32 Doors"
PERFORMER "Steve Hackett"
INDEX 01 00:00:00
TRACK 02 AUDIO
TITLE "Tennyson Mansion"
PERFORMER "Mostly Autumn"
INDEX 00 05:58:18
FILE "02. Mostly Autumn - Tennyson Mansion.wav" WAVE
INDEX 01 00:00:00
TRACK 03 AUDIO
TITLE "Years Ago, Miles Apart"
PERFORMER "Kosmoratik"
INDEX 00 07:06:27
FILE "03. Kosmoratik - Years Ago, Miles Apart.wav" WAVE
INDEX 01 00:00:00
TRACK 04 AUDIO
TITLE "The Quintessence Of Elements"
PERFORMER "Tusmшrke"
INDEX 00 04:38:58
FILE "04. Tusmшrke - The Quintessence Of Elements.wav" WAVE
INDEX 01 00:00:00
TRACK 05 AUDIO
TITLE "The Riddler"
PERFORMER "Elephants"
INDEX 00 05:58:45
FILE "05. Elephants - The Riddler.wav" WAVE
INDEX 01 00:00:00
TRACK 06 AUDIO
TITLE "Ugler I Moseboka"
PERFORMER "Panzerpapper"
INDEX 00 06:11:20
FILE "06. Panzerpapper - Ugler I Moseboka.wav" WAVE
INDEX 01 00:00:00
TRACK 07 AUDIO
TITLE "Dust"
PERFORMER "Naked Truth"
INDEX 00 07:37:26
FILE "07. Naked Truth - Dust.wav" WAVE
INDEX 01 00:00:00
TRACK 08 AUDIO
TITLE "Into The Flames"
PERFORMER "Paatos"
INDEX 00 07:37:49
FILE "08. Paatos - Into The Flames.wav" WAVE
INDEX 01 00:00:00
TRACK 09 AUDIO
TITLE "Cut Throat"
PERFORMER "Rian Adkinson"
INDEX 00 04:46:34
FILE "09. Rian Adkinson - Cut Throat.wav" WAVE
INDEX 01 00:00:00
TRACK 10 AUDIO
TITLE "A Place In Your Memory"
PERFORMER "David Barron Band"
INDEX 00 04:46:74
FILE "10. David Barron Band - A Place In Your Memory.wav" WAVE
INDEX 01 00:00:00
TRACK 11 AUDIO
TITLE "Compass"
PERFORMER "Heaven's Cry"
INDEX 00 04:30:03
FILE "11. Heaven's Cry - Compass.wav" WAVE
INDEX 01 00:00:00

Лог проверки качества

-----------------------
DON'T MODIFY THIS FILE
-----------------------
PERFORMER: auCDtect Task Manager, ver. 1.5.1RC6 build 1.5.1.7
Copyright (c) 2008-2010 y-soft. All rights reserved
http://y-soft.org
ANALYZER: auCDtect: CD records authenticity detector, version 0.8.2
Copyright (c) 2004 Oleg Berngardt. All rights reserved.
Copyright (c) 2004 Alexander Djourik. All rights reserved.
FILE: 01. Steve Hackett - Chamber Of 32 Doors.flac
Size: 34927130 Hash: 4DFB6E169A6EB33C88533102B61AC36E Accuracy: -m0
Conclusion: CDDA 100%
Signature: A1FAD5A34FF8349B9B17ACCB0F787E19CFBAA366
FILE: 02. Mostly Autumn - Tennyson Mansion.flac
Size: 45281470 Hash: 11E337775F4291C607D8C67E30CEC8DA Accuracy: -m0
Conclusion: CDDA 100%
Signature: 01BC613457DBC9C72C98424C48317EA619B8CAE7
FILE: 03. Kosmoratik - Years Ago, Miles Apart.flac
Size: 30972048 Hash: 4494CC7745D194B05059F1251E436CEE Accuracy: -m0
Conclusion: CDDA 100%
Signature: 0D0536F6847CABD170CB7EB67FA5AA9A365F7A1E
FILE: 04. Tusmørke - The Quintessence Of Elements.flac
Size: 41986697 Hash: 668592F4E2493D2827ED044D4EA6A23A Accuracy: -m0
Conclusion: CDDA 100%
Signature: C1D80216CAD9227379FA98B4194414748D6621E5
FILE: 05. Elephants - The Riddler.flac
Size: 43145351 Hash: B5BB9D48280348BE241DA43EFFA07189 Accuracy: -m0
Conclusion: CDDA 99%
Signature: 0B11781B2CA54588A3ACD4EBE2025DCABA37CCB2
FILE: 06. Panzerpapper - Ugler I Moseboka.flac
Size: 48134026 Hash: 626F481F963018B1498FAF66CD9FC819 Accuracy: -m0
Conclusion: CDDA 100%
Signature: 77F6903BA18948A0DF842D9B04F1BA69D8190FE3
FILE: 07. Naked Truth - Dust.flac
Size: 57837860 Hash: CD748100457BB3A7E50F74BAC6958C70 Accuracy: -m0
Conclusion: CDDA 100%
Signature: A44F1707DF08A82337355C6B478E371572759BB7
FILE: 08. Paatos - Into The Flames.flac
Size: 33975342 Hash: 1F60608025F91CE625142111D3F198DA Accuracy: -m0
Conclusion: CDDA 100%
Signature: F29FDFD7FE6FABB22F75DFEEE148A6BD802576F8
FILE: 09. Rian Adkinson - Cut Throat.flac
Size: 32266268 Hash: FC9C328DC540DA8183CA37217A734F2A Accuracy: -m0
Conclusion: MPEG 95%
Signature: 7E6CEFD46555E637C6F14D6792EAB8145A725EFF
FILE: 10. David Barron Band - A Place In Your Memory.flac
Size: 30386920 Hash: 0BD2853CBF958789F5160E7966C27335 Accuracy: -m0
Conclusion: CDDA 99%
Signature: 7AA3AC53FCA2CA66F93CA41E255F1F508B1233DA
FILE: 11. Heaven's Cry - Compass.flac
Size: 29188963 Hash: D7B37873D505BE675C5B6AEF929A67AC Accuracy: -m0
Conclusion: CDDA 100%
Signature: A36FFFA29C2A71B0118BB4016659932D754FD523

Скриншот спектра частот

To download the file disable ad blocking, and reload the page.

disable adblock How to disable ad blocking?

Download by magnet link 412 MB Download Torrent

Login using:

Similar topics



   
Current time is: 20-Nov 15:31 :: All times are UTC + 3