Various Artists - Prog P7: Cod Bluff
-Жанр: Progressive Rock
Носитель: CD
производитель диска: EU
Год издания: 2012
Издатель (лейбл): Future
Аудиокодек: FLAC (*.flac)
Тип рипа: tracks+.cue
Битрейт аудио: lossless
Продолжительность: 01:12:58
Источник: internet
Наличие сканов: да
Треклист:
01. Marillion - Gaza [00:17:25]
02. The Reasoning - Hyperdrive [00:05:37]
03. Threshold - Ashes (Single Version) [00:04:59]
04. District 97 - Read Your Mind [00:07:30]
05. Between The Buried And Me - Telos [00:09:47]
06. Jadis - Try My Behaviour [00:06:57]
07. Neal Morse - Weathering Sky [00:04:17]
08. Plastic Overlords - You Crumble To Bits [00:03:42]
09. Grice - Highly String [00:04:13]
10. Rhys Marsh and The Autumn Ghost - Wooden Heart [00:03:25]
11. Jack Arthurs - Missing [00:05:00]

-

Лог создания рипа

Exact Audio Copy V1.0 beta 3 from 29. August 2011
EAC extraction logfile from 4. May 2013, 14:41
Various Artists / Prog - P7: Cod Bluff
Used drive : TSSTcorpCDDVDW SH-224BB Adapter: 1 ID: 0
Read mode : Secure
Utilize accurate stream : Yes
Defeat audio cache : Yes
Make use of C2 pointers : No
Read offset correction : 6
Overread into Lead-In and Lead-Out : No
Fill up missing offset samples with silence : Yes
Delete leading and trailing silent blocks : No
Null samples used in CRC calculations : Yes
Used interface : Native Win32 interface for Win NT & 2000
Gap handling : Appended to previous track
Used output format : User Defined Encoder
Selected bitrate : 896 kBit/s
Quality : High
Add ID3 tag : No
Command line compressor : C:\Program Files (x86)\FLAC\flac.exe
Additional command line options : -8 -V -T "artist=%artist%" -T "albumartist=%albumartist%" -T "album=%albumtitle%" -T "title=%title%" -T "year=%year%" -T "tracknumber=%tracknr2%" -T "genre=%genre%" %source% -o %dest%
TOC of the extracted CD
Track | Start | Length | Start sector | End sector
---------------------------------------------------------
1 | 0:00.00 | 17:25.56 | 0 | 78430
2 | 17:25.56 | 5:37.59 | 78431 | 103764
3 | 23:03.40 | 4:59.12 | 103765 | 126201
4 | 28:02.52 | 7:30.74 | 126202 | 160025
5 | 35:33.51 | 9:47.27 | 160026 | 204077
6 | 45:21.03 | 6:57.64 | 204078 | 235416
7 | 52:18.67 | 4:17.08 | 235417 | 254699
8 | 56:36.00 | 3:42.20 | 254700 | 271369
9 | 60:18.20 | 4:13.56 | 271370 | 290400
10 | 64:32.01 | 3:25.56 | 290401 | 305831
11 | 67:57.57 | 5:00.47 | 305832 | 328378
Track 1
Filename F:\My Documents\My Music\Albums (Complete)\01. Marillion - Gaza.wav
Pre-gap length 0:00:02.00
Peak level 97.7 %
Extraction speed 2.5 X
Track quality 100.0 %
Test CRC 2927B18C
Copy CRC 2927B18C
Track not present in AccurateRip database
Copy OK
Track 2
Filename F:\My Documents\My Music\Albums (Complete)\02. The Reasoning - Hyperdrive.wav
Pre-gap length 0:00:02.00
Peak level 91.2 %
Extraction speed 2.8 X
Track quality 100.0 %
Test CRC 8DF799DF
Copy CRC 8DF799DF
Track not present in AccurateRip database
Copy OK
Track 3
Filename F:\My Documents\My Music\Albums (Complete)\03. Threshold - Ashes (Single Version).wav
Pre-gap length 0:00:02.00
Peak level 97.1 %
Extraction speed 2.4 X
Track quality 99.9 %
Test CRC 33C549FB
Copy CRC 33C549FB
Track not present in AccurateRip database
Copy OK
Track 4
Filename F:\My Documents\My Music\Albums (Complete)\04. District 97 - Read Your Mind.wav
Pre-gap length 0:00:02.00
Peak level 98.5 %
Extraction speed 3.2 X
Track quality 100.0 %
Test CRC 6D6994C2
Copy CRC 6D6994C2
Track not present in AccurateRip database
Copy OK
Track 5
Filename F:\My Documents\My Music\Albums (Complete)\05. Between The Buried And Me - Telos.wav
Pre-gap length 0:00:02.00
Peak level 100.0 %
Extraction speed 3.5 X
Track quality 100.0 %
Test CRC A1A28B60
Copy CRC A1A28B60
Track not present in AccurateRip database
Copy OK
Track 6
Filename F:\My Documents\My Music\Albums (Complete)\06. Jadis - Try My Behaviour.wav
Pre-gap length 0:00:02.00
Peak level 99.8 %
Extraction speed 3.7 X
Track quality 100.0 %
Test CRC 481A8387
Copy CRC 481A8387
Track not present in AccurateRip database
Copy OK
Track 7
Filename F:\My Documents\My Music\Albums (Complete)\07. Neal Morse - Weathering Sky.wav
Pre-gap length 0:00:02.00
Peak level 99.1 %
Extraction speed 3.6 X
Track quality 100.0 %
Test CRC B512B732
Copy CRC B512B732
Track not present in AccurateRip database
Copy OK
Track 8
Filename F:\My Documents\My Music\Albums (Complete)\08. Plastic Overlords - You Crumble To Bits.wav
Pre-gap length 0:00:02.00
Peak level 99.3 %
Extraction speed 3.6 X
Track quality 100.0 %
Test CRC 7B035B7A
Copy CRC 7B035B7A
Track not present in AccurateRip database
Copy OK
Track 9
Filename F:\My Documents\My Music\Albums (Complete)\09. Grice - Highly String.wav
Pre-gap length 0:00:02.00
Peak level 96.6 %
Extraction speed 3.8 X
Track quality 100.0 %
Test CRC 55C04EEE
Copy CRC 55C04EEE
Track not present in AccurateRip database
Copy OK
Track 10
Filename F:\My Documents\My Music\Albums (Complete)\10. Rhys Marsh and The Autumn Ghost - Wooden Heart.wav
Pre-gap length 0:00:02.00
Peak level 98.8 %
Extraction speed 3.8 X
Track quality 100.0 %
Test CRC BAAE70B8
Copy CRC BAAE70B8
Track not present in AccurateRip database
Copy OK
Track 11
Filename F:\My Documents\My Music\Albums (Complete)\11. Jack Arthurs - Missing.wav
Pre-gap length 0:00:02.00
Peak level 100.0 %
Extraction speed 4.1 X
Track quality 100.0 %
Test CRC 54A4A1A6
Copy CRC 54A4A1A6
Track not present in AccurateRip database
Copy OK
None of the tracks are present in the AccurateRip database
No errors occurred
End of status report
==== Log checksum 1D0750AF8090F6F005BEB5E35C9A1A5B4E5A8CBD8CE724118A06206B0F1DE72A ====

Содержание индексной карты (.CUE)

REM GENRE "Progressive Rock"
REM DATE 2012
REM DISCID 9F111A0B
REM COMMENT "ExactAudioCopy v1.0b3"
PERFORMER "Various Artists"
TITLE "Prog - P7: Cod Bluff"
FILE "01. Marillion - Gaza.wav" WAVE
TRACK 01 AUDIO
TITLE "Gaza"
PERFORMER "Marillion"
INDEX 01 00:00:00
TRACK 02 AUDIO
TITLE "Hyperdrive"
PERFORMER "The Reasoning"
INDEX 00 17:23:56
FILE "02. The Reasoning - Hyperdrive.wav" WAVE
INDEX 01 00:00:00
TRACK 03 AUDIO
TITLE "Ashes (Single Version)"
PERFORMER "Threshold"
INDEX 00 05:35:59
FILE "03. Threshold - Ashes (Single Version).wav" WAVE
INDEX 01 00:00:00
TRACK 04 AUDIO
TITLE "Read Your Mind"
PERFORMER "District 97"
INDEX 00 04:57:12
FILE "04. District 97 - Read Your Mind.wav" WAVE
INDEX 01 00:00:00
TRACK 05 AUDIO
TITLE "Telos"
PERFORMER "Between The Buried And Me"
INDEX 00 07:28:74
FILE "05. Between The Buried And Me - Telos.wav" WAVE
INDEX 01 00:00:00
TRACK 06 AUDIO
TITLE "Try My Behaviour"
PERFORMER "Jadis"
INDEX 00 09:45:27
FILE "06. Jadis - Try My Behaviour.wav" WAVE
INDEX 01 00:00:00
TRACK 07 AUDIO
TITLE "Weathering Sky"
PERFORMER "Neal Morse"
INDEX 00 06:55:64
FILE "07. Neal Morse - Weathering Sky.wav" WAVE
INDEX 01 00:00:00
TRACK 08 AUDIO
TITLE "You Crumble To Bits"
PERFORMER "Plastic Overlords"
INDEX 00 04:15:08
FILE "08. Plastic Overlords - You Crumble To Bits.wav" WAVE
INDEX 01 00:00:00
TRACK 09 AUDIO
TITLE "Highly String"
PERFORMER "Grice"
INDEX 00 03:40:20
FILE "09. Grice - Highly String.wav" WAVE
INDEX 01 00:00:00
TRACK 10 AUDIO
TITLE "Wooden Heart"
PERFORMER "Rhys Marsh and The Autumn Ghost"
INDEX 00 04:11:56
FILE "10. Rhys Marsh and The Autumn Ghost - Wooden Heart.wav" WAVE
INDEX 01 00:00:00
TRACK 11 AUDIO
TITLE "Missing"
PERFORMER "Jack Arthurs"
INDEX 00 03:23:56
FILE "11. Jack Arthurs - Missing.wav" WAVE
INDEX 01 00:00:00

Лог проверки качества

-----------------------
DON'T MODIFY THIS FILE
-----------------------
PERFORMER: auCDtect Task Manager, ver. 1.5.1RC6 build 1.5.1.7
Copyright (c) 2008-2010 y-soft. All rights reserved
http://y-soft.org
ANALYZER: auCDtect: CD records authenticity detector, version 0.8.2
Copyright (c) 2004 Oleg Berngardt. All rights reserved.
Copyright (c) 2004 Alexander Djourik. All rights reserved.
FILE: 01. Marillion - Gaza.flac
Size: 106907586 Hash: D2DFC73DFAC72E492FD084D90EE5D698 Accuracy: -m0
Conclusion: CDDA 100%
Signature: BA2040AD308A9D2469C08256A5BB085ADC9E2946
FILE: 02. The Reasoning - Hyperdrive.flac
Size: 40326842 Hash: 7483A35684DCDF096A35F06A4BAECBE3 Accuracy: -m0
Conclusion: CDDA 99%
Signature: 7541941FEB2073622A5B51FF9FF372EF237B7307
FILE: 03. Threshold - Ashes (Single Version).flac
Size: 40576160 Hash: 2C2036A69BF16535FC04E580867DE95C Accuracy: -m0
Conclusion: CDDA 100%
Signature: C1A8BB555DC852FBB339CAE8581184E84C64A355
FILE: 04. District 97 - Read Your Mind.flac
Size: 52323417 Hash: EEADCD974E0685F8F8C4E9C8A56B7B6A Accuracy: -m0
Conclusion: CDDA 100%
Signature: 418B16D3B91FAFDDDEC60C064BF6D646A36B7CFA
FILE: 05. Between The Buried And Me - Telos.flac
Size: 76731853 Hash: 0116D93C4F671BC83CFE9ABAB2862BF2 Accuracy: -m0
Conclusion: MPEG 95%
Signature: A63A7D22432657AFB790E8EF4D7CF36BD06F08E4
FILE: 06. Jadis - Try My Behaviour.flac
Size: 48860658 Hash: 1B2FA64635A7AE1FB8BF4B4A4B5D3F22 Accuracy: -m0
Conclusion: CDDA 100%
Signature: 66298CEBA965F40BF9A9FE5C31045D438CF40556
FILE: 07. Neal Morse - Weathering Sky.flac
Size: 34523097 Hash: CC80EFF222C46DC2D8FFD1177442B408 Accuracy: -m0
Conclusion: CDDA 100%
Signature: 7F37B4221308BF70DB10E378D86798CD37260D73
FILE: 08. Plastic Overlords - You Crumble To Bits.flac
Size: 25961616 Hash: 991D0899F0780793D41CA4939A74AACF Accuracy: -m0
Conclusion: CDDA 100%
Signature: 4006827EB0748444D58F5C8FEC6F3620DE607944
FILE: 09. Grice - Highly String.flac
Size: 26821922 Hash: DA20CAAA5419B61C68C71773413208A3 Accuracy: -m0
Conclusion: CDDA 100%
Signature: 28143B064C29F3FD85B328B343E50F968F27061D
FILE: 10. Rhys Marsh and The Autumn Ghost - Wooden Heart.flac
Size: 19290009 Hash: 1F292124C7E8FC1A51EC7D69584515B6 Accuracy: -m0
Conclusion: CDDA 100%
Signature: EEF7C7A3E90E3EB2DC5F167028B4B4D5BACCD7F9
FILE: 11. Jack Arthurs - Missing.flac
Size: 24143704 Hash: 785C81E550C9EA23BB13C1CE319A49F7 Accuracy: -m0
Conclusion: MPEG 95%
Signature: C84B02E11CFFAE69006B9EF07C1C86E255551093

Скриншот спектра частот

To download the file disable ad blocking, and reload the page.

disable adblock How to disable ad blocking?

Download by magnet link 476 MB Download Torrent

Login using:

Similar topics



   
Current time is: 20-Sep 00:13 :: All times are UTC ± 0