Various Artists - Prog P6: Big Big Terrain
--Жанр: Progressive Rock
Носитель: CD
производитель диска: EU
Год издания: 2012
Издатель (лейбл): Future
Аудиокодек: FLAC (*.flac)
Тип рипа: tracks+.cue
Битрейт аудио: lossless
Продолжительность: 01:11:00
Источник: internet
Наличие сканов: да
Треклист:
01. Aeon Zen - Downfall [00:06:06]
02. Aeon Zen - Still Human [00:07:46]
03. Katatonia - Dead Letters [00:04:51]
04. The Pineapple Thief - Last Man Standing [00:05:10]
05. Beardfish - Voluntary Slavery (Radio Edit) [00:04:57]
06. Anubis - The Holy Innocent [00:07:01]
07. Atlantyca - Standard Man [00:06:14]
08. Arz - Birth Of A Hero [00:08:23]
09. Andrew Keeling and Otherworld - Bells Of Heaven [00:04:48]
10. Mörglbl - Le Surfer D'Argentine [00:06:44]
11. Toon Martens Project - Far Behind [00:08:54]

-

Лог создания рипа

Exact Audio Copy V1.0 beta 3 from 29. August 2011
EAC extraction logfile from 2. May 2013, 8:28
Various / Prog - P6: Big Big Terrain
Used drive : TSSTcorpCDDVDW SH-224BB Adapter: 1 ID: 0
Read mode : Secure
Utilize accurate stream : Yes
Defeat audio cache : Yes
Make use of C2 pointers : No
Read offset correction : 6
Overread into Lead-In and Lead-Out : No
Fill up missing offset samples with silence : Yes
Delete leading and trailing silent blocks : No
Null samples used in CRC calculations : Yes
Used interface : Native Win32 interface for Win NT & 2000
Gap handling : Appended to previous track
Used output format : User Defined Encoder
Selected bitrate : 896 kBit/s
Quality : High
Add ID3 tag : No
Command line compressor : C:\Program Files (x86)\FLAC\flac.exe
Additional command line options : -8 -V -T "artist=%artist%" -T "albumartist=%albumartist%" -T "album=%albumtitle%" -T "title=%title%" -T "year=%year%" -T "tracknumber=%tracknr2%" -T "genre=%genre%" %source% -o %dest%
TOC of the extracted CD
Track | Start | Length | Start sector | End sector
---------------------------------------------------------
1 | 0:00.00 | 6:06.05 | 0 | 27454
2 | 6:06.05 | 7:46.53 | 27455 | 62457
3 | 13:52.58 | 4:51.22 | 62458 | 84304
4 | 18:44.05 | 5:10.59 | 84305 | 107613
5 | 23:54.64 | 4:57.51 | 107614 | 129939
6 | 28:52.40 | 7:01.64 | 129940 | 161578
7 | 35:54.29 | 6:14.58 | 161579 | 189686
8 | 42:09.12 | 8:23.60 | 189687 | 227471
9 | 50:32.72 | 4:48.66 | 227472 | 249137
10 | 55:21.63 | 6:44.00 | 249138 | 279437
11 | 62:05.63 | 8:54.59 | 279438 | 319546
Track 1
Filename F:\My Documents\My Music\Albums (Complete)\01. Aeon Zen - Downfall.wav
Pre-gap length 0:00:02.00
Peak level 99.4 %
Extraction speed 2.0 X
Track quality 100.0 %
Test CRC 78FFFD2A
Copy CRC 78FFFD2A
Track not present in AccurateRip database
Copy OK
Track 2
Filename F:\My Documents\My Music\Albums (Complete)\02. Aeon Zen - Still Human.wav
Pre-gap length 0:00:02.00
Peak level 99.4 %
Extraction speed 2.4 X
Track quality 100.0 %
Test CRC 3C4D5F8D
Copy CRC 3C4D5F8D
Track not present in AccurateRip database
Copy OK
Track 3
Filename F:\My Documents\My Music\Albums (Complete)\03. Katatonia - Dead Letters.wav
Pre-gap length 0:00:02.00
Peak level 100.0 %
Extraction speed 2.5 X
Track quality 100.0 %
Test CRC 974E9671
Copy CRC 974E9671
Track not present in AccurateRip database
Copy OK
Track 4
Filename F:\My Documents\My Music\Albums (Complete)\04. The Pineapple Thief - Last Man Standing.wav
Pre-gap length 0:00:02.00
Peak level 99.7 %
Extraction speed 2.7 X
Track quality 100.0 %
Test CRC 73554263
Copy CRC 73554263
Track not present in AccurateRip database
Copy OK
Track 5
Filename F:\My Documents\My Music\Albums (Complete)\05. Beardfish - Voluntary Slavery (Radio Edit).wav
Pre-gap length 0:00:02.00
Peak level 95.7 %
Extraction speed 2.9 X
Track quality 100.0 %
Test CRC 965C8BFC
Copy CRC 965C8BFC
Track not present in AccurateRip database
Copy OK
Track 6
Filename F:\My Documents\My Music\Albums (Complete)\06. Anubis - The Holy Innocent.wav
Pre-gap length 0:00:02.00
Peak level 96.4 %
Extraction speed 3.2 X
Track quality 100.0 %
Test CRC 0805B160
Copy CRC 0805B160
Track not present in AccurateRip database
Copy OK
Track 7
Filename F:\My Documents\My Music\Albums (Complete)\07. Atlantyca - Standard Man.wav
Pre-gap length 0:00:02.00
Peak level 99.4 %
Extraction speed 3.3 X
Track quality 100.0 %
Test CRC 981C5B0E
Copy CRC 981C5B0E
Track not present in AccurateRip database
Copy OK
Track 8
Filename F:\My Documents\My Music\Albums (Complete)\08. Arz - Birth Of A Hero.wav
Pre-gap length 0:00:02.00
Peak level 97.0 %
Extraction speed 3.6 X
Track quality 100.0 %
Test CRC 58FE1483
Copy CRC 58FE1483
Track not present in AccurateRip database
Copy OK
Track 9
Filename F:\My Documents\My Music\Albums (Complete)\09. Andrew Keeling and Otherworld - Bells Of Heaven.wav
Pre-gap length 0:00:02.00
Peak level 96.6 %
Extraction speed 3.6 X
Track quality 100.0 %
Test CRC B489C337
Copy CRC B489C337
Track not present in AccurateRip database
Copy OK
Track 10
Filename F:\My Documents\My Music\Albums (Complete)\10. Mörglbl - Le Surfer D'Argentine.wav
Pre-gap length 0:00:02.00
Peak level 98.8 %
Extraction speed 3.9 X
Track quality 100.0 %
Test CRC E423A91A
Copy CRC E423A91A
Track not present in AccurateRip database
Copy OK
Track 11
Filename F:\My Documents\My Music\Albums (Complete)\11. Toon Martens Project - Far Behind.wav
Pre-gap length 0:00:02.00
Peak level 100.0 %
Extraction speed 4.2 X
Track quality 100.0 %
Test CRC D0BAC148
Copy CRC D0BAC148
Track not present in AccurateRip database
Copy OK
None of the tracks are present in the AccurateRip database
No errors occurred
End of status report
==== Log checksum 3C0E9589ED0BC95A87C17253F55048A68686AC4D2691C979B191180D38E0A99B ====

Содержание индексной карты (.CUE)

REM GENRE "Progressive Rock"
REM DATE 2012
REM DISCID 8A10A40B
REM COMMENT "ExactAudioCopy v1.0b3"
PERFORMER "Various"
TITLE "Prog - P6: Big Big Terrain"
FILE "01. Aeon Zen - Downfall.wav" WAVE
TRACK 01 AUDIO
TITLE "Downfall"
PERFORMER "Aeon Zen"
INDEX 01 00:00:00
TRACK 02 AUDIO
TITLE "Still Human"
PERFORMER "Aeon Zen"
INDEX 00 06:04:05
FILE "02. Aeon Zen - Still Human.wav" WAVE
INDEX 01 00:00:00
TRACK 03 AUDIO
TITLE "Dead Letters"
PERFORMER "Katatonia"
INDEX 00 07:44:53
FILE "03. Katatonia - Dead Letters.wav" WAVE
INDEX 01 00:00:00
TRACK 04 AUDIO
TITLE "Last Man Standing"
PERFORMER "The Pineapple Thief"
INDEX 00 04:49:22
FILE "04. The Pineapple Thief - Last Man Standing.wav" WAVE
INDEX 01 00:00:00
TRACK 05 AUDIO
TITLE "Voluntary Slavery (Radio Edit)"
PERFORMER "Beardfish"
INDEX 00 05:08:59
FILE "05. Beardfish - Voluntary Slavery (Radio Edit).wav" WAVE
INDEX 01 00:00:00
TRACK 06 AUDIO
TITLE "The Holy Innocent"
PERFORMER "Anubis"
INDEX 00 04:55:51
FILE "06. Anubis - The Holy Innocent.wav" WAVE
INDEX 01 00:00:00
TRACK 07 AUDIO
TITLE "Standard Man"
PERFORMER "Atlantyca"
INDEX 00 06:59:64
FILE "07. Atlantyca - Standard Man.wav" WAVE
INDEX 01 00:00:00
TRACK 08 AUDIO
TITLE "Birth Of A Hero"
PERFORMER "Arz"
INDEX 00 06:12:58
FILE "08. Arz - Birth Of A Hero.wav" WAVE
INDEX 01 00:00:00
TRACK 09 AUDIO
TITLE "Bells Of Heaven"
PERFORMER "Andrew Keeling and Otherworld"
INDEX 00 08:21:60
FILE "09. Andrew Keeling and Otherworld - Bells Of Heaven.wav" WAVE
INDEX 01 00:00:00
TRACK 10 AUDIO
TITLE "Le Surfer D'Argentine"
PERFORMER "Mцrglbl"
INDEX 00 04:46:66
FILE "10. Mцrglbl - Le Surfer D'Argentine.wav" WAVE
INDEX 01 00:00:00
TRACK 11 AUDIO
TITLE "Far Behind"
PERFORMER "Toon Martens Project"
INDEX 00 06:42:00
FILE "11. Toon Martens Project - Far Behind.wav" WAVE
INDEX 01 00:00:00

Лог проверки качества

-----------------------
DON'T MODIFY THIS FILE
-----------------------
PERFORMER: auCDtect Task Manager, ver. 1.5.1RC6 build 1.5.1.7
Copyright (c) 2008-2010 y-soft. All rights reserved
http://y-soft.org
ANALYZER: auCDtect: CD records authenticity detector, version 0.8.2
Copyright (c) 2004 Oleg Berngardt. All rights reserved.
Copyright (c) 2004 Alexander Djourik. All rights reserved.
FILE: 01. Aeon Zen - Downfall.flac
Size: 40963928 Hash: D050233753720BA4BEB91301CE3A2CEF Accuracy: -m0
Conclusion: CDDA 100%
Signature: A3A095CEC36A979C98ACDFD973BF71A3CF69205A
FILE: 02. Aeon Zen - Still Human.flac
Size: 51432980 Hash: 431C956474A49BCF1F744094BCAEDA01 Accuracy: -m0
Conclusion: CDDA 100%
Signature: 74E761E8739B08247E606AAFB1CB80A0B741EB28
FILE: 03. Katatonia - Dead Letters.flac
Size: 32067074 Hash: 7342FF32CF751694783A15B61EF91B7D Accuracy: -m0
Conclusion: CDDA 100%
Signature: 528A9792538F143E9DA26EB5DF3586D5D665ACAB
FILE: 04. The Pineapple Thief - Last Man Standing.flac
Size: 35522988 Hash: AB0099916190C8DCCA72B04725A520DD Accuracy: -m0
Conclusion: CDDA 100%
Signature: E6694D41B8A61EC05B66912B46E95A1B7D93E19C
FILE: 05. Beardfish - Voluntary Slavery (Radio Edit).flac
Size: 37198160 Hash: B0234881DF101A8189ABCA64E46C8724 Accuracy: -m0
Conclusion: CDDA 100%
Signature: 93CBA9D17B8ED97780452470A29CAE84CDACB5FC
FILE: 06. Anubis - The Holy Innocent.flac
Size: 50652348 Hash: 555F3E4661F511CEE06FD09A6336B486 Accuracy: -m0
Conclusion: CDDA 100%
Signature: 6E4E1382A9C601BA566D3408F8E6F76D6387041D
FILE: 07. Atlantyca - Standard Man.flac
Size: 45968145 Hash: 6AE387BF4AF4A99E1E6FA3E9FAEDE835 Accuracy: -m0
Conclusion: CDDA 100%
Signature: A4A1E88865DDFACA087F1954E7684CA9151B7254
FILE: 08. Arz - Birth Of A Hero.flac
Size: 61118021 Hash: 00F854F35E2D14952C71C0EA0C86C5A9 Accuracy: -m0
Conclusion: CDDA 100%
Signature: A4DC038CD1D5C0F4C9FF1419CD3FFC534A10D186
FILE: 09. Andrew Keeling and Otherworld - Bells Of Heaven.flac
Size: 31935009 Hash: 32C5618DBFDAA866ACEC609B4F229466 Accuracy: -m0
Conclusion: CDDA 100%
Signature: E231F323CD87BC81FFFB3C5CF0769AD16B96EB9E
FILE: 10. Mörglbl - Le Surfer D'Argentine.flac
Size: 44003334 Hash: 9601BAC73328866C0DAC178CD6687E7F Accuracy: -m0
Conclusion: CDDA 99%
Signature: F95B39BFF9E9B050F876F58DCEA9F522031DFD2C
FILE: 11. Toon Martens Project - Far Behind.flac
Size: 55594794 Hash: F8FD170B93942097B821DB8BF57BF6F9 Accuracy: -m0
Conclusion: CDDA 100%
Signature: C3FE2DA6FF017C7F853A2A9D7D6F11EA98AD10EE

Скриншот спектра частот

To download the file disable ad blocking, and reload the page.

disable adblock How to disable ad blocking?

Download by magnet link 467 MB Download Torrent

Login using:

Similar topics



   
Current time is: 20-Nov 14:56 :: All times are UTC + 3