Various Artists - Prog P5: Into The Lens
--Жанр: Progressive Rock
Носитель: CD
производитель диска: EU
Год издания: 2012
Издатель (лейбл): Future
Аудиокодек: FLAC (*.flac)
Тип рипа: tracks+.cue
Битрейт аудио: lossless
Продолжительность: 01:18:23
Источник: internet
Наличие сканов: да
Треклист:
01. Aeon Zen - Warning [00:05:26]
02. Aeon Zen - Turned To Ash [00:04:30]
03. Big Big Train - Judas Unrepentant [00:07:17]
04. Jellyfiche - Le Marchand D'Hommes [00:07:51]
05. XII Alfonso - Earliest Recollection [00:04:58]
06. A Secret River - Blinding Light [00:06:01]
07. The Fierce And The Dead - On VHS [00:04:52]
08. Metallic Taste Of Blood - Fist Full Of Flies [00:04:30]
09. Karcius - Water [00:08:16]
10. The Gift - The Comforting Cold, Parts 1 & 2 [00:07:03]
11. Abandoned Stars - Follow Your Heart [00:06:31]
12. Jiezuberband - Exoskeleton [00:11:03]
-

Лог создания рипа

Exact Audio Copy V1.0 beta 3 from 29. August 2011
EAC extraction logfile from 21. April 2013, 11:22
Various / Prog P5: Into The Lens
Used drive : TSSTcorpCDDVDW SH-224BB Adapter: 1 ID: 0
Read mode : Secure
Utilize accurate stream : Yes
Defeat audio cache : Yes
Make use of C2 pointers : No
Read offset correction : 6
Overread into Lead-In and Lead-Out : No
Fill up missing offset samples with silence : Yes
Delete leading and trailing silent blocks : No
Null samples used in CRC calculations : Yes
Used interface : Native Win32 interface for Win NT & 2000
Gap handling : Appended to previous track
Used output format : User Defined Encoder
Selected bitrate : 896 kBit/s
Quality : High
Add ID3 tag : No
Command line compressor : C:\Program Files (x86)\FLAC\flac.exe
Additional command line options : -8 -V -T "artist=%artist%" -T "albumartist=%albumartist%" -T "album=%albumtitle%" -T "title=%title%" -T "year=%year%" -T "tracknumber=%tracknr2%" -T "genre=%genre%" %source% -o %dest%
TOC of the extracted CD
Track | Start | Length | Start sector | End sector
---------------------------------------------------------
1 | 0:00.00 | 5:26.18 | 0 | 24467
2 | 5:26.18 | 4:30.40 | 24468 | 44757
3 | 9:56.58 | 7:17.52 | 44758 | 77584
4 | 17:14.35 | 7:51.29 | 77585 | 112938
5 | 25:05.64 | 4:58.19 | 112939 | 135307
6 | 30:04.08 | 6:01.20 | 135308 | 162402
7 | 36:05.28 | 4:52.51 | 162403 | 184353
8 | 40:58.04 | 4:30.68 | 184354 | 204671
9 | 45:28.72 | 8:16.09 | 204672 | 241880
10 | 53:45.06 | 7:03.37 | 241881 | 273642
11 | 60:48.43 | 6:31.51 | 273643 | 303018
12 | 67:20.19 | 11:03.30 | 303019 | 352773
Track 1
Filename F:\My Documents\My Music\Albums (Complete)\01. Aeon Zen - Warning.wav
Pre-gap length 0:00:02.00
Peak level 99.4 %
Extraction speed 2.0 X
Track quality 100.0 %
Test CRC E9EE4BC1
Copy CRC E9EE4BC1
Accurately ripped (confidence 2) [52CE99B7] (AR v1)
Copy OK
Track 2
Filename F:\My Documents\My Music\Albums (Complete)\02. Aeon Zen - Turned To Ash.wav
Peak level 99.4 %
Extraction speed 2.2 X
Track quality 100.0 %
Test CRC 58B96920
Copy CRC 58B96920
Accurately ripped (confidence 2) [CDB4BE7E] (AR v1)
Copy OK
Track 3
Filename F:\My Documents\My Music\Albums (Complete)\03. Big Big Train - Judas Unrepentant.wav
Peak level 99.8 %
Extraction speed 2.6 X
Track quality 100.0 %
Test CRC A48F2719
Copy CRC A48F2719
Accurately ripped (confidence 2) [3CB22AE0] (AR v1)
Copy OK
Track 4
Filename F:\My Documents\My Music\Albums (Complete)\04. Jellyfiche - Le Marchand D'Hommes.wav
Peak level 98.7 %
Extraction speed 2.9 X
Track quality 100.0 %
Test CRC B6D8C9F0
Copy CRC B6D8C9F0
Accurately ripped (confidence 2) [2E01F4A8] (AR v1)
Copy OK
Track 5
Filename F:\My Documents\My Music\Albums (Complete)\05. XII Alfonso - Earliest Recollection.wav
Peak level 95.6 %
Extraction speed 3.0 X
Track quality 100.0 %
Test CRC DF7CE391
Copy CRC DF7CE391
Accurately ripped (confidence 2) [FDCB1887] (AR v1)
Copy OK
Track 6
Filename F:\My Documents\My Music\Albums (Complete)\06. A Secret River - Blinding Light.wav
Peak level 98.8 %
Extraction speed 3.2 X
Track quality 100.0 %
Test CRC 7F30864F
Copy CRC 7F30864F
Accurately ripped (confidence 2) [2CC137AC] (AR v1)
Copy OK
Track 7
Filename F:\My Documents\My Music\Albums (Complete)\07. The Fierce And The Dead - On VHS.wav
Peak level 100.0 %
Extraction speed 3.3 X
Track quality 100.0 %
Test CRC 2605A817
Copy CRC 2605A817
Accurately ripped (confidence 2) [F4A446A7] (AR v1)
Copy OK
Track 8
Filename F:\My Documents\My Music\Albums (Complete)\08. Metallic Taste Of Blood - Fist Full Of Flies.wav
Peak level 91.1 %
Extraction speed 2.6 X
Track quality 99.9 %
Test CRC 9AF5954C
Copy CRC 9AF5954C
Accurately ripped (confidence 2) [99D3750C] (AR v1)
Copy OK
Track 9
Filename F:\My Documents\My Music\Albums (Complete)\09. Karcius - Water.wav
Peak level 97.7 %
Extraction speed 3.8 X
Track quality 100.0 %
Test CRC 263549E3
Copy CRC 263549E3
Accurately ripped (confidence 2) [CDC11A5A] (AR v1)
Copy OK
Track 10
Filename F:\My Documents\My Music\Albums (Complete)\10. The Gift - The Comforting Cold, Parts 1 & 2.wav
Peak level 98.8 %
Extraction speed 3.9 X
Track quality 100.0 %
Test CRC C066D0E0
Copy CRC C066D0E0
Accurately ripped (confidence 2) [67C2F531] (AR v1)
Copy OK
Track 11
Filename F:\My Documents\My Music\Albums (Complete)\11. Abandoned Stars - Follow Your Heart.wav
Peak level 97.7 %
Extraction speed 4.1 X
Track quality 100.0 %
Test CRC 3B71E9F8
Copy CRC 3B71E9F8
Accurately ripped (confidence 2) [3ABF5840] (AR v1)
Copy OK
Track 12
Filename F:\My Documents\My Music\Albums (Complete)\12. Jiezuberband - Exoskeleton.wav
Peak level 97.7 %
Extraction speed 4.4 X
Track quality 100.0 %
Test CRC 2C44DC2C
Copy CRC 2C44DC2C
Accurately ripped (confidence 2) [67FDB773] (AR v1)
Copy OK
All tracks accurately ripped
No errors occurred
End of status report
==== Log checksum D1E41BCACF1868FF1219A0A362F963232A6BDCB0E7B833E50A490F9D893DBE5F ====

Содержание индексной карты (.CUE)

REM GENRE "Progressive Rock"
REM DATE 2012
REM DISCID 99125F0C
REM COMMENT "ExactAudioCopy v1.0b3"
PERFORMER "Various"
TITLE "Prog P5: Into The Lens"
FILE "01. Aeon Zen - Warning.wav" WAVE
TRACK 01 AUDIO
TITLE "Warning"
PERFORMER "Aeon Zen"
INDEX 01 00:00:00
FILE "02. Aeon Zen - Turned To Ash.wav" WAVE
TRACK 02 AUDIO
TITLE "Turned To Ash"
PERFORMER "Aeon Zen"
INDEX 01 00:00:00
FILE "03. Big Big Train - Judas Unrepentant.wav" WAVE
TRACK 03 AUDIO
TITLE "Judas Unrepentant"
PERFORMER "Big Big Train"
INDEX 01 00:00:00
FILE "04. Jellyfiche - Le Marchand D'Hommes.wav" WAVE
TRACK 04 AUDIO
TITLE "Le Marchand D'Hommes"
PERFORMER "Jellyfiche"
INDEX 01 00:00:00
FILE "05. XII Alfonso - Earliest Recollection.wav" WAVE
TRACK 05 AUDIO
TITLE "Earliest Recollection"
PERFORMER "XII Alfonso"
INDEX 01 00:00:00
FILE "06. A Secret River - Blinding Light.wav" WAVE
TRACK 06 AUDIO
TITLE "Blinding Light"
PERFORMER "A Secret River"
INDEX 01 00:00:00
FILE "07. The Fierce And The Dead - On VHS.wav" WAVE
TRACK 07 AUDIO
TITLE "On VHS"
PERFORMER "The Fierce And The Dead"
INDEX 01 00:00:00
FILE "08. Metallic Taste Of Blood - Fist Full Of Flies.wav" WAVE
TRACK 08 AUDIO
TITLE "Fist Full Of Flies"
PERFORMER "Metallic Taste Of Blood"
INDEX 01 00:00:00
FILE "09. Karcius - Water.wav" WAVE
TRACK 09 AUDIO
TITLE "Water"
PERFORMER "Karcius"
INDEX 01 00:00:00
FILE "10. The Gift - The Comforting Cold, Parts 1 & 2.wav" WAVE
TRACK 10 AUDIO
TITLE "The Comforting Cold, Parts 1 & 2"
PERFORMER "The Gift"
INDEX 01 00:00:00
FILE "11. Abandoned Stars - Follow Your Heart.wav" WAVE
TRACK 11 AUDIO
TITLE "Follow Your Heart"
PERFORMER "Abandoned Stars"
INDEX 01 00:00:00
FILE "12. Jiezuberband - Exoskeleton.wav" WAVE
TRACK 12 AUDIO
TITLE "Exoskeleton"
PERFORMER "Jiezuberband"
INDEX 01 00:00:00

Лог проверки качества

-----------------------
DON'T MODIFY THIS FILE
-----------------------
PERFORMER: auCDtect Task Manager, ver. 1.5.1RC6 build 1.5.1.7
Copyright (c) 2008-2010 y-soft. All rights reserved
http://y-soft.org
ANALYZER: auCDtect: CD records authenticity detector, version 0.8.2
Copyright (c) 2004 Oleg Berngardt. All rights reserved.
Copyright (c) 2004 Alexander Djourik. All rights reserved.
FILE: 01. Aeon Zen - Warning.flac
Size: 40304760 Hash: 11C7A784B02D5A2D51ECCC29A2D06312 Accuracy: -m0
Conclusion: CDDA 100%
Signature: C973741462FBDF5DA9BD0DA62942DFC0429656BB
FILE: 02. Aeon Zen - Turned To Ash.flac
Size: 30017622 Hash: D05E08C8B9160E60C166657F1FDC9E59 Accuracy: -m0
Conclusion: CDDA 100%
Signature: 4BA4A9C698FFA84E0DDB9C3CCEF89BA01963FC59
FILE: 03. Big Big Train - Judas Unrepentant.flac
Size: 53986345 Hash: B04288707E6DD25586CAB2AE4936534B Accuracy: -m0
Conclusion: CDDA 100%
Signature: FFBABE8D5172FE1AB3B1F97E23D464E81A7658EE
FILE: 04. Jellyfiche - Le Marchand D'Hommes.flac
Size: 55071418 Hash: B85104384998555A9274386DB16FB610 Accuracy: -m0
Conclusion: CDDA 100%
Signature: 77C9A0D01F46AEDFC9564A9FEBDCF871B8FA5477
FILE: 05. XII Alfonso - Earliest Recollection.flac
Size: 33802392 Hash: DD785CDB358BA3181BB5A380FEE324D3 Accuracy: -m0
Conclusion: CDDA 100%
Signature: AA66DB2EA8988146B0C96166D1E27102F9D46169
FILE: 06. A Secret River - Blinding Light.flac
Size: 42622974 Hash: 5A6B7512CCA7919B338AB8E51CEC0246 Accuracy: -m0
Conclusion: CDDA 100%
Signature: A59E8F7FEBE2107B33C37DEF06F47AEB8C92D6D1
FILE: 07. The Fierce And The Dead - On VHS.flac
Size: 27307324 Hash: 4D1B89931F043BA0C0E36BE12704295F Accuracy: -m0
Conclusion: CDDA 100%
Signature: 4C4806CCDE498F72CFB36A2FF263601FA90F2EE0
FILE: 08. Metallic Taste Of Blood - Fist Full Of Flies.flac
Size: 31626126 Hash: 8B0FD1EA13BD6434D58B35EB89B5FB56 Accuracy: -m0
Conclusion: CDDA 100%
Signature: 715721974A585DB2605BE6818FBC742A8A940AE5
FILE: 09. Karcius - Water.flac
Size: 58355468 Hash: CF334FA5BBEE0584D1B93A8ADD83305F Accuracy: -m0
Conclusion: CDDA 100%
Signature: AC90F9114057C85243F0328373FC2649A395D2C4
FILE: 10. The Gift - The Comforting Cold, Parts 1 & 2.flac
Size: 41799812 Hash: 170BA9ADF833AD254E72274F76E37DC5 Accuracy: -m0
Conclusion: CDDA 76%
Signature: 2DEBF9ACDE01070AB8D783C10880158229B745E6
FILE: 11. Abandoned Stars - Follow Your Heart.flac
Size: 54662254 Hash: 40951B6D7ED6464B5CB11BA0B10C9E10 Accuracy: -m0
Conclusion: CDDA 100%
Signature: EA2A239D2FBEA01DFE99C2D6DF26451C1173A90B
FILE: 12. Jiezuberband - Exoskeleton.flac
Size: 81484509 Hash: 84A1DAD2148777DCC7E6939339CECBE7 Accuracy: -m0
Conclusion: CDDA 100%
Signature: 74C93C99CDF08825C0E61900BBE1981F036817DB

Скриншот спектра частот

To download the file disable ad blocking, and reload the page.

disable adblock How to disable ad blocking?

Download by magnet link 528 MB Download Torrent

Login using:

Similar topics



   
Current time is: 16-Nov 01:03 :: All times are UTC + 3