Various Artists - Prog P4: Suits You, Sir
--Жанр: Progressive Rock
Носитель: CD
производитель диска: EU
Год издания: 2012
Издатель (лейбл): Future
Аудиокодек: FLAC (*.flac)
Тип рипа: tracks+.cue
Битрейт аудио: lossless
Продолжительность: 01:17:11
Источник: internet
Наличие сканов : да
Треклист:
01. Aeon Zen - Enigmatic Soul [00:08:43]
02. Aeon Zen - Divinity [00:03:43]
03. Bushman's Revenge - Iron Bloke [00:04:51]
04. Nerve Toy Trio - The Riddle Of Anything [00:04:32]
05. Chris Fry - Secret Garden [00:05:46]
06. Cakewalk - Glass [00:05:53]
07. Edison's Children - Fracture [00:05:50]
08. Panic Room - Song For Tomorrow [00:06:16]
09. Headspace - Die With A Bullet [00:08:24]
10. Erik Norlander - Astrology Prelude [00:05:46]
11. Quidam - Saiko Przedwiosnie [00:08:32]
12. Sendelica - Magical Ninin [00:08:51]

-

Лог создания рипа

Exact Audio Copy V1.0 beta 3 from 29. August 2011
EAC extraction logfile from 20. April 2013, 21:59
Various / Prog P4: Suits You ,Sir
Used drive : TSSTcorpCDDVDW SH-224BB Adapter: 1 ID: 0
Read mode : Secure
Utilize accurate stream : Yes
Defeat audio cache : Yes
Make use of C2 pointers : No
Read offset correction : 6
Overread into Lead-In and Lead-Out : No
Fill up missing offset samples with silence : Yes
Delete leading and trailing silent blocks : No
Null samples used in CRC calculations : Yes
Used interface : Native Win32 interface for Win NT & 2000
Gap handling : Appended to previous track
Used output format : User Defined Encoder
Selected bitrate : 896 kBit/s
Quality : High
Add ID3 tag : No
Command line compressor : C:\Program Files (x86)\FLAC\flac.exe
Additional command line options : -8 -V -T "artist=%artist%" -T "albumartist=%albumartist%" -T "album=%albumtitle%" -T "title=%title%" -T "year=%year%" -T "tracknumber=%tracknr2%" -T "genre=%genre%" %source% -o %dest%
TOC of the extracted CD
Track | Start | Length | Start sector | End sector
---------------------------------------------------------
1 | 0:00.00 | 8:43.01 | 0 | 39225
2 | 8:43.01 | 3:43.10 | 39226 | 55960
3 | 12:26.11 | 4:51.34 | 55961 | 77819
4 | 17:17.45 | 4:32.41 | 77820 | 98260
5 | 21:50.11 | 5:46.37 | 98261 | 124247
6 | 27:36.48 | 5:53.23 | 124248 | 150745
7 | 33:29.71 | 5:50.03 | 150746 | 176998
8 | 39:19.74 | 6:16.28 | 176999 | 205226
9 | 45:36.27 | 8:24.61 | 205227 | 243087
10 | 54:01.13 | 5:46.16 | 243088 | 269053
11 | 59:47.29 | 8:32.22 | 269054 | 307475
12 | 68:19.51 | 8:51.68 | 307476 | 347368
Track 1
Filename F:\My Documents\My Music\Albums (Complete)\01. Aeon Zen - Enigmatic Soul.wav
Pre-gap length 0:00:02.00
Peak level 99.4 %
Extraction speed 2.1 X
Track quality 100.0 %
Test CRC 831D5445
Copy CRC 831D5445
Accurately ripped (confidence 3) [4904AEAD] (AR v1)
Copy OK
Track 2
Filename F:\My Documents\My Music\Albums (Complete)\02. Aeon Zen - Divinity.wav
Peak level 99.4 %
Extraction speed 2.2 X
Track quality 100.0 %
Test CRC A9FF9E0E
Copy CRC A9FF9E0E
Accurately ripped (confidence 3) [CC1380D2] (AR v1)
Copy OK
Track 3
Filename F:\My Documents\My Music\Albums (Complete)\03. Bushman's Revenge - Iron Bloke.wav
Peak level 97.5 %
Extraction speed 2.5 X
Track quality 100.0 %
Test CRC 10F614CA
Copy CRC 10F614CA
Accurately ripped (confidence 3) [365B1526] (AR v1)
Copy OK
Track 4
Filename F:\My Documents\My Music\Albums (Complete)\04. Nerve Toy Trio - The Riddle Of Anything.wav
Peak level 99.4 %
Extraction speed 2.2 X
Track quality 99.9 %
Test CRC CA76543B
Copy CRC CA76543B
Accurately ripped (confidence 3) [470D4D75] (AR v1)
Copy OK
Track 5
Filename F:\My Documents\My Music\Albums (Complete)\05. Chris Fry - Secret Garden.wav
Peak level 100.0 %
Extraction speed 2.9 X
Track quality 100.0 %
Test CRC A1935A04
Copy CRC A1935A04
Accurately ripped (confidence 3) [286851B5] (AR v1)
Copy OK
Track 6
Filename F:\My Documents\My Music\Albums (Complete)\06. Cakewalk - Glass.wav
Peak level 98.8 %
Extraction speed 3.1 X
Track quality 100.0 %
Test CRC C8C48749
Copy CRC C8C48749
Accurately ripped (confidence 3) [2A739AC3] (AR v1)
Copy OK
Track 7
Filename F:\My Documents\My Music\Albums (Complete)\07. Edison's Children - Fracture.wav
Peak level 100.0 %
Extraction speed 3.3 X
Track quality 100.0 %
Test CRC C8635503
Copy CRC C8635503
Accurately ripped (confidence 3) [49B45F4A] (AR v1)
Copy OK
Track 8
Filename F:\My Documents\My Music\Albums (Complete)\08. Panic Room - Song For Tomorrow.wav
Peak level 99.6 %
Extraction speed 3.4 X
Track quality 100.0 %
Test CRC EA244AF2
Copy CRC EA244AF2
Accurately ripped (confidence 3) [5817918E] (AR v1)
Copy OK
Track 9
Filename F:\My Documents\My Music\Albums (Complete)\09. Headspace - Die With A Bullet.wav
Peak level 99.2 %
Extraction speed 3.7 X
Track quality 100.0 %
Test CRC F666A4A3
Copy CRC F666A4A3
Accurately ripped (confidence 3) [13FCE475] (AR v1)
Copy OK
Track 10
Filename F:\My Documents\My Music\Albums (Complete)\10. Erik Norlander - Astrology Prelude.wav
Peak level 100.0 %
Extraction speed 3.8 X
Track quality 100.0 %
Test CRC A343337C
Copy CRC A343337C
Accurately ripped (confidence 3) [216D53F4] (AR v1)
Copy OK
Track 11
Filename F:\My Documents\My Music\Albums (Complete)\11. Quidam - Saiko Przedwiosnie.wav
Peak level 96.9 %
Extraction speed 4.1 X
Track quality 100.0 %
Test CRC 1CECF5DA
Copy CRC 1CECF5DA
Accurately ripped (confidence 3) [E86D747B] (AR v1)
Copy OK
Track 12
Filename F:\My Documents\My Music\Albums (Complete)\12. Sendelica - Magical Ninin.wav
Peak level 100.0 %
Extraction speed 4.3 X
Track quality 100.0 %
Test CRC 5D16FAC3
Copy CRC 5D16FAC3
Accurately ripped (confidence 3) [8D68B46A] (AR v1)
Copy OK
All tracks accurately ripped
No errors occurred
End of status report
==== Log checksum 2ADF6320DB8D2764B876B3094CE929DF9524AFFA13A01963BBB36AB268B911B5 ====

Содержание индексной карты (.CUE)

REM GENRE "Progressive Rock"
REM DATE 2012
REM DISCID 9812170C
REM COMMENT "ExactAudioCopy v1.0b3"
PERFORMER "Various"
TITLE "Prog P4: Suits You, Sir"
FILE "01. Aeon Zen - Enigmatic Soul.wav" WAVE
TRACK 01 AUDIO
TITLE "Enigmatic Soul"
PERFORMER "Aeon Zen"
INDEX 01 00:00:00
FILE "02. Aeon Zen - Divinity.wav" WAVE
TRACK 02 AUDIO
TITLE "Divinity"
PERFORMER "Aeon Zen"
INDEX 01 00:00:00
FILE "03. Bushman's Revenge - Iron Bloke.wav" WAVE
TRACK 03 AUDIO
TITLE "Iron Bloke"
PERFORMER "Bushman's Revenge"
INDEX 01 00:00:00
FILE "04. Nerve Toy Trio - The Riddle Of Anything.wav" WAVE
TRACK 04 AUDIO
TITLE "The Riddle Of Anything"
PERFORMER "Nerve Toy Trio"
INDEX 01 00:00:00
FILE "05. Chris Fry - Secret Garden.wav" WAVE
TRACK 05 AUDIO
TITLE "Secret Garden"
PERFORMER "Chris Fry"
INDEX 01 00:00:00
FILE "06. Cakewalk - Glass.wav" WAVE
TRACK 06 AUDIO
TITLE "Glass"
PERFORMER "Cakewalk"
INDEX 01 00:00:00
FILE "07. Edison's Children - Fracture.wav" WAVE
TRACK 07 AUDIO
TITLE "Fracture"
PERFORMER "Edison's Children"
INDEX 01 00:00:00
FILE "08. Panic Room - Song For Tomorrow.wav" WAVE
TRACK 08 AUDIO
TITLE "Song For Tomorrow"
PERFORMER "Panic Room"
INDEX 01 00:00:00
FILE "09. Headspace - Die With A Bullet.wav" WAVE
TRACK 09 AUDIO
TITLE "Die With A Bullet"
PERFORMER "Headspace"
INDEX 01 00:00:00
FILE "10. Erik Norlander - Astrology Prelude.wav" WAVE
TRACK 10 AUDIO
TITLE "Astrology Prelude"
PERFORMER "Erik Norlander"
INDEX 01 00:00:00
FILE "11. Quidam - Saiko Przedwiosnie.wav" WAVE
TRACK 11 AUDIO
TITLE "Saiko Przedwiosnie"
PERFORMER "Quidam"
INDEX 01 00:00:00
FILE "12. Sendelica - Magical Ninin.wav" WAVE
TRACK 12 AUDIO
TITLE "Magical Ninin"
PERFORMER "Sendelica"
INDEX 01 00:00:00

Лог проверки качества

-----------------------
DON'T MODIFY THIS FILE
-----------------------
PERFORMER: auCDtect Task Manager, ver. 1.5.1RC6 build 1.5.1.7
Copyright (c) 2008-2010 y-soft. All rights reserved
http://y-soft.org
ANALYZER: auCDtect: CD records authenticity detector, version 0.8.2
Copyright (c) 2004 Oleg Berngardt. All rights reserved.
Copyright (c) 2004 Alexander Djourik. All rights reserved.
FILE: 01. Aeon Zen - Enigmatic Soul.flac
Size: 58663455 Hash: 182BFC23027535C73A006E4FED5DCF0F Accuracy: -m0
Conclusion: CDDA 100%
Signature: 8BB08CC827C5F4A1227D9061DE5D1C208F950670
FILE: 02. Aeon Zen - Divinity.flac
Size: 27783807 Hash: F50BA75824824CA4E401DE51AD3B9A8C Accuracy: -m0
Conclusion: CDDA 100%
Signature: 5BD8A98081062E51B0CEB3AB28A5913A72DB7465
FILE: 03. Bushman's Revenge - Iron Bloke.flac
Size: 33460074 Hash: F192F44D743738911C5CE38CA96F5DAE Accuracy: -m0
Conclusion: CDDA 100%
Signature: E306A01DAB01618E01BDB2C17647CD464582C215
FILE: 04. Nerve Toy Trio - The Riddle Of Anything.flac
Size: 30378475 Hash: FC61B800637EF7E979A86E285C3F0FB6 Accuracy: -m0
Conclusion: CDDA 100%
Signature: B1EBCA549E7E7935D3A1B00462FD5289314749B9
FILE: 05. Chris Fry - Secret Garden.flac
Size: 34873198 Hash: 1E837B390455A0507DC4485CBB11FE13 Accuracy: -m0
Conclusion: CDDA 100%
Signature: 4F90FE63393EE67447D7722B734CFE008B946FFD
FILE: 06. Cakewalk - Glass.flac
Size: 37639765 Hash: C1065E8DA64A9E775B86E9F6378CB80F Accuracy: -m0
Conclusion: CDDA 100%
Signature: 7FB2812AF0C5419B21AF0EDBDD8D36944FFDF3D5
FILE: 07. Edison's Children - Fracture.flac
Size: 40867026 Hash: BEF7D0D92A7EC603864DDACD78118A86 Accuracy: -m0
Conclusion: CDDA 100%
Signature: 6FBEC8C21D85FC0856ACD3F4CA578B1B243035F8
FILE: 08. Panic Room - Song For Tomorrow.flac
Size: 41145811 Hash: CD10A7FDD4482071D382F57C041E91DA Accuracy: -m0
Conclusion: CDDA 100%
Signature: A9FE3FA0BD71C85114CF876B66499BA40BF75D97
FILE: 09. Headspace - Die With A Bullet.flac
Size: 60489818 Hash: AA9C0B947C50BC11063EB6FBF1556FEE Accuracy: -m0
Conclusion: CDDA 100%
Signature: EEB27A98E68ACAD121FA2F897C3A018E7B73EC0B
FILE: 10. Erik Norlander - Astrology Prelude.flac
Size: 46018792 Hash: C26D00915D8435AAC7EA37C441C8A0BC Accuracy: -m0
Conclusion: CDDA 100%
Signature: A131E66BCAF518BB45B56254477256EF5DF9DCCE
FILE: 11. Quidam - Saiko Przedwiosnie.flac
Size: 62630309 Hash: B4846FBCDA847622845334F7FB4D63A1 Accuracy: -m0
Conclusion: CDDA 100%
Signature: 949A302A84E81B01406A48805370D4FC5A6B88CB
FILE: 12. Sendelica - Magical Ninin.flac
Size: 62626130 Hash: FEDF1D29C41B4A92A21B6356C2ABE23C Accuracy: -m0
Conclusion: CDDA 100%
Signature: C81006D2291EC52B878E4DDDFBBFFA04DC2FEB92

Скриншот спектра частот

To download the file disable ad blocking, and reload the page.

disable adblock How to disable ad blocking?

Download by magnet link 514 MB Download Torrent

Login using:

Similar topics



   
Current time is: 15-Nov 22:25 :: All times are UTC + 3