Various Artists - Prog P3: The Butterfly Effect
--Жанр: Progressive Rock
Носитель: CD
производитель диска: EU
Год издания: 2012
Издатель (лейбл): Future
Аудиокодек: FLAC (*.flac)
Тип рипа: tracks+.cue
Битрейт аудио: lossless
Продолжительность: 01:07:26
Источник: internet
Наличие сканов : да
Треклист:
01. Arjen Lucassen - Lost In The New Real [00:10:21]
02. Coralspin - Sons Of The Sleeping Giant [00:07:00]
03. Dead Sea Apes - Ruckstor Gondoliore [00:07:48]
04. Freedom To Glide - Rain, Part 1 [00:04:53]
05. Indrek Patte - Mount Meggido [00:08:37]
06. Jess And The Ancient Ones - Ghostriders [00:07:13]
07. Sweet Billy Pilgrim - Archaeology [00:05:21]
08. Ordinary Brainwash - Unbirthday [00:07:38]
09. Galahad - Seize The Day [00:08:32]

-

Лог создания рипа

Exact Audio Copy V1.0 beta 3 from 29. August 2011
EAC extraction logfile from 4. May 2013, 17:39
Various Artists / Prog - P3: The Butterfly Effect
Used drive : TSSTcorpCDDVDW SH-224BB Adapter: 1 ID: 0
Read mode : Secure
Utilize accurate stream : Yes
Defeat audio cache : Yes
Make use of C2 pointers : No
Read offset correction : 6
Overread into Lead-In and Lead-Out : No
Fill up missing offset samples with silence : Yes
Delete leading and trailing silent blocks : No
Null samples used in CRC calculations : Yes
Used interface : Native Win32 interface for Win NT & 2000
Gap handling : Appended to previous track
Used output format : User Defined Encoder
Selected bitrate : 896 kBit/s
Quality : High
Add ID3 tag : No
Command line compressor : C:\Program Files (x86)\FLAC\flac.exe
Additional command line options : -8 -V -T "artist=%artist%" -T "albumartist=%albumartist%" -T "album=%albumtitle%" -T "title=%title%" -T "year=%year%" -T "tracknumber=%tracknr2%" -T "genre=%genre%" %source% -o %dest%
TOC of the extracted CD
Track | Start | Length | Start sector | End sector
---------------------------------------------------------
1 | 0:00.00 | 10:21.29 | 0 | 46603
2 | 10:21.29 | 7:00.09 | 46604 | 78112
3 | 17:21.38 | 7:48.38 | 78113 | 113250
4 | 25:10.01 | 4:53.37 | 113251 | 135262
5 | 30:03.38 | 8:37.12 | 135263 | 174049
6 | 38:40.50 | 7:13.01 | 174050 | 206525
7 | 45:53.51 | 5:21.13 | 206526 | 230613
8 | 51:14.64 | 7:38.57 | 230614 | 265020
9 | 58:53.46 | 8:32.41 | 265021 | 303461
Track 1
Filename F:\My Documents\My Music\Albums (Complete)\01. Arjen Lucassen - Lost In The New Real.wav
Pre-gap length 0:00:02.00
Peak level 98.4 %
Extraction speed 2.1 X
Track quality 100.0 %
Test CRC D96DC764
Copy CRC D96DC764
Track not present in AccurateRip database
Copy OK
Track 2
Filename F:\My Documents\My Music\Albums (Complete)\02. Coralspin - Sons Of The Sleeping Giant.wav
Pre-gap length 0:00:02.00
Peak level 100.0 %
Extraction speed 2.4 X
Track quality 100.0 %
Test CRC FFBFA331
Copy CRC FFBFA331
Track not present in AccurateRip database
Copy OK
Track 3
Filename F:\My Documents\My Music\Albums (Complete)\03. Dead Sea Apes - Ruckstor Gondoliore.wav
Pre-gap length 0:00:02.00
Peak level 98.8 %
Extraction speed 2.7 X
Track quality 100.0 %
Test CRC BA912FA4
Copy CRC BA912FA4
Track not present in AccurateRip database
Copy OK
Track 4
Filename F:\My Documents\My Music\Albums (Complete)\04. Freedom To Glide - Rain, Part 1.wav
Pre-gap length 0:00:02.00
Peak level 91.9 %
Extraction speed 3.2 X
Track quality 99.9 %
Test CRC 38717FB5
Copy CRC 38717FB5
Track not present in AccurateRip database
Copy OK
Track 5
Filename F:\My Documents\My Music\Albums (Complete)\05. Indrek Patte - Mount Meggido.wav
Pre-gap length 0:00:02.00
Peak level 97.2 %
Extraction speed 3.1 X
Track quality 100.0 %
Test CRC 48E0BA2B
Copy CRC 48E0BA2B
Track not present in AccurateRip database
Copy OK
Track 6
Filename F:\My Documents\My Music\Albums (Complete)\06. Jess And The Ancient Ones - Ghostriders.wav
Pre-gap length 0:00:02.00
Peak level 97.1 %
Extraction speed 3.4 X
Track quality 100.0 %
Test CRC 8F1C3B21
Copy CRC 8F1C3B21
Track not present in AccurateRip database
Copy OK
Track 7
Filename F:\My Documents\My Music\Albums (Complete)\07. Sweet Billy Pilgrim - Archaeology.wav
Pre-gap length 0:00:02.00
Peak level 98.8 %
Extraction speed 3.4 X
Track quality 100.0 %
Test CRC 3FA90100
Copy CRC 3FA90100
Track not present in AccurateRip database
Copy OK
Track 8
Filename F:\My Documents\My Music\Albums (Complete)\08. Ordinary Brainwash - Unbirthday.wav
Pre-gap length 0:00:02.00
Peak level 99.9 %
Extraction speed 3.7 X
Track quality 100.0 %
Test CRC CA9105BC
Copy CRC CA9105BC
Track not present in AccurateRip database
Copy OK
Track 9
Filename F:\My Documents\My Music\Albums (Complete)\09. Galahad - Seize The Day.wav
Pre-gap length 0:00:02.00
Peak level 96.6 %
Extraction speed 3.9 X
Track quality 100.0 %
Test CRC AA8A9043
Copy CRC AA8A9043
Track not present in AccurateRip database
Copy OK
None of the tracks are present in the AccurateRip database
No errors occurred
End of status report
==== Log checksum 79E7D540B4E53FB50D9BA35D7DCB0BD89D085307F431A46DC9C407D8F5385C61 ====

Содержание индексной карты (.CUE)

REM GENRE "Progressive Rock"
REM DATE 2012
REM DISCID 680FCE09
REM COMMENT "ExactAudioCopy v1.0b3"
PERFORMER "Various Artists"
TITLE "Prog - P3: The Butterfly Effect"
FILE "01. Arjen Lucassen - Lost In The New Real.wav" WAVE
TRACK 01 AUDIO
TITLE "Lost In The New Real"
PERFORMER "Arjen Lucassen"
INDEX 01 00:00:00
TRACK 02 AUDIO
TITLE "Sons Of The Sleeping Giant"
PERFORMER "Coralspin"
INDEX 00 10:19:29
FILE "02. Coralspin - Sons Of The Sleeping Giant.wav" WAVE
INDEX 01 00:00:00
TRACK 03 AUDIO
TITLE "Ruckstor Gondoliore"
PERFORMER "Dead Sea Apes"
INDEX 00 06:58:09
FILE "03. Dead Sea Apes - Ruckstor Gondoliore.wav" WAVE
INDEX 01 00:00:00
TRACK 04 AUDIO
TITLE "Rain, Part 1"
PERFORMER "Freedom To Glide"
INDEX 00 07:46:38
FILE "04. Freedom To Glide - Rain, Part 1.wav" WAVE
INDEX 01 00:00:00
TRACK 05 AUDIO
TITLE "Mount Meggido"
PERFORMER "Indrek Patte"
INDEX 00 04:51:37
FILE "05. Indrek Patte - Mount Meggido.wav" WAVE
INDEX 01 00:00:00
TRACK 06 AUDIO
TITLE "Ghostriders"
PERFORMER "Jess And The Ancient Ones"
INDEX 00 08:35:12
FILE "06. Jess And The Ancient Ones - Ghostriders.wav" WAVE
INDEX 01 00:00:00
TRACK 07 AUDIO
TITLE "Archaeology"
PERFORMER "Sweet Billy Pilgrim"
INDEX 00 07:11:01
FILE "07. Sweet Billy Pilgrim - Archaeology.wav" WAVE
INDEX 01 00:00:00
TRACK 08 AUDIO
TITLE "Unbirthday"
PERFORMER "Ordinary Brainwash"
INDEX 00 05:19:13
FILE "08. Ordinary Brainwash - Unbirthday.wav" WAVE
INDEX 01 00:00:00
TRACK 09 AUDIO
TITLE "Seize The Day"
PERFORMER "Galahad"
INDEX 00 07:36:57
FILE "09. Galahad - Seize The Day.wav" WAVE
INDEX 01 00:00:00

Лог проверки качества

-----------------------
DON'T MODIFY THIS FILE
-----------------------
PERFORMER: auCDtect Task Manager, ver. 1.5.1RC6 build 1.5.1.7
Copyright (c) 2008-2010 y-soft. All rights reserved
http://y-soft.org
ANALYZER: auCDtect: CD records authenticity detector, version 0.8.2
Copyright (c) 2004 Oleg Berngardt. All rights reserved.
Copyright (c) 2004 Alexander Djourik. All rights reserved.
FILE: 09. Galahad - Seize The Day.flac
Size: 60175063 Hash: F7EB4FF2CBBB01CCAF8047B13B05BEF0 Accuracy: -m0
Conclusion: CDDA 100%
Signature: 4FF22719099D552111ACCE31F16BAE06498D7854
FILE: 08. Ordinary Brainwash - Unbirthday.flac
Size: 50763438 Hash: 803F0CF97D10AD3A30DD3A56A80E8684 Accuracy: -m0
Conclusion: CDDA 100%
Signature: 2385F19B9526185085986A3D833508F20BC38399
FILE: 07. Sweet Billy Pilgrim - Archaeology.flac
Size: 38018464 Hash: B937DF5939B51A8F37D1F62F95C5D079 Accuracy: -m0
Conclusion: CDDA 100%
Signature: A0F0CB00549204C19405359CB4ECBB7FE13253BF
FILE: 06. Jess And The Ancient Ones - Ghostriders.flac
Size: 51683764 Hash: BA31AA3866343C4D7E658850D16AC973 Accuracy: -m0
Conclusion: CDDA 100%
Signature: FE60C093A72A2A32C072C3366921DAD4C9B98572
FILE: 05. Indrek Patte - Mount Meggido.flac
Size: 63813352 Hash: 1C1B70CCA51EE6AE08280A7E45161F03 Accuracy: -m0
Conclusion: CDDA 100%
Signature: E2ADFAF92E62FED75AA3A9E5924D4F18DCA07CAE
FILE: 04. Freedom To Glide - Rain, Part 1.flac
Size: 30525391 Hash: F76DC3363996DF2B22BD629AF380D3C7 Accuracy: -m0
Conclusion: CDDA 100%
Signature: F438DEBA715C9FFB2B55652F5EC9DF30F82E2666
FILE: 03. Dead Sea Apes - Ruckstor Gondoliore.flac
Size: 43113726 Hash: F9D180C803AC6A8876970D863E7CF603 Accuracy: -m0
Conclusion: CDDA 100%
Signature: 3ED77CC0E35A5D30FC52477A86F50C1DFD83AE50
FILE: 02. Coralspin - Sons Of The Sleeping Giant.flac
Size: 54964944 Hash: 5CBCF5C41E75DF5C157DE6040B631DE3 Accuracy: -m0
Conclusion: CDDA 100%
Signature: F4C81BCC3E67041E60712AC53701F211AE825F96
FILE: 01. Arjen Lucassen - Lost In The New Real.flac
Size: 70866410 Hash: A2C551AFA34CD23BD36495AF0D5F8006 Accuracy: -m0
Conclusion: CDDA 99%
Signature: F01B06C46B7FEDCF4895DE66064602443200BA98

Скриншот спектра частот

To download the file disable ad blocking, and reload the page.

disable adblock How to disable ad blocking?

Download by magnet link 445 MB Download Torrent

Login using:

Similar topics



   
Current time is: 20-Nov 14:11 :: All times are UTC + 3