Various Artists - Prog - P2: Stormwatch
--Жанр: Progressive Rock
Носитель: CD
производитель диска: EU
Год издания: 2012
Издатель (лейбл): Future
Аудиокодек: FLAC (*.flac)
Тип рипа: tracks + .cue
Битрейт аудио: lossless
Продолжительность: 01:14:01
Источник : internet
Наличие сканов : да

01. Pendragon - This Green And Pleasant Land [00:13:15]
02. Tin Spirits - And Go [00:08:34]
03. Sanguine Hum - Nothing Between Us [00:06:11]
04. Lorenzo Feliciati - Law And Order [00:02:39]
05. Hawkwind - Seasons [00:05:42]
06. Motorpsycho and Ståle Storløkken - The Hollow Lands (Edit) [00:07:20]
07. Hand - The Pier [00:05:54]
08. Haken - Deathless [00:06:50]
09. Cosmograf - Bakerlite Switch [00:07:38]
10. Jack Arthurs - The Peacock Garden [00:04:35]
11. Bill Grogan's Goat - Cam Ye O'Er Frae France [00:05:18]

-

Лог создания рипа

Exact Audio Copy V1.0 beta 3 from 29. August 2011
EAC extraction logfile from 4. May 2013, 16:45
Various Artists / Prog - P2: Stormwatch
Used drive : TSSTcorpCDDVDW SH-224BB Adapter: 1 ID: 0
Read mode : Secure
Utilize accurate stream : Yes
Defeat audio cache : Yes
Make use of C2 pointers : No
Read offset correction : 6
Overread into Lead-In and Lead-Out : No
Fill up missing offset samples with silence : Yes
Delete leading and trailing silent blocks : No
Null samples used in CRC calculations : Yes
Used interface : Native Win32 interface for Win NT & 2000
Gap handling : Appended to previous track
Used output format : User Defined Encoder
Selected bitrate : 896 kBit/s
Quality : High
Add ID3 tag : No
Command line compressor : C:\Program Files (x86)\FLAC\flac.exe
Additional command line options : -8 -V -T "artist=%artist%" -T "albumartist=%albumartist%" -T "album=%albumtitle%" -T "title=%title%" -T "year=%year%" -T "tracknumber=%tracknr2%" -T "genre=%genre%" %source% -o %dest%
TOC of the extracted CD
Track | Start | Length | Start sector | End sector
---------------------------------------------------------
1 | 0:00.00 | 13:15.61 | 0 | 59685
2 | 13:15.61 | 8:34.67 | 59686 | 98302
3 | 21:50.53 | 6:11.40 | 98303 | 126167
4 | 28:02.18 | 2:39.18 | 126168 | 138110
5 | 30:41.36 | 5:42.48 | 138111 | 163808
6 | 36:24.09 | 7:20.05 | 163809 | 196813
7 | 43:44.14 | 5:54.23 | 196814 | 223386
8 | 49:38.37 | 6:50.63 | 223387 | 254199
9 | 56:29.25 | 7:38.33 | 254200 | 288582
10 | 64:07.58 | 4:35.34 | 288583 | 309241
11 | 68:43.17 | 5:18.00 | 309242 | 333091
Track 1
Filename F:\My Documents\My Music\Albums (Complete)\01. Pendragon - This Green And Pleasant Land.wav
Pre-gap length 0:00:02.00
Peak level 100.0 %
Extraction speed 2.1 X
Track quality 99.9 %
Test CRC 58656986
Copy CRC 58656986
Accurately ripped (confidence 2) [584AD2F1] (AR v2)
Copy OK
Track 2
Filename F:\My Documents\My Music\Albums (Complete)\02. Tin Spirits - And Go.wav
Pre-gap length 0:00:01.74
Peak level 98.8 %
Extraction speed 2.4 X
Track quality 99.9 %
Test CRC 3908243E
Copy CRC 3908243E
Accurately ripped (confidence 2) [E98170DD] (AR v2)
Copy OK
Track 3
Filename F:\My Documents\My Music\Albums (Complete)\03. Sanguine Hum - Nothing Between Us.wav
Pre-gap length 0:00:01.74
Peak level 97.7 %
Extraction speed 2.5 X
Track quality 99.9 %
Test CRC 7621D304
Copy CRC 7621D304
Accurately ripped (confidence 2) [4538AF9C] (AR v2)
Copy OK
Track 4
Filename F:\My Documents\My Music\Albums (Complete)\04. Lorenzo Feliciati - Law And Order.wav
Pre-gap length 0:00:01.74
Peak level 96.6 %
Extraction speed 2.7 X
Track quality 100.0 %
Test CRC 14DF1761
Copy CRC 14DF1761
Accurately ripped (confidence 2) [4364BCD6] (AR v2)
Copy OK
Track 5
Filename F:\My Documents\My Music\Albums (Complete)\05. Hawkwind - Seasons.wav
Pre-gap length 0:00:01.74
Peak level 97.7 %
Extraction speed 2.6 X
Track quality 99.9 %
Test CRC AA19F77D
Copy CRC AA19F77D
Accurately ripped (confidence 2) [8A10A868] (AR v2)
Copy OK
Track 6
Filename F:\My Documents\My Music\Albums (Complete)\06. Motorpsycho and Ståle Storløkken - The Hollow Lands (Edit).wav
Pre-gap length 0:00:01.74
Peak level 99.6 %
Extraction speed 3.3 X
Track quality 100.0 %
Test CRC 8135DF01
Copy CRC 8135DF01
Accurately ripped (confidence 2) [3316363C] (AR v2)
Copy OK
Track 7
Filename F:\My Documents\My Music\Albums (Complete)\07. Hand - The Pier.wav
Pre-gap length 0:00:01.74
Peak level 93.2 %
Extraction speed 3.5 X
Track quality 100.0 %
Test CRC AECBDCA3
Copy CRC AECBDCA3
Accurately ripped (confidence 2) [2DD4779B] (AR v2)
Copy OK
Track 8
Filename F:\My Documents\My Music\Albums (Complete)\08. Haken - Deathless.wav
Pre-gap length 0:00:01.74
Peak level 98.8 %
Extraction speed 3.7 X
Track quality 100.0 %
Test CRC 80D67CE2
Copy CRC 80D67CE2
Accurately ripped (confidence 2) [317D2D96] (AR v2)
Copy OK
Track 9
Filename F:\My Documents\My Music\Albums (Complete)\09. Cosmograf - Bakerlite Switch.wav
Pre-gap length 0:00:01.74
Peak level 99.4 %
Extraction speed 3.9 X
Track quality 100.0 %
Test CRC 30D1A2A3
Copy CRC 30D1A2A3
Accurately ripped (confidence 2) [B7F70BF0] (AR v2)
Copy OK
Track 10
Filename F:\My Documents\My Music\Albums (Complete)\10. Jack Arthurs - The Peacock Garden.wav
Pre-gap length 0:00:01.74
Peak level 96.8 %
Extraction speed 3.8 X
Track quality 100.0 %
Test CRC E741C1A3
Copy CRC E741C1A3
Accurately ripped (confidence 2) [86064081] (AR v2)
Copy OK
Track 11
Filename F:\My Documents\My Music\Albums (Complete)\11. Bill Grogan's Goat - Cam Ye O'Er Frae France.wav
Pre-gap length 0:00:01.74
Peak level 96.6 %
Extraction speed 4.0 X
Track quality 100.0 %
Test CRC E74FEE15
Copy CRC E74FEE15
Accurately ripped (confidence 2) [7BD4F78E] (AR v2)
Copy OK
All tracks accurately ripped
No errors occurred
End of status report
==== Log checksum A32F3CD49234890A75A6CBAFB07E45FAA26CC29D9FA49BA6FFD5119F28BED758 ====

Содержание индексной карты (.CUE)

REM GENRE "Progressive Rock"
REM DATE 2012
REM DISCID AB11590B
REM COMMENT "ExactAudioCopy v1.0b3"
PERFORMER "Various Artists"
TITLE "Prog - P2: Stormwatch"
FILE "01. Pendragon - This Green And Pleasant Land.wav" WAVE
TRACK 01 AUDIO
TITLE "This Green And Pleasant Land"
PERFORMER "Pendragon"
INDEX 01 00:00:00
TRACK 02 AUDIO
TITLE "And Go"
PERFORMER "Tin Spirits"
INDEX 00 13:13:62
FILE "02. Tin Spirits - And Go.wav" WAVE
INDEX 01 00:00:00
TRACK 03 AUDIO
TITLE "Nothing Between Us"
PERFORMER "Sanguine Hum"
INDEX 00 08:32:68
FILE "03. Sanguine Hum - Nothing Between Us.wav" WAVE
INDEX 01 00:00:00
TRACK 04 AUDIO
TITLE "Law And Order"
PERFORMER "Lorenzo Feliciati"
INDEX 00 06:09:41
FILE "04. Lorenzo Feliciati - Law And Order.wav" WAVE
INDEX 01 00:00:00
TRACK 05 AUDIO
TITLE "Seasons"
PERFORMER "Hawkwind"
INDEX 00 02:37:19
FILE "05. Hawkwind - Seasons.wav" WAVE
INDEX 01 00:00:00
TRACK 06 AUDIO
TITLE "The Hollow Lands (Edit)"
PERFORMER "Motorpsycho and Stеle Storlшkken"
INDEX 00 05:40:49
FILE "06. Motorpsycho and Stеle Storlшkken - The Hollow Lands (Edit).wav" WAVE
INDEX 01 00:00:00
TRACK 07 AUDIO
TITLE "The Pier"
PERFORMER "Hand"
INDEX 00 07:18:06
FILE "07. Hand - The Pier.wav" WAVE
INDEX 01 00:00:00
TRACK 08 AUDIO
TITLE "Deathless"
PERFORMER "Haken"
INDEX 00 05:52:24
FILE "08. Haken - Deathless.wav" WAVE
INDEX 01 00:00:00
TRACK 09 AUDIO
TITLE "Bakerlite Switch"
PERFORMER "Cosmograf"
INDEX 00 06:48:64
FILE "09. Cosmograf - Bakerlite Switch.wav" WAVE
INDEX 01 00:00:00
TRACK 10 AUDIO
TITLE "The Peacock Garden"
PERFORMER "Jack Arthurs"
INDEX 00 07:36:34
FILE "10. Jack Arthurs - The Peacock Garden.wav" WAVE
INDEX 01 00:00:00
TRACK 11 AUDIO
TITLE "Cam Ye O'Er Frae France?"
PERFORMER "Bill Grogan's Goat"
INDEX 00 04:33:35
FILE "11. Bill Grogan's Goat - Cam Ye O'Er Frae France.wav" WAVE
INDEX 01 00:00:00

Лог проверки качества

-----------------------
DON'T MODIFY THIS FILE
-----------------------
PERFORMER: auCDtect Task Manager, ver. 1.5.1RC6 build 1.5.1.7
Copyright (c) 2008-2010 y-soft. All rights reserved
http://y-soft.org
ANALYZER: auCDtect: CD records authenticity detector, version 0.8.2
Copyright (c) 2004 Oleg Berngardt. All rights reserved.
Copyright (c) 2004 Alexander Djourik. All rights reserved.
FILE: 11. Bill Grogan's Goat - Cam Ye O'Er Frae France.flac
Size: 35090164 Hash: 2F74289F6C0672C98D584EA4FC1BFA60 Accuracy: -m0
Conclusion: CDDA 99%
Signature: 71471BF3B3B5EF4A1F9C6C31D3848C8F057B7CD3
FILE: 10. Jack Arthurs - The Peacock Garden.flac
Size: 27805664 Hash: E33CD94FB1588D8F40065CD9DB74BF1E Accuracy: -m0
Conclusion: CDDA 100%
Signature: 44610A4739248080575249025D3E2758A82D2A79
FILE: 09. Cosmograf - Bakerlite Switch.flac
Size: 55282381 Hash: 10352B8AF75DBBA81EB7001C9CA58408 Accuracy: -m0
Conclusion: CDDA 100%
Signature: F476B0A0F10F43777060C9FF11DF42A5B8177B28
FILE: 08. Haken - Deathless.flac
Size: 43482318 Hash: B9D84B90685A797F0CAE06005E4C4017 Accuracy: -m0
Conclusion: CDDA 100%
Signature: 0E96CF34BC1E63E5720350A197760F68F5C25E96
FILE: 07. Hand - The Pier.flac
Size: 42544275 Hash: 5CCBDCFD80536D37445E2CEB89006D72 Accuracy: -m0
Conclusion: CDDA 100%
Signature: CEC45C3397971CD64DC11AF6DD15A4082AD2D919
FILE: 06. Motorpsycho and Ståle Storløkken - The Hollow Lands (Edit).flac
Size: 51234848 Hash: 59923A5FBE10A8F60634D15EE8D633C6 Accuracy: -m0
Conclusion: CDDA 100%
Signature: 2C57F842B9DE9C4557B955EA59824323F943D40E
FILE: 05. Hawkwind - Seasons.flac
Size: 43878540 Hash: 480D46DF1AB93DE3961DB3919C5B0289 Accuracy: -m0
Conclusion: CDDA 100%
Signature: A63E0C88E723F9FA35B051C1FA16C7E2821A60D9
FILE: 04. Lorenzo Feliciati - Law And Order.flac
Size: 18697450 Hash: C2D9D3AE58B55E8AD8393278D18B017F Accuracy: -m0
Conclusion: CDDA 100%
Signature: AD9C3F544CBEEFF35D79FA7801B500EDE3B40421
FILE: 03. Sanguine Hum - Nothing Between Us.flac
Size: 44845421 Hash: 310F98D2FF3877F4DD21BF99CB913599 Accuracy: -m0
Conclusion: CDDA 100%
Signature: C44FD130C6BF5107B477E4BB77748801E3C3BC97
FILE: 02. Tin Spirits - And Go.flac
Size: 61167945 Hash: FD2C66B803080A97756B70C595172FC9 Accuracy: -m0
Conclusion: CDDA 99%
Signature: 037E161AF4006C17D31EE359A58FAD87BF22A13A
FILE: 01. Pendragon - This Green And Pleasant Land.flac
Size: 96224924 Hash: 1C3E196F3ABCCD209B5E4A293CB71797 Accuracy: -m0
Conclusion: MPEG 95%
Signature: 49EDADD15130C64C43F88B6B3310D423D1F9272F

Скриншот спектра частот

To download the file disable ad blocking, and reload the page.

disable adblock How to disable ad blocking?

Download by magnet link 499 MB Download Torrent

Login using:

Similar topics



   
Current time is: 20-Nov 14:30 :: All times are UTC + 3