Various Artists - Prog P1: A New Day Yesterday
--Жанр: Progressive Rock | Various Genres
Носитель: CD
производитель диска: EU
Год издания: 2012
Издатель (лейбл): Future
Аудиокодек: FLAC (*.flac)
Тип рипа: tracks+.cue
Битрейт аудио: lossless
Продолжительность: 01:17:57
Источник (релизер): inernet
Наличие сканов : да
Треклист:
01. Citizen Cain - The Hunting Of Johnny Eue [00:12:01]
02. El Doom and The Born Electric - Fire Don't Know [00:09:36]
03. Gandalf's Fist - Into The Dark (Containing 'Emerald Eyes' Reprise) [00:07:27]
04. It Bites - Wallflower [00:04:52]
05. Lord Of Mushrooms - Grace (Dedicated To...) [00:07:22]
06. Lyrian - A Warning To Angels [00:06:23]
07. No-Man - Lighthouse [00:08:22]
08. Paul Cusick - Borderlines [00:11:33]
09. The Future Kings Of England - A Face Of Crumpled Linen [00:10:17]

-

Лог создания рипа

Exact Audio Copy V1.0 beta 3 from 29. August 2011
EAC extraction logfile from 4. May 2013, 15:40
Various Artists / Prog - P1: A New Day Yesterday
Used drive : TSSTcorpCDDVDW SH-224BB Adapter: 1 ID: 0
Read mode : Secure
Utilize accurate stream : Yes
Defeat audio cache : Yes
Make use of C2 pointers : No
Read offset correction : 6
Overread into Lead-In and Lead-Out : No
Fill up missing offset samples with silence : Yes
Delete leading and trailing silent blocks : No
Null samples used in CRC calculations : Yes
Used interface : Native Win32 interface for Win NT & 2000
Gap handling : Appended to previous track
Used output format : User Defined Encoder
Selected bitrate : 896 kBit/s
Quality : High
Add ID3 tag : No
Command line compressor : C:\Program Files (x86)\FLAC\flac.exe
Additional command line options : -8 -V -T "artist=%artist%" -T "albumartist=%albumartist%" -T "album=%albumtitle%" -T "title=%title%" -T "year=%year%" -T "tracknumber=%tracknr2%" -T "genre=%genre%" %source% -o %dest%
TOC of the extracted CD
Track | Start | Length | Start sector | End sector
---------------------------------------------------------
1 | 0:00.00 | 12:01.04 | 0 | 54078
2 | 12:01.04 | 9:36.67 | 54079 | 97345
3 | 21:37.71 | 7:27.05 | 97346 | 130875
4 | 29:05.01 | 4:52.60 | 130876 | 152835
5 | 33:57.61 | 7:22.61 | 152836 | 186046
6 | 41:20.47 | 6:23.14 | 186047 | 214785
7 | 47:43.61 | 8:22.49 | 214786 | 252484
8 | 56:06.35 | 11:33.11 | 252485 | 304470
9 | 67:39.46 | 10:17.50 | 304471 | 350795
Track 1
Filename F:\My Documents\My Music\Albums (Complete)\01. Citizen Cain - The Hunting Of Johnny Eue.wav
Pre-gap length 0:00:02.00
Peak level 100.0 %
Extraction speed 2.3 X
Track quality 100.0 %
Test CRC F84CA005
Copy CRC F84CA005
Accurately ripped (confidence 2) [3AE2DCB0] (AR v2)
Copy OK
Track 2
Filename F:\My Documents\My Music\Albums (Complete)\02. El Doom and The Born Electric - Fire Don't Know.wav
Peak level 100.0 %
Extraction speed 2.7 X
Track quality 100.0 %
Test CRC 6FFD8699
Copy CRC 6FFD8699
Accurately ripped (confidence 2) [6F8E8C1D] (AR v2)
Copy OK
Track 3
Filename F:\My Documents\My Music\Albums (Complete)\03. Gandalf's Fist - Into The Dark (Containing 'Emerald Eyes' Reprise).wav
Peak level 96.9 %
Extraction speed 3.0 X
Track quality 100.0 %
Test CRC 446598AE
Copy CRC 446598AE
Accurately ripped (confidence 2) [257BE03C] (AR v2)
Copy OK
Track 4
Filename F:\My Documents\My Music\Albums (Complete)\04. It Bites - Wallflower.wav
Peak level 100.0 %
Extraction speed 2.5 X
Track quality 99.9 %
Test CRC 9B818AFB
Copy CRC 9B818AFB
Accurately ripped (confidence 2) [BC16C6B7] (AR v2)
Copy OK
Track 5
Filename F:\My Documents\My Music\Albums (Complete)\05. Lord Of Mushrooms - Grace (Dedicated To...).wav
Peak level 99.4 %
Extraction speed 3.4 X
Track quality 100.0 %
Test CRC 6145C88A
Copy CRC 6145C88A
Accurately ripped (confidence 2) [FF17C1AD] (AR v2)
Copy OK
Track 6
Filename F:\My Documents\My Music\Albums (Complete)\06. Lyrian - A Warning To Angels.wav
Peak level 100.0 %
Extraction speed 3.5 X
Track quality 100.0 %
Test CRC 1E9455EE
Copy CRC 1E9455EE
Accurately ripped (confidence 2) [7BAA566D] (AR v2)
Copy OK
Track 7
Filename F:\My Documents\My Music\Albums (Complete)\07. No-Man - Lighthouse.wav
Peak level 98.8 %
Extraction speed 3.2 X
Track quality 99.9 %
Test CRC FD7A5A51
Copy CRC FD7A5A51
Accurately ripped (confidence 2) [A50E356C] (AR v2)
Copy OK
Track 8
Filename F:\My Documents\My Music\Albums (Complete)\08. Paul Cusick - Borderlines.wav
Peak level 96.6 %
Extraction speed 4.1 X
Track quality 100.0 %
Test CRC 14A58EB0
Copy CRC 14A58EB0
Accurately ripped (confidence 2) [BB1F0236] (AR v2)
Copy OK
Track 9
Filename F:\My Documents\My Music\Albums (Complete)\09. The Future Kings Of England - A Face Of Crumpled Linen.wav
Peak level 99.3 %
Extraction speed 4.4 X
Track quality 100.0 %
Test CRC 9CF810FA
Copy CRC 9CF810FA
Accurately ripped (confidence 2) [9BAFCD99] (AR v2)
Copy OK
All tracks accurately ripped
No errors occurred
End of status report
==== Log checksum 5DCDE07056FAF4D245B2F507D62F6A706D4769013193E905DA05D4DAA104DB02 ====

Содержание индексной карты (.CUE)

REM GENRE "Progressive Rock"
REM DATE 2012
REM DISCID 88124509
REM COMMENT "ExactAudioCopy v1.0b3"
PERFORMER "Various Artists"
TITLE "Prog - P1: A New Day Yesterday"
FILE "01. Citizen Cain - The Hunting Of Johnny Eue.wav" WAVE
TRACK 01 AUDIO
TITLE "The Hunting Of Johnny Eue"
PERFORMER "Citizen Cain"
INDEX 01 00:00:00
FILE "02. El Doom and The Born Electric - Fire Don't Know.wav" WAVE
TRACK 02 AUDIO
TITLE "Fire Don't Know"
PERFORMER "El Doom and The Born Electric"
INDEX 01 00:00:00
FILE "03. Gandalf's Fist - Into The Dark (Containing 'Emerald Eyes' Reprise).wav" WAVE
TRACK 03 AUDIO
TITLE "Into The Dark (Containing 'Emerald Eyes' Reprise)"
PERFORMER "Gandalf's Fist"
INDEX 01 00:00:00
FILE "04. It Bites - Wallflower.wav" WAVE
TRACK 04 AUDIO
TITLE "Wallflower"
PERFORMER "It Bites"
INDEX 01 00:00:00
FILE "05. Lord Of Mushrooms - Grace (Dedicated To...).wav" WAVE
TRACK 05 AUDIO
TITLE "Grace (Dedicated To...)"
PERFORMER "Lord Of Mushrooms"
INDEX 01 00:00:00
FILE "06. Lyrian - A Warning To Angels.wav" WAVE
TRACK 06 AUDIO
TITLE "A Warning To Angels"
PERFORMER "Lyrian"
INDEX 01 00:00:00
FILE "07. No-Man - Lighthouse.wav" WAVE
TRACK 07 AUDIO
TITLE "Lighthouse"
PERFORMER "No-Man"
INDEX 01 00:00:00
FILE "08. Paul Cusick - Borderlines.wav" WAVE
TRACK 08 AUDIO
TITLE "Borderlines"
PERFORMER "Paul Cusick"
INDEX 01 00:00:00
FILE "09. The Future Kings Of England - A Face Of Crumpled Linen.wav" WAVE
TRACK 09 AUDIO
TITLE "A Face Of Crumpled Linen"
PERFORMER "The Future Kings Of England"
INDEX 01 00:00:00

Лог проверки качества

-----------------------
DON'T MODIFY THIS FILE
-----------------------
PERFORMER: auCDtect Task Manager, ver. 1.5.1RC6 build 1.5.1.7
Copyright (c) 2008-2010 y-soft. All rights reserved
http://y-soft.org
ANALYZER: auCDtect: CD records authenticity detector, version 0.8.2
Copyright (c) 2004 Oleg Berngardt. All rights reserved.
Copyright (c) 2004 Alexander Djourik. All rights reserved.
FILE: 09. The Future Kings Of England - A Face Of Crumpled Linen.flac
Size: 61311820 Hash: 9FFBB7A438105284929F41369D71B1F1 Accuracy: -m0
Conclusion: CDDA 100%
Signature: 2DFD3E15DED112010932C78EF869EB75C6D7B2EC
FILE: 08. Paul Cusick - Borderlines.flac
Size: 61186112 Hash: 3188E855AB96FE4BE36EF3303A00A682 Accuracy: -m0
Conclusion: CDDA 99%
Signature: FB2B3B57140225909F07982E754C6DE457B230E3
FILE: 07. No-Man - Lighthouse.flac
Size: 38702489 Hash: DF3CB35277FC64B72F969810BDB9E638 Accuracy: -m0
Conclusion: CDDA 100%
Signature: 0416A92E5D183B1BB8ED7427F17C2CF50AE9EBCE
FILE: 06. Lyrian - A Warning To Angels.flac
Size: 39904291 Hash: 41998C85CDE1122E2B6FEA41507CA329 Accuracy: -m0
Conclusion: CDDA 100%
Signature: 965BFDDC213E5B2DBE802DA85B5E261BB860517B
FILE: 05. Lord Of Mushrooms - Grace (Dedicated To...).flac
Size: 56039079 Hash: 6CF8DC899798444366EC3BE03FA68E37 Accuracy: -m0
Conclusion: CDDA 100%
Signature: 03A186FC395D00817FF8F215F319CA33C2891506
FILE: 04. It Bites - Wallflower.flac
Size: 37362075 Hash: 91463110549013881946B4F04B2D281D Accuracy: -m0
Conclusion: CDDA 100%
Signature: D4BC0DB664F8D097B88286794703EFC17438076B
FILE: 03. Gandalf's Fist - Into The Dark (Containing 'Emerald Eyes' Reprise).flac
Size: 52846191 Hash: 8F4DDE7D7351EEBA28072DB0FE8B1D28 Accuracy: -m0
Conclusion: CDDA 100%
Signature: FF1D1BE7CDF0BD6F12F4D355C3785E05E45E0655
FILE: 02. El Doom and The Born Electric - Fire Don't Know.flac
Size: 67870137 Hash: 2A64C1B8C0A904BB77CBCBAD97D89C87 Accuracy: -m0
Conclusion: CDDA 100%
Signature: E99B5455D701DF5B29E985EF9F6947B36CB06B62
FILE: 01. Citizen Cain - The Hunting Of Johnny Eue.flac
Size: 87940607 Hash: 95B096E90B97B78A28A9CE161542ECCA Accuracy: -m0
Conclusion: CDDA 100%
Signature: C29958F9DD5C0528845022B4C5D06811AC461991

Скриншот спектра частот

To download the file disable ad blocking, and reload the page.

disable adblock How to disable ad blocking?

Download by magnet link 481 MB Download Torrent

Login using:

Similar topics



   
Current time is: 16-Nov 00:33 :: All times are UTC + 3