VA - Nice & Easy 2
Жанр: Pop, Rock
Носитель: CD
Год издания: 1993
Издатель (лейбл): E.E.C.
Номер по каталогу: TCD-007
Аудиокодек: FLAC (*.flac)
Тип рипа: tracks+.cue
Битрейт аудио: lossless
Продолжительность: 1:12:26
Источник (релизер): oleandris
Наличие сканов в содержимом раздачи: да
Треклист:
01. Glenn Frey - The One You Love (4:36)
02. Phil Collins - Against All Odds (3:26)
03. Joe Cocker & Jennifer Warnes - Up Wheren We Belong (3:56)
04. Chicago - Hard To Say Im Sorry (3:50)
05. The Foreigner - Waiting For A Girl Like You (4:46)
06. The Eagles - I Cant Tell You Why (4:54)
07. Timothy B. Schmit - So Much In Love (2:17)
08. Cliff Richard - Daddys Home (2:59)
09. Spandau Ballet - True (5:33)
10. Dianna Ross & Lionel Richie - Endless Love (4:26)
11. Charlene - Ive Never Been To Me (3:52)
12. Stephen Bishop - It Might Be You (4:11)
13. Air Supply - Lost In Love (3:51)
14. Shakin' Stevens - Teardrops (3:56)
15. Shinji Tanimura - Subaru (4:34)
16. Christopher Cross - Arthurs Theme (3:54)
17. Ronnie Milsap - No Getting Over Me (3:17)
18. Kenny Rogers & Dolly Parton - Islands In The Stream (4:10)

Лог создания рипа

Exact Audio Copy V1.0 beta 3 from 29. August 2011
EAC extraction logfile from 18. December 2013, 18:03
Various / Nice And Easy 2
Used drive : PLEXTOR DVDR PX-891SA Adapter: 1 ID: 5
Read mode : Secure
Utilize accurate stream : Yes
Defeat audio cache : Yes
Make use of C2 pointers : No
Read offset correction : 6
Overread into Lead-In and Lead-Out : No
Fill up missing offset samples with silence : Yes
Delete leading and trailing silent blocks : No
Null samples used in CRC calculations : Yes
Used interface : Native Win32 interface for Win NT & 2000
Gap handling : Appended to previous track
Used output format : User Defined Encoder
Selected bitrate : 896 kBit/s
Quality : High
Add ID3 tag : No
Command line compressor : C:\Program Files (x86)\Exact Audio Copy\Flac\flac.exe
Additional command line options : -8 -V -T "ARTIST=%artist%" -T "TITLE=%title%" -T "ALBUM=%albumtitle%" -T "DATE=%year%" -T "TRACKNUMBER=%tracknr%" -T "GENRE=%genre%" -T "COMMENT=ripped by Oleandris" %source%
TOC of the extracted CD
Track | Start | Length | Start sector | End sector
---------------------------------------------------------
1 | 0:00.00 | 4:36.05 | 0 | 20704
2 | 4:36.05 | 3:26.35 | 20705 | 36189
3 | 8:02.40 | 3:55.65 | 36190 | 53879
4 | 11:58.30 | 3:49.65 | 53880 | 71119
5 | 15:48.20 | 4:45.45 | 71120 | 92539
6 | 20:33.65 | 4:54.05 | 92540 | 114594
7 | 25:27.70 | 2:17.15 | 114595 | 124884
8 | 27:45.10 | 2:59.02 | 124885 | 138311
9 | 30:44.12 | 5:32.73 | 138312 | 163284
10 | 36:17.10 | 4:25.42 | 163285 | 183201
11 | 40:42.52 | 3:52.25 | 183202 | 200626
12 | 44:35.02 | 4:11.13 | 200627 | 219464
13 | 48:46.15 | 3:50.47 | 219465 | 236761
14 | 52:36.62 | 3:55.40 | 236762 | 254426
15 | 56:32.27 | 4:33.38 | 254427 | 274939
16 | 61:05.65 | 3:54.25 | 274940 | 292514
17 | 65:00.15 | 3:16.40 | 292515 | 307254
18 | 68:16.55 | 4:09.70 | 307255 | 325999
Track 1
Filename F:\ЗАГРУЗКИ\ Nice & Easy 2 (1993)\01. Glenn Frey - The One You Love.wav
Pre-gap length 0:00:02.00
Peak level 89.9 %
Extraction speed 5.0 X
Track quality 100.0 %
Test CRC 25E37BF6
Copy CRC 25E37BF6
Track not present in AccurateRip database
Copy OK
Track 2
Filename F:\ЗАГРУЗКИ\ Nice & Easy 2 (1993)\02. Phil Collins - Against All Odds.wav
Pre-gap length 0:00:03.53
Peak level 94.3 %
Extraction speed 4.3 X
Track quality 99.9 %
Test CRC 6A38A76D
Copy CRC 6A38A76D
Track not present in AccurateRip database
Copy OK
Track 3
Filename F:\ЗАГРУЗКИ\ Nice & Easy 2 (1993)\03. Joe Cocker & Jennifer Warnes - Up Wheren We Belong.wav
Pre-gap length 0:00:02.33
Peak level 92.9 %
Extraction speed 5.7 X
Track quality 100.0 %
Test CRC 6719C4B0
Copy CRC 6719C4B0
Track not present in AccurateRip database
Copy OK
Track 4
Filename F:\ЗАГРУЗКИ\ Nice & Easy 2 (1993)\04. Chicago - Hard To Say Im Sorry.wav
Pre-gap length 0:00:03.18
Peak level 100.0 %
Extraction speed 6.0 X
Track quality 100.0 %
Test CRC 6D0796D7
Copy CRC 6D0796D7
Track not present in AccurateRip database
Copy OK
Track 5
Filename F:\ЗАГРУЗКИ\ Nice & Easy 2 (1993)\05. The Foreigner - Waiting For A Girl Like You.wav
Pre-gap length 0:00:02.68
Peak level 92.0 %
Extraction speed 6.6 X
Track quality 100.0 %
Test CRC 31E43DAD
Copy CRC 31E43DAD
Track not present in AccurateRip database
Copy OK
Track 6
Filename F:\ЗАГРУЗКИ\ Nice & Easy 2 (1993)\06. The Eagles - I Cant Tell You Why.wav
Pre-gap length 0:00:02.45
Peak level 98.2 %
Extraction speed 7.0 X
Track quality 100.0 %
Test CRC 374712E3
Copy CRC 374712E3
Track not present in AccurateRip database
Copy OK
Track 7
Filename F:\ЗАГРУЗКИ\ Nice & Easy 2 (1993)\07. Timothy B. Schmit - So Much In Love.wav
Pre-gap length 0:00:07.33
Peak level 92.1 %
Extraction speed 6.5 X
Track quality 100.0 %
Test CRC ABE3B19A
Copy CRC ABE3B19A
Track not present in AccurateRip database
Copy OK
Track 8
Filename F:\ЗАГРУЗКИ\ Nice & Easy 2 (1993)\08. Cliff Richard - Daddys Home.wav
Pre-gap length 0:00:00.55
Peak level 88.6 %
Extraction speed 7.0 X
Track quality 100.0 %
Test CRC 5E19C590
Copy CRC 5E19C590
Track not present in AccurateRip database
Copy OK
Track 9
Filename F:\ЗАГРУЗКИ\ Nice & Easy 2 (1993)\09. Spandau Ballet - True.wav
Pre-gap length 0:00:01.20
Peak level 98.5 %
Extraction speed 6.7 X
Track quality 99.9 %
Test CRC 57CD9B5F
Copy CRC 57CD9B5F
Track not present in AccurateRip database
Copy OK
Track 10
Filename F:\ЗАГРУЗКИ\ Nice & Easy 2 (1993)\10. Dianna Ross & Lionel Richie - Endless Love.wav
Pre-gap length 0:00:01.05
Peak level 88.5 %
Extraction speed 8.0 X
Track quality 100.0 %
Test CRC DF12773E
Copy CRC DF12773E
Track not present in AccurateRip database
Copy OK
Track 11
Filename F:\ЗАГРУЗКИ\ Nice & Easy 2 (1993)\11. Charlene - Ive Never Been To Me.wav
Pre-gap length 0:00:02.12
Peak level 90.4 %
Extraction speed 8.2 X
Track quality 100.0 %
Test CRC 3934BFDA
Copy CRC 3934BFDA
Track not present in AccurateRip database
Copy OK
Track 12
Filename F:\ЗАГРУЗКИ\ Nice & Easy 2 (1993)\12. Stephen Bishop - It Might Be You.wav
Pre-gap length 0:00:01.72
Peak level 95.7 %
Extraction speed 8.5 X
Track quality 100.0 %
Test CRC EB6B111E
Copy CRC EB6B111E
Track not present in AccurateRip database
Copy OK
Track 13
Filename F:\ЗАГРУЗКИ\ Nice & Easy 2 (1993)\13. Air Supply - Lost In Love.wav
Pre-gap length 0:00:01.53
Peak level 95.9 %
Extraction speed 8.5 X
Track quality 100.0 %
Test CRC 6195C7D0
Copy CRC 6195C7D0
Track not present in AccurateRip database
Copy OK
Track 14
Filename F:\ЗАГРУЗКИ\ Nice & Easy 2 (1993)\14. Shakin' Stevens - Teardrops.wav
Pre-gap length 0:00:01.60
Peak level 97.0 %
Extraction speed 8.9 X
Track quality 100.0 %
Test CRC C7A238A0
Copy CRC C7A238A0
Track not present in AccurateRip database
Copy OK
Track 15
Filename F:\ЗАГРУЗКИ\ Nice & Easy 2 (1993)\15. Shinji Tanimura - Subaru.wav
Pre-gap length 0:00:01.40
Peak level 95.5 %
Extraction speed 9.2 X
Track quality 100.0 %
Test CRC E5895A42
Copy CRC E5895A42
Track not present in AccurateRip database
Copy OK
Track 16
Filename F:\ЗАГРУЗКИ\ Nice & Easy 2 (1993)\16. Christopher Cross - Arthurs Theme.wav
Pre-gap length 0:00:03.20
Peak level 97.7 %
Extraction speed 9.3 X
Track quality 100.0 %
Test CRC C9D55523
Copy CRC C9D55523
Track not present in AccurateRip database
Copy OK
Track 17
Filename F:\ЗАГРУЗКИ\ Nice & Easy 2 (1993)\17. Ronnie Milsap - No Getting Over Me.wav
Pre-gap length 0:00:01.43
Peak level 97.4 %
Extraction speed 7.5 X
Track quality 99.9 %
Test CRC 53C89F94
Copy CRC 53C89F94
Track not present in AccurateRip database
Copy OK
Track 18
Filename F:\ЗАГРУЗКИ\ Nice & Easy 2 (1993)\18. Kenny Rogers & Dolly Parton - Islands In The Stream.wav
Pre-gap length 0:00:03.13
Peak level 98.2 %
Extraction speed 9.7 X
Track quality 100.0 %
Test CRC 9F37645D
Copy CRC 9F37645D
Track not present in AccurateRip database
Copy OK
None of the tracks are present in the AccurateRip database
No errors occurred
End of status report
---- CUETools DB Plugin V2.1.3
[CTDB TOCID: rFjzcAg3dP7SWMj2Cf8wPr7wyzE-] found, Submit result: rFjzcAg3dP7SWMj2Cf8wPr7wyzE- has been uploaded
[4b23b81a] (1/1) Differs in 75 samples @00:40:35,38:57:22-38:57:23
You can use CUETools to repair this rip.
==== Log checksum EBAA1219EBACF5427EB5EBE45B4B284863CF39F809F97EBDC664E4C87CEC54D9 ====

Содержание индексной карты (.CUE)

REM GENRE Pop
REM DATE 1993
REM DISCID 2710FA12
REM COMMENT "ExactAudioCopy v1.0b3"
PERFORMER "Various"
TITLE "Nice And Easy 2"
FILE "01. Glenn Frey - The One You Love.wav" WAVE
TRACK 01 AUDIO
TITLE "The One You Love"
PERFORMER "Glenn Frey"
INDEX 01 00:00:00
TRACK 02 AUDIO
TITLE "Against All Odds"
PERFORMER "Phil Collins"
INDEX 00 04:32:27
FILE "02. Phil Collins - Against All Odds.wav" WAVE
INDEX 01 00:00:00
TRACK 03 AUDIO
TITLE "Up Wheren We Belong"
PERFORMER "Joe Cocker & Jennifer Warnes"
INDEX 00 03:24:02
FILE "03. Joe Cocker & Jennifer Warnes - Up Wheren We Belong.wav" WAVE
INDEX 01 00:00:00
TRACK 04 AUDIO
TITLE "Hard To Say Im Sorry"
PERFORMER "Chicago"
INDEX 00 03:52:47
FILE "04. Chicago - Hard To Say Im Sorry.wav" WAVE
INDEX 01 00:00:00
TRACK 05 AUDIO
TITLE "Waiting For A Girl Like You"
PERFORMER "The Foreigner"
INDEX 00 03:46:72
FILE "05. The Foreigner - Waiting For A Girl Like You.wav" WAVE
INDEX 01 00:00:00
TRACK 06 AUDIO
TITLE "I Cant Tell You Why"
PERFORMER "The Eagles"
INDEX 00 04:43:00
FILE "06. The Eagles - I Cant Tell You Why.wav" WAVE
INDEX 01 00:00:00
TRACK 07 AUDIO
TITLE "So Much In Love"
PERFORMER "Timothy B. Schmit"
INDEX 00 04:46:47
FILE "07. Timothy B. Schmit - So Much In Love.wav" WAVE
INDEX 01 00:00:00
TRACK 08 AUDIO
TITLE "Daddys Home"
PERFORMER "Cliff Richard"
INDEX 00 02:16:35
FILE "08. Cliff Richard - Daddys Home.wav" WAVE
INDEX 01 00:00:00
TRACK 09 AUDIO
TITLE "True"
PERFORMER "Spandau Ballet"
INDEX 00 02:57:57
FILE "09. Spandau Ballet - True.wav" WAVE
INDEX 01 00:00:00
TRACK 10 AUDIO
TITLE "Endless Love"
PERFORMER "Dianna Ross & Lionel Richie"
INDEX 00 05:31:68
FILE "10. Dianna Ross & Lionel Richie - Endless Love.wav" WAVE
INDEX 01 00:00:00
TRACK 11 AUDIO
TITLE "Ive Never Been To Me"
PERFORMER "Charlene"
INDEX 00 04:23:30
FILE "11. Charlene - Ive Never Been To Me.wav" WAVE
INDEX 01 00:00:00
TRACK 12 AUDIO
TITLE "It Might Be You"
PERFORMER "Stephen Bishop"
INDEX 00 03:50:28
FILE "12. Stephen Bishop - It Might Be You.wav" WAVE
INDEX 01 00:00:00
TRACK 13 AUDIO
TITLE "Lost In Love"
PERFORMER "Air Supply"
INDEX 00 04:09:35
FILE "13. Air Supply - Lost In Love.wav" WAVE
INDEX 01 00:00:00
TRACK 14 AUDIO
TITLE "Teardrops"
PERFORMER "Shakin' Stevens"
INDEX 00 03:48:62
FILE "14. Shakin' Stevens - Teardrops.wav" WAVE
INDEX 01 00:00:00
TRACK 15 AUDIO
TITLE "Subaru"
PERFORMER "Shinji Tanimura"
INDEX 00 03:54:00
FILE "15. Shinji Tanimura - Subaru.wav" WAVE
INDEX 01 00:00:00
TRACK 16 AUDIO
TITLE "Arthurs Theme"
PERFORMER "Christopher Cross"
INDEX 00 04:30:18
FILE "16. Christopher Cross - Arthurs Theme.wav" WAVE
INDEX 01 00:00:00
TRACK 17 AUDIO
TITLE "No Getting Over Me"
PERFORMER "Ronnie Milsap"
INDEX 00 03:52:57
FILE "17. Ronnie Milsap - No Getting Over Me.wav" WAVE
INDEX 01 00:00:00
TRACK 18 AUDIO
TITLE "Islands In The Stream"
PERFORMER "Kenny Rogers & Dolly Parton"
INDEX 00 03:13:27
FILE "18. Kenny Rogers & Dolly Parton - Islands In The Stream.wav" WAVE
INDEX 01 00:00:00

To download the file disable ad blocking, and reload the page.

disable adblock How to disable ad blocking?

Download by magnet link 459 MB Download Torrent

Login using:

Similar topics

(blues-rock. pop-rock) Col. Bruce Hampton - 1980-2014 (8 CD), MP3, 320 kbps
 1.03 GB   0 | 0   03-May-17 19:42   0
(Blues/Rock/Pop) Steffie Beltt - Luna De Octubre - 2017, MP3, 320 kbps
 89 MB   0 | 0   03-May-17 19:37   0


   
Current time is: 15-Nov 21:31 :: All times are UTC + 3