Rock 'n' Roll Jukebox (3CD Enhanced)
Жанр: Rock'n'Roll
Страна-производитель диска: EU
Год издания: 2004
Издатель (лейбл): EMI Records Ltd.
Номер по каталогу: 724359777429
Аудиокодек: FLAC (*.flac)
Тип рипа: tracks+.cue
Битрейт аудио: lossless
Продолжительность: 0:56:23. + 0:54:34. + 0:59:30.
Источник (релизер): clustert
Наличие сканов в содержимом раздачи: да

CD1

01. Eddie Cochran / Twenty Flight Rock [0:01:45.74]
02. Ricky Nelson / Whole Lotta Shakin' Goin' On [0:02:11.55]
03. Gene Vincent / Rip It Up [0:02:01.10]
04. Del Shannon / Runaway [0:02:19.24]
05. Johnny Burnette / Dreamin' [0:02:19.57]
06. Dan Lang / Six-Five Special [0:02:23.04]
07. King Brothers / Wake Up Little Susie [0:02:11.29]
08. Sandy Nelson / Shake Rattle And Roll [0:01:39.70]
09. Cricketts / Peggy Sue [0:02:17.72]
10. Bobby Vee / Rubber Ball [0:02:31.00]
11. Vipers Skiffle Group / Cumberland Gap [0:01:55.60]
12. Swinging Blue Jeans / Tutti Frutti [0:02:00.64]
13. Frankie Lyman & The Teenagers / Why Do Fools Fall In Love [0:02:18.63]
14. Dion & The Belmonts / Runaround Sue [0:02:40.26]
15. Marv Johnson / You Got What It Takes [0:02:39.14]
16. Little Eva / The Locomotion [0:02:25.08]
17. Craig Douglas / Only Sixteen [0:02:11.61]
18. Marcels / Blue Moon [0:02:16.21]
19. Ricky Valence / Tell Laura I Love Her [0:02:39.10]
20. Clovers / Love Potion Number Nine [0:01:53.50]
21. Exciters / Tell Him [0:02:26.18]
22. Thurston Harris And The Sharps / Little Bitty Pretty One [0:02:23.64]
23. Avons / Seven Little Girls Sitting In The Back Seat [0:02:13.53]
24. Essex / A Walkin' Miracle [0:02:19.51]
25. Carl Perkings / Blue Suede Shoes [0:02:17.41]

Лог создания рипа

Exact Audio Copy V1.0 beta 3 from 29. August 2011
Отчёт EAC об извлечении, выполненном 23. сентября 2014, 16:40
VA / Rock 'n' Roll Jukebox Disc 1
Дисковод: ASUS DRW-1814BLT Adapter: 4 ID: 0
Режим чтения : Достоверность
Использование точного потока : Да
Отключение кэша аудио : Да
Использование указателей C2 : Нет
Коррекция смещения при чтении : 6
Способность читать области Lead-in и Lead-out : Нет
Заполнение пропущенных сэмплов тишиной : Да
Удаление блоков с тишиной в начале и конце : Нет
При вычислениях CRC использовались нулевые сэмплы : Да
Интерфейс : Встроенный Win32-интерфейс для Win NT/2000
Обработка зазоров : Добавлено к предыдущему треку
Выходной формат : Пользовательский кодировщик
Выбранный битрейт : 128 kBit/s
Качество : Высокий
Добавление ID3-тега : Нет
Утилита сжатия : C:\Program Files\Exact Audio Copy\Flac\flac.exe
Дополнительные параметры : -V -8 -T "Genre=%genre%" -T "Artist=%artist%" -T "Title=%title%" -T "Album=%albumtitle%" -T "Date=%year%" -T "Tracknumber=%tracknr%" -T "Comment=EAC1.0b2 FLAC -8" %source%
TOC извлечённого CD
Трек | Старт | Длительность | Начальный сектор | Конечный сектор
---------------------------------------------------------------------
1 | 0:00.00 | 1:45.74 | 0 | 7948
2 | 1:45.74 | 2:11.55 | 7949 | 17828
3 | 3:57.54 | 2:01.10 | 17829 | 26913
4 | 5:58.64 | 2:19.24 | 26914 | 37362
5 | 8:18.13 | 2:19.57 | 37363 | 47844
6 | 10:37.70 | 2:23.04 | 47845 | 58573
7 | 13:00.74 | 2:11.29 | 58574 | 68427
8 | 15:12.28 | 1:39.70 | 68428 | 75922
9 | 16:52.23 | 2:17.72 | 75923 | 86269
10 | 19:10.20 | 2:31.00 | 86270 | 97594
11 | 21:41.20 | 1:55.60 | 97595 | 106279
12 | 23:37.05 | 2:00.64 | 106280 | 115343
13 | 25:37.69 | 2:18.63 | 115344 | 125756
14 | 27:56.57 | 2:40.26 | 125757 | 137782
15 | 30:37.08 | 2:39.14 | 137783 | 149721
16 | 33:16.22 | 2:25.08 | 149722 | 160604
17 | 35:41.30 | 2:11.61 | 160605 | 170490
18 | 37:53.16 | 2:16.21 | 170491 | 180711
19 | 40:09.37 | 2:39.10 | 180712 | 192646
20 | 42:48.47 | 1:53.50 | 192647 | 201171
21 | 44:42.22 | 2:26.18 | 201172 | 212139
22 | 47:08.40 | 2:23.64 | 212140 | 222928
23 | 49:32.29 | 2:13.53 | 222929 | 232956
24 | 51:46.07 | 2:19.51 | 232957 | 243432
25 | 54:05.58 | 2:17.41 | 243433 | 253748
26 | 58:55.24 | 15:02.51 | 265149 | 332849
Трек 1
Имя файла R:\Раздача 24\VA - Rock'n'Roll Jukebox - 2004 (3CD)\CD1\01 Twenty Flight Rock.wav
Длина предзазора 0:00:02.00
Пиковый уровень 96.8 %
Скорость извлечения 4.0 X
Качество трека 100.0 %
CRC теста EA3CC652
CRC копии EA3CC652
Трек не обнаружен в базе AccurateRip
Копирование... OK
Трек 2
Имя файла R:\Раздача 24\VA - Rock'n'Roll Jukebox - 2004 (3CD)\CD1\02 Whole Lotta Shakin' Goin' On.wav
Пиковый уровень 100.0 %
Скорость извлечения 4.4 X
Качество трека 100.0 %
CRC теста 7877F8A9
CRC копии 7877F8A9
Трек не обнаружен в базе AccurateRip
Копирование... OK
Трек 3
Имя файла R:\Раздача 24\VA - Rock'n'Roll Jukebox - 2004 (3CD)\CD1\03 Rip It Up.wav
Пиковый уровень 100.0 %
Скорость извлечения 2.9 X
Качество трека 99.9 %
CRC теста 7D3211C0
CRC копии 7D3211C0
Трек не обнаружен в базе AccurateRip
Копирование... OK
Трек 4
Имя файла R:\Раздача 24\VA - Rock'n'Roll Jukebox - 2004 (3CD)\CD1\04 Runaway.wav
Пиковый уровень 73.8 %
Скорость извлечения 4.9 X
Качество трека 100.0 %
CRC теста 84B6F778
CRC копии 84B6F778
Трек не обнаружен в базе AccurateRip
Копирование... OK
Трек 5
Имя файла R:\Раздача 24\VA - Rock'n'Roll Jukebox - 2004 (3CD)\CD1\05 Dreamin'.wav
Пиковый уровень 100.0 %
Скорость извлечения 3.4 X
Качество трека 99.9 %
CRC теста D6E17842
CRC копии D6E17842
Трек не обнаружен в базе AccurateRip
Копирование... OK
Трек 6
Имя файла R:\Раздача 24\VA - Rock'n'Roll Jukebox - 2004 (3CD)\CD1\06 Six-Five Special.wav
Пиковый уровень 100.0 %
Скорость извлечения 3.5 X
Качество трека 99.9 %
CRC теста 16BE41E7
CRC копии 16BE41E7
Трек не обнаружен в базе AccurateRip
Копирование... OK
Трек 7
Имя файла R:\Раздача 24\VA - Rock'n'Roll Jukebox - 2004 (3CD)\CD1\07 Wake Up Little Susie.wav
Пиковый уровень 96.6 %
Скорость извлечения 5.4 X
Качество трека 100.0 %
CRC теста A230804F
CRC копии A230804F
Трек не обнаружен в базе AccurateRip
Копирование... OK
Трек 8
Имя файла R:\Раздача 24\VA - Rock'n'Roll Jukebox - 2004 (3CD)\CD1\08 Shake Rattle And Roll.wav
Пиковый уровень 78.9 %
Скорость извлечения 3.3 X
Качество трека 99.8 %
CRC теста DE2A7F0D
CRC копии DE2A7F0D
Трек не обнаружен в базе AccurateRip
Копирование... OK
Трек 9
Имя файла R:\Раздача 24\VA - Rock'n'Roll Jukebox - 2004 (3CD)\CD1\09 Peggy Sue.wav
Пиковый уровень 87.7 %
Скорость извлечения 5.7 X
Качество трека 100.0 %
CRC теста 23B007ED
CRC копии 23B007ED
Трек не обнаружен в базе AccurateRip
Копирование... OK
Трек 10
Имя файла R:\Раздача 24\VA - Rock'n'Roll Jukebox - 2004 (3CD)\CD1\10 Rubber Ball.wav
Пиковый уровень 100.0 %
Скорость извлечения 6.0 X
Качество трека 100.0 %
CRC теста 39009E14
CRC копии 39009E14
Трек не обнаружен в базе AccurateRip
Копирование... OK
Трек 11
Имя файла R:\Раздача 24\VA - Rock'n'Roll Jukebox - 2004 (3CD)\CD1\11 Cumberland Gap.wav
Пиковый уровень 99.9 %
Скорость извлечения 5.8 X
Качество трека 100.0 %
CRC теста B0391D03
CRC копии B0391D03
Трек не обнаружен в базе AccurateRip
Копирование... OK
Трек 12
Имя файла R:\Раздача 24\VA - Rock'n'Roll Jukebox - 2004 (3CD)\CD1\12 Tutti Frutti.wav
Пиковый уровень 71.7 %
Скорость извлечения 3.9 X
Качество трека 99.9 %
CRC теста 488FD368
CRC копии 488FD368
Трек не обнаружен в базе AccurateRip
Копирование... OK
Трек 13
Имя файла R:\Раздача 24\VA - Rock'n'Roll Jukebox - 2004 (3CD)\CD1\13 Why Do Fools Fall In Love.wav
Пиковый уровень 100.0 %
Скорость извлечения 6.4 X
Качество трека 100.0 %
CRC теста 28388175
CRC копии 28388175
Трек не обнаружен в базе AccurateRip
Копирование... OK
Трек 14
Имя файла R:\Раздача 24\VA - Rock'n'Roll Jukebox - 2004 (3CD)\CD1\14 Runaround Sue.wav
Пиковый уровень 97.6 %
Скорость извлечения 4.5 X
Качество трека 99.9 %
CRC теста F2A68466
CRC копии F2A68466
Трек не обнаружен в базе AccurateRip
Копирование... OK
Трек 15
Имя файла R:\Раздача 24\VA - Rock'n'Roll Jukebox - 2004 (3CD)\CD1\15 You Got What It Takes.wav
Пиковый уровень 96.5 %
Скорость извлечения 6.9 X
Качество трека 100.0 %
CRC теста 27E7376A
CRC копии 27E7376A
Трек не обнаружен в базе AccurateRip
Копирование... OK
Трек 16
Имя файла R:\Раздача 24\VA - Rock'n'Roll Jukebox - 2004 (3CD)\CD1\16 The Locomotion.wav
Пиковый уровень 77.4 %
Скорость извлечения 4.6 X
Качество трека 99.9 %
CRC теста 009257DF
CRC копии 009257DF
Трек не обнаружен в базе AccurateRip
Копирование... OK
Трек 17
Имя файла R:\Раздача 24\VA - Rock'n'Roll Jukebox - 2004 (3CD)\CD1\17 Only Sixteen.wav
Пиковый уровень 83.8 %
Скорость извлечения 4.6 X
Качество трека 99.9 %
CRC теста 9A2A7783
CRC копии 9A2A7783
Трек не обнаружен в базе AccurateRip
Копирование... OK
Трек 18
Имя файла R:\Раздача 24\VA - Rock'n'Roll Jukebox - 2004 (3CD)\CD1\18 Blue Moon.wav
Пиковый уровень 97.4 %
Скорость извлечения 7.0 X
Качество трека 100.0 %
CRC теста AC349A96
CRC копии AC349A96
Трек не обнаружен в базе AccurateRip
Копирование... OK
Трек 19
Имя файла R:\Раздача 24\VA - Rock'n'Roll Jukebox - 2004 (3CD)\CD1\19 Tell Laura I Love Her.wav
Пиковый уровень 90.9 %
Скорость извлечения 7.5 X
Качество трека 100.0 %
CRC теста E39220FB
CRC копии E39220FB
Трек не обнаружен в базе AccurateRip
Копирование... OK
Трек 20
Имя файла R:\Раздача 24\VA - Rock'n'Roll Jukebox - 2004 (3CD)\CD1\20 Love Potion Number Nine.wav
Пиковый уровень 75.8 %
Скорость извлечения 6.9 X
Качество трека 100.0 %
CRC теста CC067BF6
CRC копии CC067BF6
Трек не обнаружен в базе AccurateRip
Копирование... OK
Трек 21
Имя файла R:\Раздача 24\VA - Rock'n'Roll Jukebox - 2004 (3CD)\CD1\21 Tell Him.wav
Пиковый уровень 93.4 %
Скорость извлечения 7.6 X
Качество трека 100.0 %
CRC теста 36F45D62
CRC копии 36F45D62
Трек не обнаружен в базе AccurateRip
Копирование... OK
Трек 22
Имя файла R:\Раздача 24\VA - Rock'n'Roll Jukebox - 2004 (3CD)\CD1\22 Little Bitty Pretty One.wav
Пиковый уровень 100.0 %
Скорость извлечения 7.6 X
Качество трека 100.0 %
CRC теста 308283A4
CRC копии 308283A4
Трек не обнаружен в базе AccurateRip
Копирование... OK
Трек 23
Имя файла R:\Раздача 24\VA - Rock'n'Roll Jukebox - 2004 (3CD)\CD1\23 Seven Little Girls Sitting In The Back Seat.wav
Пиковый уровень 75.9 %
Скорость извлечения 7.6 X
Качество трека 100.0 %
CRC теста C944D89D
CRC копии C944D89D
Трек не обнаружен в базе AccurateRip
Копирование... OK
Трек 24
Имя файла R:\Раздача 24\VA - Rock'n'Roll Jukebox - 2004 (3CD)\CD1\24 A Walkin' Miracle.wav
Пиковый уровень 82.5 %
Скорость извлечения 7.8 X
Качество трека 100.0 %
CRC теста 31C19CA1
CRC копии 31C19CA1
Трек не обнаружен в базе AccurateRip
Копирование... OK
Трек 25
Имя файла R:\Раздача 24\VA - Rock'n'Roll Jukebox - 2004 (3CD)\CD1\25 Blue Suede Shoes.wav
Пиковый уровень 58.8 %
Скорость извлечения 7.9 X
Качество трека 100.0 %
CRC теста E0CF12DC
CRC копии E0CF12DC
Трек не обнаружен в базе AccurateRip
Копирование... OK
Ни одного трека нет в базе AccurateRip
Ошибок не произошло
Конец отчёта
==== Контрольная сумма отчёта 6C45E127364E8634FF7E80FCE103AF7E9285492C02FD63C28F846AB5FCD59BBA ====

Содержание индексной карты (.CUE)

Файл Rock 'n' Roll Jukebox Disc 1 (no edit).cue только для проверки.
Файл Rock 'n' Roll Jukebox Disc 1.cue для записи диска.

Rock 'n' Roll Jukebox Disc 1 (no edit).cue

REM GENRE "Rock & Roll"
REM DATE 2004
REM DISCID 6A11561A
REM COMMENT "ExactAudioCopy v1.0b3"
PERFORMER "VA"
TITLE "Rock 'n' Roll Jukebox Disc 1"
FILE "01 Twenty Flight Rock.wav" WAVE
TRACK 01 AUDIO
TITLE "Twenty Flight Rock"
PERFORMER "Eddie Cochran"
ISRC 000000000000
INDEX 01 00:00:00
FILE "02 Whole Lotta Shakin' Goin' On.wav" WAVE
TRACK 02 AUDIO
TITLE "Whole Lotta Shakin' Goin' On"
PERFORMER "Ricky Nelson"
ISRC 000000000000
INDEX 01 00:00:00
FILE "03 Rip It Up.wav" WAVE
TRACK 03 AUDIO
TITLE "Rip It Up"
PERFORMER "Gene Vincent"
ISRC 000000000000
INDEX 01 00:00:00
FILE "04 Runaway.wav" WAVE
TRACK 04 AUDIO
TITLE "Runaway"
PERFORMER "Del Shannon"
ISRC 000000000000
INDEX 01 00:00:00
FILE "05 Dreamin'.wav" WAVE
TRACK 05 AUDIO
TITLE "Dreamin'"
PERFORMER "Johnny Burnette"
ISRC 000000000000
INDEX 01 00:00:00
FILE "06 Six-Five Special.wav" WAVE
TRACK 06 AUDIO
TITLE "Six-Five Special"
PERFORMER "Dan Lang"
ISRC 000000000000
INDEX 01 00:00:00
FILE "07 Wake Up Little Susie.wav" WAVE
TRACK 07 AUDIO
TITLE "Wake Up Little Susie"
PERFORMER "King Brothers"
ISRC 000000000000
INDEX 01 00:00:00
FILE "08 Shake Rattle And Roll.wav" WAVE
TRACK 08 AUDIO
TITLE "Shake Rattle And Roll"
PERFORMER "Sandy Nelson"
ISRC 000000000000
INDEX 01 00:00:00
FILE "09 Peggy Sue.wav" WAVE
TRACK 09 AUDIO
TITLE "Peggy Sue"
PERFORMER "Cricketts"
ISRC 000000000000
INDEX 01 00:00:00
FILE "10 Rubber Ball.wav" WAVE
TRACK 10 AUDIO
TITLE "Rubber Ball"
PERFORMER "Bobby Vee"
ISRC 000000000000
INDEX 01 00:00:00
FILE "11 Cumberland Gap.wav" WAVE
TRACK 11 AUDIO
TITLE "Cumberland Gap"
PERFORMER "Vipers Skiffle Group"
ISRC 000000000000
INDEX 01 00:00:00
FILE "12 Tutti Frutti.wav" WAVE
TRACK 12 AUDIO
TITLE "Tutti Frutti"
PERFORMER "Swinging Blue Jeans"
ISRC 000000000000
INDEX 01 00:00:00
FILE "13 Why Do Fools Fall In Love.wav" WAVE
TRACK 13 AUDIO
TITLE "Why Do Fools Fall In Love"
PERFORMER "Frankie Lyman & The Teenagers"
ISRC 000000000000
INDEX 01 00:00:00
FILE "14 Runaround Sue.wav" WAVE
TRACK 14 AUDIO
TITLE "Runaround Sue"
PERFORMER "Dion & The Belmonts"
ISRC 000000000000
INDEX 01 00:00:00
FILE "15 You Got What It Takes.wav" WAVE
TRACK 15 AUDIO
TITLE "You Got What It Takes"
PERFORMER "Marv Johnson"
ISRC 000000000000
INDEX 01 00:00:00
FILE "16 The Locomotion.wav" WAVE
TRACK 16 AUDIO
TITLE "The Locomotion"
PERFORMER "Little Eva"
ISRC 000000000000
INDEX 01 00:00:00
FILE "17 Only Sixteen.wav" WAVE
TRACK 17 AUDIO
TITLE "Only Sixteen"
PERFORMER "Craig Douglas"
ISRC 000000000000
INDEX 01 00:00:00
FILE "18 Blue Moon.wav" WAVE
TRACK 18 AUDIO
TITLE "Blue Moon"
PERFORMER "Marcels"
ISRC 000000000000
INDEX 01 00:00:00
FILE "19 Tell Laura I Love Her.wav" WAVE
TRACK 19 AUDIO
TITLE "Tell Laura I Love Her"
PERFORMER "Ricky Valence"
ISRC 000000000000
INDEX 01 00:00:00
FILE "20 Love Potion Number Nine.wav" WAVE
TRACK 20 AUDIO
TITLE "Love Potion Number Nine"
PERFORMER "Clovers"
ISRC 000000000000
INDEX 01 00:00:00
FILE "21 Tell Him.wav" WAVE
TRACK 21 AUDIO
TITLE "Tell Him"
PERFORMER "Exciters"
ISRC 000000000000
INDEX 01 00:00:00
FILE "22 Little Bitty Pretty One.wav" WAVE
TRACK 22 AUDIO
TITLE "Little Bitty Pretty One"
PERFORMER "Thurston Harris And The Sharps"
ISRC 000000000000
INDEX 01 00:00:00
FILE "23 Seven Little Girls Sitting In The Back Seat.wav" WAVE
TRACK 23 AUDIO
TITLE "Seven Little Girls Sitting In The Back Seat"
PERFORMER "Avons"
ISRC 000000000000
INDEX 01 00:00:00
FILE "24 A Walkin' Miracle.wav" WAVE
TRACK 24 AUDIO
TITLE "A Walkin' Miracle"
PERFORMER "Essex"
ISRC 000000000000
INDEX 01 00:00:00
FILE "25 Blue Suede Shoes.wav" WAVE
TRACK 25 AUDIO
TITLE "Blue Suede Shoes"
PERFORMER "Carl Perkings"
ISRC 000000000000
INDEX 01 00:00:00
TRACK 26 MODEx/2xxx
TITLE "DATA"
PERFORMER "VA"
INDEX 00 02:17:41

Rock 'n' Roll Jukebox Disc 1.cue

REM GENRE "Rock & Roll"
REM DATE 2004
REM DISCID 6A11561A
REM COMMENT "ExactAudioCopy v1.0b3"
PERFORMER "VA"
TITLE "Rock 'n' Roll Jukebox Disc 1"
FILE "01 Twenty Flight Rock.wav" WAVE
TRACK 01 AUDIO
TITLE "Twenty Flight Rock"
PERFORMER "Eddie Cochran"
ISRC 000000000000
INDEX 01 00:00:00
FILE "02 Whole Lotta Shakin' Goin' On.wav" WAVE
TRACK 02 AUDIO
TITLE "Whole Lotta Shakin' Goin' On"
PERFORMER "Ricky Nelson"
ISRC 000000000000
INDEX 01 00:00:00
FILE "03 Rip It Up.wav" WAVE
TRACK 03 AUDIO
TITLE "Rip It Up"
PERFORMER "Gene Vincent"
ISRC 000000000000
INDEX 01 00:00:00
FILE "04 Runaway.wav" WAVE
TRACK 04 AUDIO
TITLE "Runaway"
PERFORMER "Del Shannon"
ISRC 000000000000
INDEX 01 00:00:00
FILE "05 Dreamin'.wav" WAVE
TRACK 05 AUDIO
TITLE "Dreamin'"
PERFORMER "Johnny Burnette"
ISRC 000000000000
INDEX 01 00:00:00
FILE "06 Six-Five Special.wav" WAVE
TRACK 06 AUDIO
TITLE "Six-Five Special"
PERFORMER "Dan Lang"
ISRC 000000000000
INDEX 01 00:00:00
FILE "07 Wake Up Little Susie.wav" WAVE
TRACK 07 AUDIO
TITLE "Wake Up Little Susie"
PERFORMER "King Brothers"
ISRC 000000000000
INDEX 01 00:00:00
FILE "08 Shake Rattle And Roll.wav" WAVE
TRACK 08 AUDIO
TITLE "Shake Rattle And Roll"
PERFORMER "Sandy Nelson"
ISRC 000000000000
INDEX 01 00:00:00
FILE "09 Peggy Sue.wav" WAVE
TRACK 09 AUDIO
TITLE "Peggy Sue"
PERFORMER "Cricketts"
ISRC 000000000000
INDEX 01 00:00:00
FILE "10 Rubber Ball.wav" WAVE
TRACK 10 AUDIO
TITLE "Rubber Ball"
PERFORMER "Bobby Vee"
ISRC 000000000000
INDEX 01 00:00:00
FILE "11 Cumberland Gap.wav" WAVE
TRACK 11 AUDIO
TITLE "Cumberland Gap"
PERFORMER "Vipers Skiffle Group"
ISRC 000000000000
INDEX 01 00:00:00
FILE "12 Tutti Frutti.wav" WAVE
TRACK 12 AUDIO
TITLE "Tutti Frutti"
PERFORMER "Swinging Blue Jeans"
ISRC 000000000000
INDEX 01 00:00:00
FILE "13 Why Do Fools Fall In Love.wav" WAVE
TRACK 13 AUDIO
TITLE "Why Do Fools Fall In Love"
PERFORMER "Frankie Lyman & The Teenagers"
ISRC 000000000000
INDEX 01 00:00:00
FILE "14 Runaround Sue.wav" WAVE
TRACK 14 AUDIO
TITLE "Runaround Sue"
PERFORMER "Dion & The Belmonts"
ISRC 000000000000
INDEX 01 00:00:00
FILE "15 You Got What It Takes.wav" WAVE
TRACK 15 AUDIO
TITLE "You Got What It Takes"
PERFORMER "Marv Johnson"
ISRC 000000000000
INDEX 01 00:00:00
FILE "16 The Locomotion.wav" WAVE
TRACK 16 AUDIO
TITLE "The Locomotion"
PERFORMER "Little Eva"
ISRC 000000000000
INDEX 01 00:00:00
FILE "17 Only Sixteen.wav" WAVE
TRACK 17 AUDIO
TITLE "Only Sixteen"
PERFORMER "Craig Douglas"
ISRC 000000000000
INDEX 01 00:00:00
FILE "18 Blue Moon.wav" WAVE
TRACK 18 AUDIO
TITLE "Blue Moon"
PERFORMER "Marcels"
ISRC 000000000000
INDEX 01 00:00:00
FILE "19 Tell Laura I Love Her.wav" WAVE
TRACK 19 AUDIO
TITLE "Tell Laura I Love Her"
PERFORMER "Ricky Valence"
ISRC 000000000000
INDEX 01 00:00:00
FILE "20 Love Potion Number Nine.wav" WAVE
TRACK 20 AUDIO
TITLE "Love Potion Number Nine"
PERFORMER "Clovers"
ISRC 000000000000
INDEX 01 00:00:00
FILE "21 Tell Him.wav" WAVE
TRACK 21 AUDIO
TITLE "Tell Him"
PERFORMER "Exciters"
ISRC 000000000000
INDEX 01 00:00:00
FILE "22 Little Bitty Pretty One.wav" WAVE
TRACK 22 AUDIO
TITLE "Little Bitty Pretty One"
PERFORMER "Thurston Harris And The Sharps"
ISRC 000000000000
INDEX 01 00:00:00
FILE "23 Seven Little Girls Sitting In The Back Seat.wav" WAVE
TRACK 23 AUDIO
TITLE "Seven Little Girls Sitting In The Back Seat"
PERFORMER "Avons"
ISRC 000000000000
INDEX 01 00:00:00
FILE "24 A Walkin' Miracle.wav" WAVE
TRACK 24 AUDIO
TITLE "A Walkin' Miracle"
PERFORMER "Essex"
ISRC 000000000000
INDEX 01 00:00:00
FILE "25 Blue Suede Shoes.wav" WAVE
TRACK 25 AUDIO
TITLE "Blue Suede Shoes"
PERFORMER "Carl Perkings"
ISRC 000000000000
INDEX 01 00:00:00

CD2

01. Jordinaires / Don't Be Cruel [0:01:58.23]
02. Everly Brothers / Bye Bye Love [0:02:21.68]
03. Johnny Burnette / Dream Lover [0:02:24.22]
04. Bobby Vee / Heartbeat [0:02:00.70]
05. Fats Domino / Ain't That A Shame [0:02:26.61]
06. Johnny Kidd & The Pirates / Please Don't Touch [0:01:53.33]
07. Shane Fenton & The Fentones / Five Foot Two, Eyes Of Blue [0:02:12.54]
08. Wanda Jackson / Yakety Yak [0:02:09.41]
09. Gene Vincent / Another Saturday Night [0:01:43.13]
10. Eddie Cochran / Long Tall Sally [0:01:46.52]
11. Ray Ellington / Giddy Up A Ding Dong [0:02:11.19]
12. Billie Anthony / Rock A Billy [0:02:18.27]
13. Sandy Nelson / Bony Maronie [0:02:26.54]
14. Crickets / Bo Diddley [0:02:12.44]
15. Frankie Lymon & The Teenagers / Jailhouse Rock [0:02:13.61]
16. Larry Page / That'll Be The Day [0:01:54.18]
17. Ral Donner / Girl Of My Best Friend [0:02:15.05]
18. Jan & Dean / Tallahassee Lassie [0:02:10.39]
19. Tommy James & The Shondells / Hanky Panky [0:02:53.32]
20. Mudlarks / Lollipop [0:01:58.25]
21. Ricky Nelson / Poor Little Fool [0:02:32.52]
22. Tommy Sands / Mabellene [0:02:07.62]
23. Bobby Angelo & The Tuxedos / Baby Sittin' [0:02:03.58]
24. Fats Domino / I Hear You Knocking [0:01:56.29]
25. Eddie Cochran / Three Steps To Heaven [0:02:21.61]

Лог создания рипа

Exact Audio Copy V1.0 beta 3 from 29. August 2011
Отчёт EAC об извлечении, выполненном 23. сентября 2014, 17:26
VA / Rock 'n' Roll Jukebox Disc 2
Дисковод: ASUS DRW-1814BLT Adapter: 4 ID: 0
Режим чтения : Достоверность
Использование точного потока : Да
Отключение кэша аудио : Да
Использование указателей C2 : Нет
Коррекция смещения при чтении : 6
Способность читать области Lead-in и Lead-out : Нет
Заполнение пропущенных сэмплов тишиной : Да
Удаление блоков с тишиной в начале и конце : Нет
При вычислениях CRC использовались нулевые сэмплы : Да
Интерфейс : Встроенный Win32-интерфейс для Win NT/2000
Обработка зазоров : Добавлено к предыдущему треку
Выходной формат : Пользовательский кодировщик
Выбранный битрейт : 128 kBit/s
Качество : Высокий
Добавление ID3-тега : Нет
Утилита сжатия : C:\Program Files\Exact Audio Copy\Flac\flac.exe
Дополнительные параметры : -V -8 -T "Genre=%genre%" -T "Artist=%artist%" -T "Title=%title%" -T "Album=%albumtitle%" -T "Date=%year%" -T "Tracknumber=%tracknr%" -T "Comment=EAC1.0b2 FLAC -8" %source%
TOC извлечённого CD
Трек | Старт | Длительность | Начальный сектор | Конечный сектор
---------------------------------------------------------------------
1 | 0:00.00 | 1:58.23 | 0 | 8872
2 | 1:58.23 | 2:21.68 | 8873 | 19515
3 | 4:20.16 | 2:24.22 | 19516 | 30337
4 | 6:44.38 | 2:00.70 | 30338 | 39407
5 | 8:45.33 | 2:26.61 | 39408 | 50418
6 | 11:12.19 | 1:53.33 | 50419 | 58926
7 | 13:05.52 | 2:12.54 | 58927 | 68880
8 | 15:18.31 | 2:09.41 | 68881 | 78596
9 | 17:27.72 | 1:43.13 | 78597 | 86334
10 | 19:11.10 | 1:46.52 | 86335 | 94336
11 | 20:57.62 | 2:11.19 | 94337 | 104180
12 | 23:09.06 | 2:18.27 | 104181 | 114557
13 | 25:27.33 | 2:26.54 | 114558 | 125561
14 | 27:54.12 | 2:12.44 | 125562 | 135505
15 | 30:06.56 | 2:13.61 | 135506 | 145541
16 | 32:20.42 | 1:54.18 | 145542 | 154109
17 | 34:14.60 | 2:15.05 | 154110 | 164239
18 | 36:29.65 | 2:10.39 | 164240 | 174028
19 | 38:40.29 | 2:53.32 | 174029 | 187035
20 | 41:33.61 | 1:58.25 | 187036 | 195910
21 | 43:32.11 | 2:32.52 | 195911 | 207362
22 | 46:04.63 | 2:07.62 | 207363 | 216949
23 | 48:12.50 | 2:03.58 | 216950 | 226232
24 | 50:16.33 | 1:56.29 | 226233 | 234961
25 | 52:12.62 | 2:21.61 | 234962 | 245597
26 | 57:06.48 | 16:51.27 | 256998 | 332849
Трек 1
Имя файла R:\Раздача 24\VA - Rock'n'Roll Jukebox - 2004 (3CD)\CD2\01 Don't Be Cruel.wav
Длина предзазора 0:00:02.00
Пиковый уровень 95.0 %
Скорость извлечения 3.7 X
Качество трека 100.0 %
CRC теста 9D827921
CRC копии 9D827921
Трек не обнаружен в базе AccurateRip
Копирование... OK
Трек 2
Имя файла R:\Раздача 24\VA - Rock'n'Roll Jukebox - 2004 (3CD)\CD2\02 Bye Bye Love.wav
Пиковый уровень 74.9 %
Скорость извлечения 4.5 X
Качество трека 100.0 %
CRC теста AF6B48DA
CRC копии AF6B48DA
Трек не обнаружен в базе AccurateRip
Копирование... OK
Трек 3
Имя файла R:\Раздача 24\VA - Rock'n'Roll Jukebox - 2004 (3CD)\CD2\03 Dream Lover.wav
Пиковый уровень 100.0 %
Скорость извлечения 4.8 X
Качество трека 100.0 %
CRC теста 9CFFBC62
CRC копии 9CFFBC62
Трек не обнаружен в базе AccurateRip
Копирование... OK
Трек 4
Имя файла R:\Раздача 24\VA - Rock'n'Roll Jukebox - 2004 (3CD)\CD2\04 Heartbeat.wav
Пиковый уровень 99.3 %
Скорость извлечения 4.8 X
Качество трека 100.0 %
CRC теста B64DB677
CRC копии B64DB677
Трек не обнаружен в базе AccurateRip
Копирование... OK
Трек 5
Имя файла R:\Раздача 24\VA - Rock'n'Roll Jukebox - 2004 (3CD)\CD2\05 Ain't That A Shame.wav
Пиковый уровень 79.4 %
Скорость извлечения 5.2 X
Качество трека 100.0 %
CRC теста 2349F41E
CRC копии 2349F41E
Трек не обнаружен в базе AccurateRip
Копирование... OK
Трек 6
Имя файла R:\Раздача 24\VA - Rock'n'Roll Jukebox - 2004 (3CD)\CD2\06 Please Don't Touch.wav
Пиковый уровень 99.8 %
Скорость извлечения 5.0 X
Качество трека 100.0 %
CRC теста D2DACEE1
CRC копии D2DACEE1
Трек не обнаружен в базе AccurateRip
Копирование... OK
Трек 7
Имя файла R:\Раздача 24\VA - Rock'n'Roll Jukebox - 2004 (3CD)\CD2\07 Five Foot Two, Eyes Of Blue.wav
Пиковый уровень 94.4 %
Скорость извлечения 5.4 X
Качество трека 100.0 %
CRC теста B60D9B76
CRC копии B60D9B76
Трек не обнаружен в базе AccurateRip
Копирование... OK
Трек 8
Имя файла R:\Раздача 24\VA - Rock'n'Roll Jukebox - 2004 (3CD)\CD2\08 Yakety Yak.wav
Пиковый уровень 100.0 %
Скорость извлечения 5.5 X
Качество трека 100.0 %
CRC теста D3F17DEE
CRC копии D3F17DEE
Трек не обнаружен в базе AccurateRip
Копирование... OK
Трек 9
Имя файла R:\Раздача 24\VA - Rock'n'Roll Jukebox - 2004 (3CD)\CD2\09 Another Saturday Night.wav
Пиковый уровень 72.6 %
Скорость извлечения 5.4 X
Качество трека 100.0 %
CRC теста 8CEAA542
CRC копии 8CEAA542
Трек не обнаружен в базе AccurateRip
Копирование... OK
Трек 10
Имя файла R:\Раздача 24\VA - Rock'n'Roll Jukebox - 2004 (3CD)\CD2\10 Long Tall Sally.wav
Пиковый уровень 88.5 %
Скорость извлечения 5.5 X
Качество трека 100.0 %
CRC теста B82276CD
CRC копии B82276CD
Трек не обнаружен в базе AccurateRip
Копирование... OK
Трек 11
Имя файла R:\Раздача 24\VA - Rock'n'Roll Jukebox - 2004 (3CD)\CD2\11 Giddy Up A Ding Dong.wav
Пиковый уровень 90.3 %
Скорость извлечения 6.0 X
Качество трека 100.0 %
CRC теста 8D3913D9
CRC копии 8D3913D9
Трек не обнаружен в базе AccurateRip
Копирование... OK
Трек 12
Имя файла R:\Раздача 24\VA - Rock'n'Roll Jukebox - 2004 (3CD)\CD2\12 Rock A Billy.wav
Пиковый уровень 100.0 %
Скорость извлечения 6.2 X
Качество трека 100.0 %
CRC теста AE466E14
CRC копии AE466E14
Трек не обнаружен в базе AccurateRip
Копирование... OK
Трек 13
Имя файла R:\Раздача 24\VA - Rock'n'Roll Jukebox - 2004 (3CD)\CD2\13 Bony Maronie.wav
Пиковый уровень 78.8 %
Скорость извлечения 4.3 X
Качество трека 99.9 %
CRC теста E1FF5029
CRC копии E1FF5029
Трек не обнаружен в базе AccurateRip
Копирование... OK
Трек 14
Имя файла R:\Раздача 24\VA - Rock'n'Roll Jukebox - 2004 (3CD)\CD2\14 Bo Diddley.wav
Пиковый уровень 88.7 %
Скорость извлечения 6.5 X
Качество трека 100.0 %
CRC теста 3C3002B2
CRC копии 3C3002B2
Трек не обнаружен в базе AccurateRip
Копирование... OK
Трек 15
Имя файла R:\Раздача 24\VA - Rock'n'Roll Jukebox - 2004 (3CD)\CD2\15 Jailhouse Rock.wav
Пиковый уровень 99.3 %
Скорость извлечения 6.5 X
Качество трека 100.0 %
CRC теста 724881DE
CRC копии 724881DE
Трек не обнаружен в базе AccurateRip
Копирование... OK
Трек 16
Имя файла R:\Раздача 24\VA - Rock'n'Roll Jukebox - 2004 (3CD)\CD2\16 That'll Be The Day.wav
Пиковый уровень 100.0 %
Скорость извлечения 6.4 X
Качество трека 100.0 %
CRC теста 1F01510C
CRC копии 1F01510C
Трек не обнаружен в базе AccurateRip
Копирование... OK
Трек 17
Имя файла R:\Раздача 24\VA - Rock'n'Roll Jukebox - 2004 (3CD)\CD2\17 Girl Of My Best Friend.wav
Пиковый уровень 100.0 %
Скорость извлечения 6.8 X
Качество трека 100.0 %
CRC теста 01B6DC7B
CRC копии 01B6DC7B
Трек не обнаружен в базе AccurateRip
Копирование... OK
Трек 18
Имя файла R:\Раздача 24\VA - Rock'n'Roll Jukebox - 2004 (3CD)\CD2\18 Tallahassee Lassie.wav
Пиковый уровень 88.5 %
Скорость извлечения 6.9 X
Качество трека 100.0 %
CRC теста F63EA25C
CRC копии F63EA25C
Трек не обнаружен в базе AccurateRip
Копирование... OK
Трек 19
Имя файла R:\Раздача 24\VA - Rock'n'Roll Jukebox - 2004 (3CD)\CD2\19 Hanky Panky.wav
Пиковый уровень 77.7 %
Скорость извлечения 7.4 X
Качество трека 100.0 %
CRC теста 58739732
CRC копии 58739732
Трек не обнаружен в базе AccurateRip
Копирование... OK
Трек 20
Имя файла R:\Раздача 24\VA - Rock'n'Roll Jukebox - 2004 (3CD)\CD2\20 Lollipop.wav
Пиковый уровень 97.9 %
Скорость извлечения 7.0 X
Качество трека 100.0 %
CRC теста 4AEC4082
CRC копии 4AEC4082
Трек не обнаружен в базе AccurateRip
Копирование... OK
Трек 21
Имя файла R:\Раздача 24\VA - Rock'n'Roll Jukebox - 2004 (3CD)\CD2\21 Poor Little Fool.wav
Пиковый уровень 94.7 %
Скорость извлечения 5.1 X
Качество трека 99.9 %
CRC теста 26342023
CRC копии 26342023
Трек не обнаружен в базе AccurateRip
Копирование... OK
Трек 22
Имя файла R:\Раздача 24\VA - Rock'n'Roll Jukebox - 2004 (3CD)\CD2\22 Mabellene.wav
Пиковый уровень 93.8 %
Скорость извлечения 4.9 X
Качество трека 99.9 %
CRC теста DA12F56A
CRC копии DA12F56A
Трек не обнаружен в базе AccurateRip
Копирование... OK
Трек 23
Имя файла R:\Раздача 24\VA - Rock'n'Roll Jukebox - 2004 (3CD)\CD2\23 Baby Sittin'.wav
Пиковый уровень 86.1 %
Скорость извлечения 7.4 X
Качество трека 100.0 %
CRC теста 0D04F323
CRC копии 0D04F323
Трек не обнаружен в базе AccurateRip
Копирование... OK
Трек 24
Имя файла R:\Раздача 24\VA - Rock'n'Roll Jukebox - 2004 (3CD)\CD2\24 I Hear You Knocking.wav
Пиковый уровень 94.5 %
Скорость извлечения 7.4 X
Качество трека 100.0 %
CRC теста 6D07B8A0
CRC копии 6D07B8A0
Трек не обнаружен в базе AccurateRip
Копирование... OK
Трек 25
Имя файла R:\Раздача 24\VA - Rock'n'Roll Jukebox - 2004 (3CD)\CD2\25 Three Steps To Heaven.wav
Пиковый уровень 100.0 %
Скорость извлечения 7.8 X
Качество трека 100.0 %
CRC теста 40CEFC77
CRC копии 40CEFC77
Трек не обнаружен в базе AccurateRip
Копирование... OK
Ни одного трека нет в базе AccurateRip
Ошибок не произошло
Конец отчёта
==== Контрольная сумма отчёта 2535A8F2BB704A700D53E29C56A1578BB8EA96D52CAC8268451E4D55E7CA9830 ====

Содержание индексной карты (CUE.)

Файл Rock 'n' Roll Jukebox Disc 2 (no edit).cue только для проверки.
Файл Rock 'n' Roll Jukebox Disc 2.cue для записи диска.

Rock 'n' Roll Jukebox Disc 2 (no edit).cue

REM GENRE "Rock & Roll"
REM DATE 2004
REM DISCID 6F11561A
REM COMMENT "ExactAudioCopy v1.0b3"
PERFORMER "VA"
TITLE "Rock 'n' Roll Jukebox Disc 2"
FILE "01 Don't Be Cruel.wav" WAVE
TRACK 01 AUDIO
TITLE "Don't Be Cruel"
PERFORMER "Jordinaires"
ISRC 000000000000
INDEX 01 00:00:00
FILE "02 Bye Bye Love.wav" WAVE
TRACK 02 AUDIO
TITLE "Bye Bye Love"
PERFORMER "Everly Brothers"
ISRC 000000000000
INDEX 01 00:00:00
FILE "03 Dream Lover.wav" WAVE
TRACK 03 AUDIO
TITLE "Dream Lover"
PERFORMER "Johnny Burnette"
ISRC 000000000000
INDEX 01 00:00:00
FILE "04 Heartbeat.wav" WAVE
TRACK 04 AUDIO
TITLE "Heartbeat"
PERFORMER "Bobby Vee"
ISRC 000000000000
INDEX 01 00:00:00
FILE "05 Ain't That A Shame.wav" WAVE
TRACK 05 AUDIO
TITLE "Ain't That A Shame"
PERFORMER "Fats Domino"
ISRC 000000000000
INDEX 01 00:00:00
FILE "06 Please Don't Touch.wav" WAVE
TRACK 06 AUDIO
TITLE "Please Don't Touch"
PERFORMER "Johnny Kidd & The Pirates"
ISRC 000000000000
INDEX 01 00:00:00
FILE "07 Five Foot Two, Eyes Of Blue.wav" WAVE
TRACK 07 AUDIO
TITLE "Five Foot Two, Eyes Of Blue"
PERFORMER "Shane Fenton & The Fentones"
ISRC 000000000000
INDEX 01 00:00:00
FILE "08 Yakety Yak.wav" WAVE
TRACK 08 AUDIO
TITLE "Yakety Yak"
PERFORMER "Wanda Jackson"
ISRC 000000000000
INDEX 01 00:00:00
FILE "09 Another Saturday Night.wav" WAVE
TRACK 09 AUDIO
TITLE "Another Saturday Night"
PERFORMER "Gene Vincent"
ISRC 000000000000
INDEX 01 00:00:00
FILE "10 Long Tall Sally.wav" WAVE
TRACK 10 AUDIO
TITLE "Long Tall Sally"
PERFORMER "Eddie Cochran"
ISRC 000000000000
INDEX 01 00:00:00
FILE "11 Giddy Up A Ding Dong.wav" WAVE
TRACK 11 AUDIO
TITLE "Giddy Up A Ding Dong"
PERFORMER "Ray Ellington"
ISRC 000000000000
INDEX 01 00:00:00
FILE "12 Rock A Billy.wav" WAVE
TRACK 12 AUDIO
TITLE "Rock A Billy"
PERFORMER "Billie Anthony"
ISRC 000000000000
INDEX 01 00:00:00
FILE "13 Bony Maronie.wav" WAVE
TRACK 13 AUDIO
TITLE "Bony Maronie"
PERFORMER "Sandy Nelson"
ISRC 000000000000
INDEX 01 00:00:00
FILE "14 Bo Diddley.wav" WAVE
TRACK 14 AUDIO
TITLE "Bo Diddley"
PERFORMER "Crickets"
ISRC 000000000000
INDEX 01 00:00:00
FILE "15 Jailhouse Rock.wav" WAVE
TRACK 15 AUDIO
TITLE "Jailhouse Rock"
PERFORMER "Frankie Lymon & The Teenagers"
ISRC 000000000000
INDEX 01 00:00:00
FILE "16 That'll Be The Day.wav" WAVE
TRACK 16 AUDIO
TITLE "That'll Be The Day"
PERFORMER "Larry Page"
ISRC 000000000000
INDEX 01 00:00:00
FILE "17 Girl Of My Best Friend.wav" WAVE
TRACK 17 AUDIO
TITLE "Girl Of My Best Friend"
PERFORMER "Ral Donner"
ISRC 000000000000
INDEX 01 00:00:00
FILE "18 Tallahassee Lassie.wav" WAVE
TRACK 18 AUDIO
TITLE "Tallahassee Lassie"
PERFORMER "Jan & Dean"
ISRC 000000000000
INDEX 01 00:00:00
FILE "19 Hanky Panky.wav" WAVE
TRACK 19 AUDIO
TITLE "Hanky Panky"
PERFORMER "Tommy James & The Shondells"
ISRC 000000000000
INDEX 01 00:00:00
FILE "20 Lollipop.wav" WAVE
TRACK 20 AUDIO
TITLE "Lollipop"
PERFORMER "Mudlarks"
ISRC 000000000000
INDEX 01 00:00:00
FILE "21 Poor Little Fool.wav" WAVE
TRACK 21 AUDIO
TITLE "Poor Little Fool"
PERFORMER "Ricky Nelson"
ISRC 000000000000
INDEX 01 00:00:00
FILE "22 Mabellene.wav" WAVE
TRACK 22 AUDIO
TITLE "Mabellene"
PERFORMER "Tommy Sands"
ISRC 000000000000
INDEX 01 00:00:00
FILE "23 Baby Sittin'.wav" WAVE
TRACK 23 AUDIO
TITLE "Baby Sittin'"
PERFORMER "Bobby Angelo & The Tuxedos"
ISRC 000000000000
INDEX 01 00:00:00
FILE "24 I Hear You Knocking.wav" WAVE
TRACK 24 AUDIO
TITLE "I Hear You Knocking"
PERFORMER "Fats Domino"
ISRC 000000000000
INDEX 01 00:00:00
FILE "25 Three Steps To Heaven.wav" WAVE
TRACK 25 AUDIO
TITLE "Three Steps To Heaven"
PERFORMER "Eddie Cochran"
ISRC 000000000000
INDEX 01 00:00:00
TRACK 26 MODEx/2xxx
TITLE "DATA"
PERFORMER "VA"
INDEX 00 02:21:61

Rock 'n' Roll Jukebox Disc 2.cue

REM GENRE "Rock & Roll"
REM DATE 2004
REM DISCID 6F11561A
REM COMMENT "ExactAudioCopy v1.0b3"
PERFORMER "VA"
TITLE "Rock 'n' Roll Jukebox Disc 2"
FILE "01 Don't Be Cruel.wav" WAVE
TRACK 01 AUDIO
TITLE "Don't Be Cruel"
PERFORMER "Jordinaires"
ISRC 000000000000
INDEX 01 00:00:00
FILE "02 Bye Bye Love.wav" WAVE
TRACK 02 AUDIO
TITLE "Bye Bye Love"
PERFORMER "Everly Brothers"
ISRC 000000000000
INDEX 01 00:00:00
FILE "03 Dream Lover.wav" WAVE
TRACK 03 AUDIO
TITLE "Dream Lover"
PERFORMER "Johnny Burnette"
ISRC 000000000000
INDEX 01 00:00:00
FILE "04 Heartbeat.wav" WAVE
TRACK 04 AUDIO
TITLE "Heartbeat"
PERFORMER "Bobby Vee"
ISRC 000000000000
INDEX 01 00:00:00
FILE "05 Ain't That A Shame.wav" WAVE
TRACK 05 AUDIO
TITLE "Ain't That A Shame"
PERFORMER "Fats Domino"
ISRC 000000000000
INDEX 01 00:00:00
FILE "06 Please Don't Touch.wav" WAVE
TRACK 06 AUDIO
TITLE "Please Don't Touch"
PERFORMER "Johnny Kidd & The Pirates"
ISRC 000000000000
INDEX 01 00:00:00
FILE "07 Five Foot Two, Eyes Of Blue.wav" WAVE
TRACK 07 AUDIO
TITLE "Five Foot Two, Eyes Of Blue"
PERFORMER "Shane Fenton & The Fentones"
ISRC 000000000000
INDEX 01 00:00:00
FILE "08 Yakety Yak.wav" WAVE
TRACK 08 AUDIO
TITLE "Yakety Yak"
PERFORMER "Wanda Jackson"
ISRC 000000000000
INDEX 01 00:00:00
FILE "09 Another Saturday Night.wav" WAVE
TRACK 09 AUDIO
TITLE "Another Saturday Night"
PERFORMER "Gene Vincent"
ISRC 000000000000
INDEX 01 00:00:00
FILE "10 Long Tall Sally.wav" WAVE
TRACK 10 AUDIO
TITLE "Long Tall Sally"
PERFORMER "Eddie Cochran"
ISRC 000000000000
INDEX 01 00:00:00
FILE "11 Giddy Up A Ding Dong.wav" WAVE
TRACK 11 AUDIO
TITLE "Giddy Up A Ding Dong"
PERFORMER "Ray Ellington"
ISRC 000000000000
INDEX 01 00:00:00
FILE "12 Rock A Billy.wav" WAVE
TRACK 12 AUDIO
TITLE "Rock A Billy"
PERFORMER "Billie Anthony"
ISRC 000000000000
INDEX 01 00:00:00
FILE "13 Bony Maronie.wav" WAVE
TRACK 13 AUDIO
TITLE "Bony Maronie"
PERFORMER "Sandy Nelson"
ISRC 000000000000
INDEX 01 00:00:00
FILE "14 Bo Diddley.wav" WAVE
TRACK 14 AUDIO
TITLE "Bo Diddley"
PERFORMER "Crickets"
ISRC 000000000000
INDEX 01 00:00:00
FILE "15 Jailhouse Rock.wav" WAVE
TRACK 15 AUDIO
TITLE "Jailhouse Rock"
PERFORMER "Frankie Lymon & The Teenagers"
ISRC 000000000000
INDEX 01 00:00:00
FILE "16 That'll Be The Day.wav" WAVE
TRACK 16 AUDIO
TITLE "That'll Be The Day"
PERFORMER "Larry Page"
ISRC 000000000000
INDEX 01 00:00:00
FILE "17 Girl Of My Best Friend.wav" WAVE
TRACK 17 AUDIO
TITLE "Girl Of My Best Friend"
PERFORMER "Ral Donner"
ISRC 000000000000
INDEX 01 00:00:00
FILE "18 Tallahassee Lassie.wav" WAVE
TRACK 18 AUDIO
TITLE "Tallahassee Lassie"
PERFORMER "Jan & Dean"
ISRC 000000000000
INDEX 01 00:00:00
FILE "19 Hanky Panky.wav" WAVE
TRACK 19 AUDIO
TITLE "Hanky Panky"
PERFORMER "Tommy James & The Shondells"
ISRC 000000000000
INDEX 01 00:00:00
FILE "20 Lollipop.wav" WAVE
TRACK 20 AUDIO
TITLE "Lollipop"
PERFORMER "Mudlarks"
ISRC 000000000000
INDEX 01 00:00:00
FILE "21 Poor Little Fool.wav" WAVE
TRACK 21 AUDIO
TITLE "Poor Little Fool"
PERFORMER "Ricky Nelson"
ISRC 000000000000
INDEX 01 00:00:00
FILE "22 Mabellene.wav" WAVE
TRACK 22 AUDIO
TITLE "Mabellene"
PERFORMER "Tommy Sands"
ISRC 000000000000
INDEX 01 00:00:00
FILE "23 Baby Sittin'.wav" WAVE
TRACK 23 AUDIO
TITLE "Baby Sittin'"
PERFORMER "Bobby Angelo & The Tuxedos"
ISRC 000000000000
INDEX 01 00:00:00
FILE "24 I Hear You Knocking.wav" WAVE
TRACK 24 AUDIO
TITLE "I Hear You Knocking"
PERFORMER "Fats Domino"
ISRC 000000000000
INDEX 01 00:00:00
FILE "25 Three Steps To Heaven.wav" WAVE
TRACK 25 AUDIO
TITLE "Three Steps To Heaven"
PERFORMER "Eddie Cochran"
ISRC 000000000000
INDEX 01 00:00:00

CD3

01. Gene Vincent / Good Golly Miss Molly [0:02:18.01]
02. Johnny Kidd & The Pirates / Shakin' All Over [0:02:21.24]
03. Bobby Freeman / Do You Wanna Dance [0:02:36.67]
04. Johnny Otis / Willie And The Hand Jive [0:02:36.42]
05. Eddie Cochran / C'Mon Everybody [0:01:56.52]
06. Shane Fenton & The Fentones / I'm A Moody Guy [0:02:38.66]
07. Tony Cronbie & The Rockets / Shortnin' Bread Rock [0:02:27.21]
08. Don Lang & The Frantic Five / The Big Beat [0:02:33.72]
09. Adam Faith / High School Confidential [0:02:22.44]
10. Johnny Burnette / You're Sixteen, You're Beautiful (And You're Mine) [0:01:56.38]
11. Wanda Jackson / Hard Headed Woman [0:01:59.00]
12. Bobby Vee / Take Good Care Of My Baby [0:02:28.63]
13. Rick Nelson / It's Late [0:01:57.19]
14. Frankie Lymon & The Teenagers / Who Put The Bomp [0:02:59.35]
15. Dion & The Belmonts / The Wanderer [0:02:42.69]
16. Fats Domino / Blueberry Hill [0:02:22.09]
17. Flamingos / I Only Have Eyes For You [0:03:20.13]
18. Johnny Tillotson / Poetry In Motion [0:02:30.63]
19. Don Lang / Witch Doctor [0:02:28.22]
20. Shane Fenton & The Fentones / Hey Miss Ruby [0:02:12.69]
21. Billie Anthony / This Ole House [0:02:19.46]
22. Swinging Blue Jeans / It's In Her Kiss [0:02:27.01]
23. Bobby Angelo & The Tuxedos / Skinny Lizzie [0:01:39.20]
24. Tony Crombie & The Rockets / Rock 'n' Roller Coaster [0:02:01.55]
25. Cougers / Saturday Night At The Duckpond [0:02:11.72]

Лог создания рипа

Exact Audio Copy V1.0 beta 3 from 29. August 2011
Отчёт EAC об извлечении, выполненном 23. сентября 2014, 18:13
Various / Rock 'n' Roll Jukebox Disc 3
Дисковод: ASUS DRW-1814BLT Adapter: 4 ID: 0
Режим чтения : Достоверность
Использование точного потока : Да
Отключение кэша аудио : Да
Использование указателей C2 : Нет
Коррекция смещения при чтении : 6
Способность читать области Lead-in и Lead-out : Нет
Заполнение пропущенных сэмплов тишиной : Да
Удаление блоков с тишиной в начале и конце : Нет
При вычислениях CRC использовались нулевые сэмплы : Да
Интерфейс : Встроенный Win32-интерфейс для Win NT/2000
Обработка зазоров : Добавлено к предыдущему треку
Выходной формат : Пользовательский кодировщик
Выбранный битрейт : 128 kBit/s
Качество : Высокий
Добавление ID3-тега : Нет
Утилита сжатия : C:\Program Files\Exact Audio Copy\Flac\flac.exe
Дополнительные параметры : -V -8 -T "Genre=%genre%" -T "Artist=%artist%" -T "Title=%title%" -T "Album=%albumtitle%" -T "Date=%year%" -T "Tracknumber=%tracknr%" -T "Comment=EAC1.0b2 FLAC -8" %source%
TOC извлечённого CD
Трек | Старт | Длительность | Начальный сектор | Конечный сектор
---------------------------------------------------------------------
1 | 0:00.00 | 2:18.01 | 0 | 10350
2 | 2:18.01 | 2:21.24 | 10351 | 20949
3 | 4:39.25 | 2:36.67 | 20950 | 32716
4 | 7:16.17 | 2:36.42 | 32717 | 44458
5 | 9:52.59 | 1:56.52 | 44459 | 53210
6 | 11:49.36 | 2:38.66 | 53211 | 65126
7 | 14:28.27 | 2:27.21 | 65127 | 76172
8 | 16:55.48 | 2:33.72 | 76173 | 87719
9 | 19:29.45 | 2:22.44 | 87720 | 98413
10 | 21:52.14 | 1:56.38 | 98414 | 107151
11 | 23:48.52 | 1:59.00 | 107152 | 116076
12 | 25:47.52 | 2:28.63 | 116077 | 127239
13 | 28:16.40 | 1:57.19 | 127240 | 136033
14 | 30:13.59 | 2:59.35 | 136034 | 149493
15 | 33:13.19 | 2:42.69 | 149494 | 161712
16 | 35:56.13 | 2:22.09 | 161713 | 172371
17 | 38:18.22 | 3:20.13 | 172372 | 187384
18 | 41:38.35 | 2:30.63 | 187385 | 198697
19 | 44:09.23 | 2:28.22 | 198698 | 209819
20 | 46:37.45 | 2:12.69 | 209820 | 219788
21 | 48:50.39 | 2:19.46 | 219789 | 230259
22 | 51:10.10 | 2:27.01 | 230260 | 241285
23 | 53:37.11 | 1:39.20 | 241286 | 248730
24 | 55:16.31 | 2:01.55 | 248731 | 257860
25 | 57:18.11 | 2:11.72 | 257861 | 267757
26 | 62:02.08 | 11:55.67 | 279158 | 332849
Трек 1
Имя файла R:\Раздача 24\VA - Rock'n'Roll Jukebox - 2004 (3CD)\CD3\01 Good Golly Miss Molly.wav
Длина предзазора 0:00:02.00
Пиковый уровень 66.4 %
Скорость извлечения 4.3 X
Качество трека 100.0 %
CRC теста E2DA852F
CRC копии E2DA852F
Трек не обнаружен в базе AccurateRip
Копирование... OK
Трек 2
Имя файла R:\Раздача 24\VA - Rock'n'Roll Jukebox - 2004 (3CD)\CD3\02 Shakin' All Over.wav
Пиковый уровень 100.0 %
Скорость извлечения 4.5 X
Качество трека 100.0 %
CRC теста 3C7DAB7A
CRC копии 3C7DAB7A
Трек не обнаружен в базе AccurateRip
Копирование... OK
Трек 3
Имя файла R:\Раздача 24\VA - Rock'n'Roll Jukebox - 2004 (3CD)\CD3\03 Do You Wanna Dance.wav
Пиковый уровень 97.9 %
Скорость извлечения 4.9 X
Качество трека 100.0 %
CRC теста 4398F0BA
CRC копии 4398F0BA
Трек не обнаружен в базе AccurateRip
Копирование... OK
Трек 4
Имя файла R:\Раздача 24\VA - Rock'n'Roll Jukebox - 2004 (3CD)\CD3\04 Willie And The Hand Jive.wav
Пиковый уровень 97.7 %
Скорость извлечения 5.1 X
Качество трека 100.0 %
CRC теста 413C6DCC
CRC копии 413C6DCC
Трек не обнаружен в базе AccurateRip
Копирование... OK
Трек 5
Имя файла R:\Раздача 24\VA - Rock'n'Roll Jukebox - 2004 (3CD)\CD3\05 C'Mon Everybody.wav
Пиковый уровень 97.1 %
Скорость извлечения 5.0 X
Качество трека 100.0 %
CRC теста EDE8C49F
CRC копии EDE8C49F
Трек не обнаружен в базе AccurateRip
Копирование... OK
Трек 6
Имя файла R:\Раздача 24\VA - Rock'n'Roll Jukebox - 2004 (3CD)\CD3\06 I'm A Moody Guy.wav
Пиковый уровень 90.6 %
Скорость извлечения 5.6 X
Качество трека 100.0 %
CRC теста B479F0A8
CRC копии B479F0A8
Трек не обнаружен в базе AccurateRip
Копирование... OK
Трек 7
Имя файла R:\Раздача 24\VA - Rock'n'Roll Jukebox - 2004 (3CD)\CD3\07 Shortnin' Bread Rock.wav
Пиковый уровень 100.0 %
Скорость извлечения 5.6 X
Качество трека 100.0 %
CRC теста 0AE4605B
CRC копии 0AE4605B
Трек не обнаружен в базе AccurateRip
Копирование... OK
Трек 8
Имя файла R:\Раздача 24\VA - Rock'n'Roll Jukebox - 2004 (3CD)\CD3\08 The Big Beat.wav
Пиковый уровень 100.0 %
Скорость извлечения 5.9 X
Качество трека 100.0 %
CRC теста D504FB26
CRC копии D504FB26
Трек не обнаружен в базе AccurateRip
Копирование... OK
Трек 9
Имя файла R:\Раздача 24\VA - Rock'n'Roll Jukebox - 2004 (3CD)\CD3\09 High School Confidential.wav
Пиковый уровень 87.8 %
Скорость извлечения 6.0 X
Качество трека 100.0 %
CRC теста 56B23A94
CRC копии 56B23A94
Трек не обнаружен в базе AccurateRip
Копирование... OK
Трек 10
Имя файла R:\Раздача 24\VA - Rock'n'Roll Jukebox - 2004 (3CD)\CD3\10 You're Sixteen, You're Beautiful (And You're Mine).wav
Пиковый уровень 87.3 %
Скорость извлечения 3.8 X
Качество трека 99.9 %
CRC теста 733EE51B
CRC копии 733EE51B
Трек не обнаружен в базе AccurateRip
Копирование... OK
Трек 11
Имя файла R:\Раздача 24\VA - Rock'n'Roll Jukebox - 2004 (3CD)\CD3\11 Hard Headed Woman.wav
Пиковый уровень 100.0 %
Скорость извлечения 6.1 X
Качество трека 100.0 %
CRC теста A36E2E35
CRC копии A36E2E35
Трек не обнаружен в базе AccurateRip
Копирование... OK
Трек 12
Имя файла R:\Раздача 24\VA - Rock'n'Roll Jukebox - 2004 (3CD)\CD3\12 Take Good Care Of My Baby.wav
Пиковый уровень 85.8 %
Скорость извлечения 6.5 X
Качество трека 100.0 %
CRC теста A6249B38
CRC копии A6249B38
Трек не обнаружен в базе AccurateRip
Копирование... OK
Трек 13
Имя файла R:\Раздача 24\VA - Rock'n'Roll Jukebox - 2004 (3CD)\CD3\13 It's Late.wav
Пиковый уровень 98.2 %
Скорость извлечения 6.3 X
Качество трека 100.0 %
CRC теста 01C6D926
CRC копии 01C6D926
Трек не обнаружен в базе AccurateRip
Копирование... OK
Трек 14
Имя файла R:\Раздача 24\VA - Rock'n'Roll Jukebox - 2004 (3CD)\CD3\14 Who Put The Bomp.wav
Пиковый уровень 90.9 %
Скорость извлечения 7.1 X
Качество трека 100.0 %
CRC теста BE32DC2B
CRC копии BE32DC2B
Трек не обнаружен в базе AccurateRip
Копирование... OK
Трек 15
Имя файла R:\Раздача 24\VA - Rock'n'Roll Jukebox - 2004 (3CD)\CD3\15 The Wanderer.wav
Пиковый уровень 97.3 %
Скорость извлечения 7.0 X
Качество трека 100.0 %
CRC теста 072A2C1A
CRC копии 072A2C1A
Трек не обнаружен в базе AccurateRip
Копирование... OK
Трек 16
Имя файла R:\Раздача 24\VA - Rock'n'Roll Jukebox - 2004 (3CD)\CD3\16 Blueberry Hill.wav
Пиковый уровень 84.6 %
Скорость извлечения 6.9 X
Качество трека 100.0 %
CRC теста BE74E650
CRC копии BE74E650
Трек не обнаружен в базе AccurateRip
Копирование... OK
Трек 17
Имя файла R:\Раздача 24\VA - Rock'n'Roll Jukebox - 2004 (3CD)\CD3\17 I Only Have Eyes For You.wav
Пиковый уровень 97.7 %
Скорость извлечения 5.3 X
Качество трека 99.9 %
CRC теста 553A1CFB
CRC копии 553A1CFB
Трек не обнаружен в базе AccurateRip
Копирование... OK
Трек 18
Имя файла R:\Раздача 24\VA - Rock'n'Roll Jukebox - 2004 (3CD)\CD3\18 Poetry In Motion.wav
Пиковый уровень 66.8 %
Скорость извлечения 7.4 X
Качество трека 100.0 %
CRC теста 9DC90B4B
CRC копии 9DC90B4B
Трек не обнаружен в базе AccurateRip
Копирование... OK
Трек 19
Имя файла R:\Раздача 24\VA - Rock'n'Roll Jukebox - 2004 (3CD)\CD3\19 Witch Doctor.wav
Пиковый уровень 100.0 %
Скорость извлечения 7.5 X
Качество трека 100.0 %
CRC теста 21A9C131
CRC копии 21A9C131
Трек не обнаружен в базе AccurateRip
Копирование... OK
Трек 20
Имя файла R:\Раздача 24\VA - Rock'n'Roll Jukebox - 2004 (3CD)\CD3\20 Hey Miss Ruby.wav
Пиковый уровень 100.0 %
Скорость извлечения 7.5 X
Качество трека 100.0 %
CRC теста EBE20CD8
CRC копии EBE20CD8
Трек не обнаружен в базе AccurateRip
Копирование... OK
Трек 21
Имя файла R:\Раздача 24\VA - Rock'n'Roll Jukebox - 2004 (3CD)\CD3\21 This Ole House.wav
Пиковый уровень 100.0 %
Скорость извлечения 7.8 X
Качество трека 100.0 %
CRC теста 782F93C6
CRC копии 782F93C6
Трек не обнаружен в базе AccurateRip
Копирование... OK
Трек 22
Имя файла R:\Раздача 24\VA - Rock'n'Roll Jukebox - 2004 (3CD)\CD3\22 It's In Her Kiss.wav
Пиковый уровень 70.6 %
Скорость извлечения 7.8 X
Качество трека 100.0 %
CRC теста 1176710D
CRC копии 1176710D
Трек не обнаружен в базе AccurateRip
Копирование... OK
Трек 23
Имя файла R:\Раздача 24\VA - Rock'n'Roll Jukebox - 2004 (3CD)\CD3\23 Skinny Lizzie.wav
Пиковый уровень 93.7 %
Скорость извлечения 4.7 X
Качество трека 99.8 %
CRC теста D23551FF
CRC копии D23551FF
Трек не обнаружен в базе AccurateRip
Копирование... OK
Трек 24
Имя файла R:\Раздача 24\VA - Rock'n'Roll Jukebox - 2004 (3CD)\CD3\24 Rock 'n' Roller Coaster.wav
Пиковый уровень 94.9 %
Скорость извлечения 7.7 X
Качество трека 100.0 %
CRC теста 5132BA0C
CRC копии 5132BA0C
Трек не обнаружен в базе AccurateRip
Копирование... OK
Трек 25
Имя файла R:\Раздача 24\VA - Rock'n'Roll Jukebox - 2004 (3CD)\CD3\25 Saturday Night At The Duckpond.wav
Пиковый уровень 94.2 %
Скорость извлечения 7.9 X
Качество трека 100.0 %
CRC теста DB4645CF
CRC копии DB4645CF
Трек не обнаружен в базе AccurateRip
Копирование... OK
Ни одного трека нет в базе AccurateRip
Ошибок не произошло
Конец отчёта
==== Контрольная сумма отчёта 2B46D6EA8195F717AF0C1FAE3197B2084DC8FCE066330BA75B79828EF58D7D09 ====

Содержание индексной карты (CUE.)

Файл Rock 'n' Roll Jukebox Disc 3 (no edit).cue только для проверки.
Файл Rock 'n' Roll Jukebox Disc 3.cue для записи диска.

Rock 'n' Roll Jukebox Disc 3 (no edit).cue

REM GENRE "Rock & Roll"
REM DISCID 5C11561A
REM COMMENT "ExactAudioCopy v1.0b3"
PERFORMER "Various"
TITLE "Rock 'n' Roll Jukebox Disc 3"
FILE "01 Good Golly Miss Molly.wav" WAVE
TRACK 01 AUDIO
TITLE "Good Golly Miss Molly"
PERFORMER "Gene Vincent"
ISRC 000000000000
INDEX 01 00:00:00
FILE "02 Shakin' All Over.wav" WAVE
TRACK 02 AUDIO
TITLE "Shakin' All Over"
PERFORMER "Johnny Kidd & The Pirates"
ISRC 000000000000
INDEX 01 00:00:00
FILE "03 Do You Wanna Dance.wav" WAVE
TRACK 03 AUDIO
TITLE "Do You Wanna Dance"
PERFORMER "Bobby Freeman"
ISRC 000000000000
INDEX 01 00:00:00
FILE "04 Willie And The Hand Jive.wav" WAVE
TRACK 04 AUDIO
TITLE "Willie And The Hand Jive"
PERFORMER "Johnny Otis"
ISRC 000000000000
INDEX 01 00:00:00
FILE "05 C'Mon Everybody.wav" WAVE
TRACK 05 AUDIO
TITLE "C'Mon Everybody"
PERFORMER "Eddie Cochran"
ISRC 000000000000
INDEX 01 00:00:00
FILE "06 I'm A Moody Guy.wav" WAVE
TRACK 06 AUDIO
TITLE "I'm A Moody Guy"
PERFORMER "Shane Fenton & The Fentones"
ISRC 000000000000
INDEX 01 00:00:00
FILE "07 Shortnin' Bread Rock.wav" WAVE
TRACK 07 AUDIO
TITLE "Shortnin' Bread Rock"
PERFORMER "Tony Cronbie & The Rockets"
ISRC 000000000000
INDEX 01 00:00:00
FILE "08 The Big Beat.wav" WAVE
TRACK 08 AUDIO
TITLE "The Big Beat"
PERFORMER "Don Lang & The Frantic Five"
ISRC 000000000000
INDEX 01 00:00:00
FILE "09 High School Confidential.wav" WAVE
TRACK 09 AUDIO
TITLE "High School Confidential"
PERFORMER "Adam Faith"
ISRC 000000000000
INDEX 01 00:00:00
FILE "10 You're Sixteen, You're Beautiful (And You're Mine).wav" WAVE
TRACK 10 AUDIO
TITLE "You're Sixteen, You're Beautiful (And You're Mine)"
PERFORMER "Johnny Burnette"
ISRC 000000000000
INDEX 01 00:00:00
FILE "11 Hard Headed Woman.wav" WAVE
TRACK 11 AUDIO
TITLE "Hard Headed Woman"
PERFORMER "Wanda Jackson"
ISRC 000000000000
INDEX 01 00:00:00
FILE "12 Take Good Care Of My Baby.wav" WAVE
TRACK 12 AUDIO
TITLE "Take Good Care Of My Baby"
PERFORMER "Bobby Vee"
ISRC 000000000000
INDEX 01 00:00:00
FILE "13 It's Late.wav" WAVE
TRACK 13 AUDIO
TITLE "It's Late"
PERFORMER "Rick Nelson"
ISRC 000000000000
INDEX 01 00:00:00
FILE "14 Who Put The Bomp.wav" WAVE
TRACK 14 AUDIO
TITLE "Who Put The Bomp"
PERFORMER "Frankie Lymon & The Teenagers"
ISRC 000000000000
INDEX 01 00:00:00
FILE "15 The Wanderer.wav" WAVE
TRACK 15 AUDIO
TITLE "The Wanderer"
PERFORMER "Dion & The Belmonts"
ISRC 000000000000
INDEX 01 00:00:00
FILE "16 Blueberry Hill.wav" WAVE
TRACK 16 AUDIO
TITLE "Blueberry Hill"
PERFORMER "Fats Domino"
ISRC 000000000000
INDEX 01 00:00:00
FILE "17 I Only Have Eyes For You.wav" WAVE
TRACK 17 AUDIO
TITLE "I Only Have Eyes For You"
PERFORMER "Flamingos"
ISRC 000000000000
INDEX 01 00:00:00
FILE "18 Poetry In Motion.wav" WAVE
TRACK 18 AUDIO
TITLE "Poetry In Motion"
PERFORMER "Johnny Tillotson"
ISRC 000000000000
INDEX 01 00:00:00
FILE "19 Witch Doctor.wav" WAVE
TRACK 19 AUDIO
TITLE "Witch Doctor"
PERFORMER "Don Lang"
ISRC 000000000000
INDEX 01 00:00:00
FILE "20 Hey Miss Ruby.wav" WAVE
TRACK 20 AUDIO
TITLE "Hey Miss Ruby"
PERFORMER "Shane Fenton & The Fentones"
ISRC 000000000000
INDEX 01 00:00:00
FILE "21 This Ole House.wav" WAVE
TRACK 21 AUDIO
TITLE "This Ole House"
PERFORMER "Billie Anthony"
ISRC 000000000000
INDEX 01 00:00:00
FILE "22 It's In Her Kiss.wav" WAVE
TRACK 22 AUDIO
TITLE "It's In Her Kiss"
PERFORMER "Swinging Blue Jeans"
ISRC 000000000000
INDEX 01 00:00:00
FILE "23 Skinny Lizzie.wav" WAVE
TRACK 23 AUDIO
TITLE "Skinny Lizzie"
PERFORMER "Bobby Angelo & The Tuxedos"
ISRC 000000000000
INDEX 01 00:00:00
FILE "24 Rock 'n' Roller Coaster.wav" WAVE
TRACK 24 AUDIO
TITLE "Rock 'n' Roller Coaster"
PERFORMER "Tony Crombie & The Rockets"
ISRC 000000000000
INDEX 01 00:00:00
FILE "25 Saturday Night At The Duckpond.wav" WAVE
TRACK 25 AUDIO
TITLE "Saturday Night At The Duckpond"
PERFORMER "Cougers"
ISRC 000000000000
INDEX 01 00:00:00
TRACK 26 MODEx/2xxx
TITLE "DATA"
PERFORMER "Various"
INDEX 00 02:11:72

Rock 'n' Roll Jukebox Disc 3.cue

REM GENRE "Rock & Roll"
REM DISCID 5C11561A
REM COMMENT "ExactAudioCopy v1.0b3"
PERFORMER "Various"
TITLE "Rock 'n' Roll Jukebox Disc 3"
FILE "01 Good Golly Miss Molly.wav" WAVE
TRACK 01 AUDIO
TITLE "Good Golly Miss Molly"
PERFORMER "Gene Vincent"
ISRC 000000000000
INDEX 01 00:00:00
FILE "02 Shakin' All Over.wav" WAVE
TRACK 02 AUDIO
TITLE "Shakin' All Over"
PERFORMER "Johnny Kidd & The Pirates"
ISRC 000000000000
INDEX 01 00:00:00
FILE "03 Do You Wanna Dance.wav" WAVE
TRACK 03 AUDIO
TITLE "Do You Wanna Dance"
PERFORMER "Bobby Freeman"
ISRC 000000000000
INDEX 01 00:00:00
FILE "04 Willie And The Hand Jive.wav" WAVE
TRACK 04 AUDIO
TITLE "Willie And The Hand Jive"
PERFORMER "Johnny Otis"
ISRC 000000000000
INDEX 01 00:00:00
FILE "05 C'Mon Everybody.wav" WAVE
TRACK 05 AUDIO
TITLE "C'Mon Everybody"
PERFORMER "Eddie Cochran"
ISRC 000000000000
INDEX 01 00:00:00
FILE "06 I'm A Moody Guy.wav" WAVE
TRACK 06 AUDIO
TITLE "I'm A Moody Guy"
PERFORMER "Shane Fenton & The Fentones"
ISRC 000000000000
INDEX 01 00:00:00
FILE "07 Shortnin' Bread Rock.wav" WAVE
TRACK 07 AUDIO
TITLE "Shortnin' Bread Rock"
PERFORMER "Tony Cronbie & The Rockets"
ISRC 000000000000
INDEX 01 00:00:00
FILE "08 The Big Beat.wav" WAVE
TRACK 08 AUDIO
TITLE "The Big Beat"
PERFORMER "Don Lang & The Frantic Five"
ISRC 000000000000
INDEX 01 00:00:00
FILE "09 High School Confidential.wav" WAVE
TRACK 09 AUDIO
TITLE "High School Confidential"
PERFORMER "Adam Faith"
ISRC 000000000000
INDEX 01 00:00:00
FILE "10 You're Sixteen, You're Beautiful (And You're Mine).wav" WAVE
TRACK 10 AUDIO
TITLE "You're Sixteen, You're Beautiful (And You're Mine)"
PERFORMER "Johnny Burnette"
ISRC 000000000000
INDEX 01 00:00:00
FILE "11 Hard Headed Woman.wav" WAVE
TRACK 11 AUDIO
TITLE "Hard Headed Woman"
PERFORMER "Wanda Jackson"
ISRC 000000000000
INDEX 01 00:00:00
FILE "12 Take Good Care Of My Baby.wav" WAVE
TRACK 12 AUDIO
TITLE "Take Good Care Of My Baby"
PERFORMER "Bobby Vee"
ISRC 000000000000
INDEX 01 00:00:00
FILE "13 It's Late.wav" WAVE
TRACK 13 AUDIO
TITLE "It's Late"
PERFORMER "Rick Nelson"
ISRC 000000000000
INDEX 01 00:00:00
FILE "14 Who Put The Bomp.wav" WAVE
TRACK 14 AUDIO
TITLE "Who Put The Bomp"
PERFORMER "Frankie Lymon & The Teenagers"
ISRC 000000000000
INDEX 01 00:00:00
FILE "15 The Wanderer.wav" WAVE
TRACK 15 AUDIO
TITLE "The Wanderer"
PERFORMER "Dion & The Belmonts"
ISRC 000000000000
INDEX 01 00:00:00
FILE "16 Blueberry Hill.wav" WAVE
TRACK 16 AUDIO
TITLE "Blueberry Hill"
PERFORMER "Fats Domino"
ISRC 000000000000
INDEX 01 00:00:00
FILE "17 I Only Have Eyes For You.wav" WAVE
TRACK 17 AUDIO
TITLE "I Only Have Eyes For You"
PERFORMER "Flamingos"
ISRC 000000000000
INDEX 01 00:00:00
FILE "18 Poetry In Motion.wav" WAVE
TRACK 18 AUDIO
TITLE "Poetry In Motion"
PERFORMER "Johnny Tillotson"
ISRC 000000000000
INDEX 01 00:00:00
FILE "19 Witch Doctor.wav" WAVE
TRACK 19 AUDIO
TITLE "Witch Doctor"
PERFORMER "Don Lang"
ISRC 000000000000
INDEX 01 00:00:00
FILE "20 Hey Miss Ruby.wav" WAVE
TRACK 20 AUDIO
TITLE "Hey Miss Ruby"
PERFORMER "Shane Fenton & The Fentones"
ISRC 000000000000
INDEX 01 00:00:00
FILE "21 This Ole House.wav" WAVE
TRACK 21 AUDIO
TITLE "This Ole House"
PERFORMER "Billie Anthony"
ISRC 000000000000
INDEX 01 00:00:00
FILE "22 It's In Her Kiss.wav" WAVE
TRACK 22 AUDIO
TITLE "It's In Her Kiss"
PERFORMER "Swinging Blue Jeans"
ISRC 000000000000
INDEX 01 00:00:00
FILE "23 Skinny Lizzie.wav" WAVE
TRACK 23 AUDIO
TITLE "Skinny Lizzie"
PERFORMER "Bobby Angelo & The Tuxedos"
ISRC 000000000000
INDEX 01 00:00:00
FILE "24 Rock 'n' Roller Coaster.wav" WAVE
TRACK 24 AUDIO
TITLE "Rock 'n' Roller Coaster"
PERFORMER "Tony Crombie & The Rockets"
ISRC 000000000000
INDEX 01 00:00:00
FILE "25 Saturday Night At The Duckpond.wav" WAVE
TRACK 25 AUDIO
TITLE "Saturday Night At The Duckpond"
PERFORMER "Cougers"
ISRC 000000000000
INDEX 01 00:00:00

Extra

В папках Extra, на каждом CD, не музыкальная часть данного издания.

To download the file disable ad blocking, and reload the page.

disable adblock How to disable ad blocking?

Download by magnet link 1.04 GB Download Torrent

Login using:



   
Current time is: 18-Sep 17:24 :: All times are UTC ± 0