Various Artists -- Classic Rock Society - New Species - Volume XII
Жанр: Progressive Rock
Страна: multinational
Год издания диска: 2014
Издатель (Label): Classic Rock Society
Catalog Nr.: CRS CD012
Тип рипа: image+.cue (test&copy)
Битрейт аудио: lossless
Продолжительность: 68:43
Источник (автор рипа): свой рип

Трэклист:
1. Also Eden / Decoded (5:37)
2. The Tirith / Daughter Of The Water (6:46)
3. The Bulbs / 3572 Off (5:53)
4. Aisles / Sorrow (6:57)
5. Airbridge / Quiet Sky (8:09)
6. Ni / Carl Lewis (6:08)
7. Dream The Electric Sleep / How Long We Wait (9:29)
8. Magic Bus / City Of Sand (7:22)
9. Poil / Tronche A Cul (6:48)
10. Ekos / Obscuridad (8:21)
11. Frequency Drift / Run (7:07)
Total time: 68:43
Доп. информация: CLASSIC ROCK SOCIETY SAMPLER CD - двенадцатый сборник новинок прогрессивной музыки от progrock.co.uk.

EAC log

Exact Audio Copy V1.0 beta 3 from 29. August 2011
EAC extraction logfile from 10. September 2014, 22:51
Classic Rock Society / New Species - Volume XII
Used drive : ASUS DRW-24B1LT Adapter: 4 ID: 0
Read mode : Secure
Utilize accurate stream : Yes
Defeat audio cache : Yes
Make use of C2 pointers : No
Read offset correction : 6
Overread into Lead-In and Lead-Out : No
Fill up missing offset samples with silence : Yes
Delete leading and trailing silent blocks : No
Null samples used in CRC calculations : Yes
Used interface : Native Win32 interface for Win NT & 2000
Used output format : User Defined Encoder
Selected bitrate : 1024 kBit/s
Quality : High
Add ID3 tag : Yes
Command line compressor : C:\Program Files (x86)\FLAC_1.3.0\flac.exe
Additional command line options : -6 -V -T "ARTIST=%artist%" -T "TITLE=%title%" -T "ALBUM=%albumtitle%" -T "DATE=%year%" -T "TRACKNUMBER=%tracknr%" -T "GENRE=%genre%" -T "COMMENT=%comment%" %source% -o %dest%
TOC of the extracted CD
Track | Start | Length | Start sector | End sector
---------------------------------------------------------
1 | 0:00.00 | 5:37.67 | 0 | 25341
2 | 5:37.67 | 6:46.18 | 25342 | 55809
3 | 12:24.10 | 5:53.20 | 55810 | 82304
4 | 18:17.30 | 6:57.35 | 82305 | 113614
5 | 25:14.65 | 8:09.15 | 113615 | 150304
6 | 33:24.05 | 6:08.41 | 150305 | 177945
7 | 39:32.46 | 9:29.44 | 177946 | 220664
8 | 49:02.15 | 7:22.61 | 220665 | 253875
9 | 56:25.01 | 6:48.42 | 253876 | 284517
10 | 63:13.43 | 8:21.18 | 284518 | 322110
11 | 71:34.61 | 7:07.59 | 322111 | 354194
Range status and errors
Selected range
Filename Y:\EAC\wurensh\CRS\Classic Rock Society - New Species - Volume XII.wav
Peak level 100.0 %
Extraction speed 3.8 X
Range quality 100.0 %
Test CRC F358F699
Copy CRC F358F699
Copy OK
No errors occurred
AccurateRip summary
Track 1 accurately ripped (confidence 5) [78D588C4] (AR v2)
Track 2 accurately ripped (confidence 5) [04F1B2F8] (AR v2)
Track 3 accurately ripped (confidence 5) [673DB526] (AR v2)
Track 4 accurately ripped (confidence 5) [717952BB] (AR v2)
Track 5 accurately ripped (confidence 5) [2C553BE8] (AR v2)
Track 6 accurately ripped (confidence 5) [A8F870F4] (AR v2)
Track 7 accurately ripped (confidence 5) [08828DBF] (AR v2)
Track 8 accurately ripped (confidence 5) [65E5164D] (AR v2)
Track 9 accurately ripped (confidence 5) [DA7F16A3] (AR v2)
Track 10 accurately ripped (confidence 5) [3DF95AED] (AR v2)
Track 11 accurately ripped (confidence 5) [96A9B919] (AR v2)
All tracks accurately ripped
End of status report
==== Log checksum 7EAD7747D88176C60D05B454468654AE5DA5FE079984AF4C7C6594A4FD957B2D ====

CUE sheet

REM GENRE "Progressive Rock"
REM DATE 2014
REM DISCID AF12720B
REM COMMENT "ExactAudioCopy v1.0b3"
PERFORMER "Classic Rock Society"
TITLE "New Species - Volume XII"
FILE "Classic Rock Society - New Species - Volume XII.flac" WAVE
TRACK 01 AUDIO
TITLE "Decoded"
PERFORMER "Also Eden"
INDEX 01 00:00:00
TRACK 02 AUDIO
TITLE "Daughter Of The Water"
PERFORMER "The Tirith"
INDEX 01 05:37:67
TRACK 03 AUDIO
TITLE "3572 Off"
PERFORMER "The Bulbs"
INDEX 01 12:24:10
TRACK 04 AUDIO
TITLE "Sorrow"
PERFORMER "Aisles"
INDEX 01 18:17:30
TRACK 05 AUDIO
TITLE "Quiet Sky"
PERFORMER "Airbridge"
INDEX 01 25:14:65
TRACK 06 AUDIO
TITLE "Carl Lewis"
PERFORMER "Ni"
INDEX 01 33:24:05
TRACK 07 AUDIO
TITLE "How Long We Wait"
PERFORMER "Dream The Electric Sleep"
INDEX 01 39:32:46
TRACK 08 AUDIO
TITLE "City Of Sand"
PERFORMER "Magic Bus"
INDEX 01 49:02:15
TRACK 09 AUDIO
TITLE "Tronche A Cul"
PERFORMER "Poil"
INDEX 01 56:25:01
TRACK 10 AUDIO
TITLE "Obscuridad"
PERFORMER "Ekos"
INDEX 01 63:13:43
TRACK 11 AUDIO
TITLE "Run"
PERFORMER "Frequency Drift"
INDEX 01 71:34:61

TAU data

Cardboard Sleeve scans 300dpi в комплекте.

To download the file disable ad blocking, and reload the page.

disable adblock How to disable ad blocking?

Download by magnet link 495 MB Download Torrent

Login using:

Similar topics



   
Current time is: 23-Sep 15:46 :: All times are UTC ± 0