California Music & Disney Girls: RCA/Equinox Collection
Жанр: Pop-Rock, Surf
Страна-производитель диска: Japan
Год издания: 2000
Издатель (лейбл): BMG Funhouse,Inc.
Номер по каталогу: BVCM-31050(74321-77744-2)
Страна: USA
Аудиокодек: FLAC (*.flac)
Тип рипа: tracks+.cue
Битрейт аудио: lossless
Продолжительность: 1:16:26.
Источник (релизер): clustert
Наличие сканов в содержимом раздачи: да
Треклист:
01. California Music / Don't Worry Baby [0:02:48.50]
02. California Music / Why Do Fools Fall In Love [0:02:04.50]
03. California Music / Jamaica Farewell [0:02:31.27]
04. California Music / California Music [0:03:24.60]
05. Papa Doo Run Run / Disney Girls [0:04:54.60]
06. Papa Doo Run Run / Be True To Your School [0:02:55.45]
07. George Lee / Summer [0:02:32.10]
08. Terry Melcher / L.A. To Mexico [0:02:48.60]
09. Terry Melcher / Fire In A Rainstorm [0:03:04.00]
10. Tony Martin Jr. / Nina [0:02:41.30]
11. Tony Martin Jr. / We Used To Love [0:04:46.20]
12. Bill House / You're No Better Than A Comon Thief [0:03:05.38]
13. Bill House / We Could Be So Good Together [0:02:55.60]
14. David Cassidy / Get It Up For Love [0:03:23.17]
15. David Cassidy / I Write The Songs [0:03:47.00]
16. Jack Jones / Disney Girls [0:04:35.43]
17. Barry Mann / I'll Always Love You [0:04:09.60]
18. Barry Mann / Nothing Good Comes Easy [0:02:47.25]
19. David Cassidy / Darlin' [0:03:21.12]
20. David Cassidy / This Could Be The Night [0:02:32.23]
21. Jack Jones / Good Only Knows [0:04:19.25]
22. Cass Elliot / Disney Girls [0:04:11.02]
23. California Music / Ten Years' Harmony [0:02:46.30]

Лог создания рипа

Exact Audio Copy V1.0 beta 3 from 29. August 2011
Отчёт EAC об извлечении, выполненном 10. сентября 2014, 18:59
VA / California Music & Disney Girls: Rca/Equinox Collection
Дисковод: ASUS DRW-1814BLT Adapter: 4 ID: 0
Режим чтения : Достоверность
Использование точного потока : Да
Отключение кэша аудио : Да
Использование указателей C2 : Нет
Коррекция смещения при чтении : 6
Способность читать области Lead-in и Lead-out : Нет
Заполнение пропущенных сэмплов тишиной : Да
Удаление блоков с тишиной в начале и конце : Нет
При вычислениях CRC использовались нулевые сэмплы : Да
Интерфейс : Встроенный Win32-интерфейс для Win NT/2000
Обработка зазоров : Добавлено к предыдущему треку
Выходной формат : Пользовательский кодировщик
Выбранный битрейт : 128 kBit/s
Качество : Высокий
Добавление ID3-тега : Нет
Утилита сжатия : C:\Program Files\Exact Audio Copy\Flac\flac.exe
Дополнительные параметры : -V -8 -T "Genre=%genre%" -T "Artist=%artist%" -T "Title=%title%" -T "Album=%albumtitle%" -T "Date=%year%" -T "Tracknumber=%tracknr%" -T "Comment=EAC1.0b2 FLAC -8" %source%
TOC извлечённого CD
Трек | Старт | Длительность | Начальный сектор | Конечный сектор
---------------------------------------------------------------------
1 | 0:00.00 | 2:48.50 | 0 | 12649
2 | 2:48.50 | 2:04.50 | 12650 | 21999
3 | 4:53.25 | 2:31.27 | 22000 | 33351
4 | 7:24.52 | 3:24.60 | 33352 | 48711
5 | 10:49.37 | 4:54.60 | 48712 | 70821
6 | 15:44.22 | 2:55.45 | 70822 | 83991
7 | 18:39.67 | 2:32.10 | 83992 | 95401
8 | 21:12.02 | 2:48.60 | 95402 | 108061
9 | 24:00.62 | 3:04.00 | 108062 | 121861
10 | 27:04.62 | 2:41.30 | 121862 | 133966
11 | 29:46.17 | 4:46.20 | 133967 | 155436
12 | 34:32.37 | 3:05.38 | 155437 | 169349
13 | 37:38.00 | 2:55.60 | 169350 | 182534
14 | 40:33.60 | 3:23.17 | 182535 | 197776
15 | 43:57.02 | 3:47.00 | 197777 | 214801
16 | 47:44.02 | 4:35.43 | 214802 | 235469
17 | 52:19.45 | 4:09.60 | 235470 | 254204
18 | 56:29.30 | 2:47.25 | 254205 | 266754
19 | 59:16.55 | 3:21.12 | 266755 | 281841
20 | 62:37.67 | 2:32.23 | 281842 | 293264
21 | 65:10.15 | 4:19.25 | 293265 | 312714
22 | 69:29.40 | 4:11.02 | 312715 | 331541
23 | 73:40.42 | 2:46.30 | 331542 | 344021
Трек 1
Имя файла R:\Раздача 23\California Music & Disney Girls - 2000 - RCA-Equinox Collection\01 Don't Worry Baby.wav
Длина предзазора 0:00:02.00
Пиковый уровень 98.4 %
Скорость извлечения 3.8 X
Качество трека 99.9 %
CRC теста CD9CBA2F
CRC копии CD9CBA2F
Трек не обнаружен в базе AccurateRip
Копирование... OK
Трек 2
Имя файла R:\Раздача 23\California Music & Disney Girls - 2000 - RCA-Equinox Collection\02 Why Do Fools Fall In Love.wav
Длина предзазора 0:00:01.37
Пиковый уровень 100.0 %
Скорость извлечения 5.3 X
Качество трека 100.0 %
CRC теста 3BCF6E78
CRC копии 3BCF6E78
Трек не обнаружен в базе AccurateRip
Копирование... OK
Трек 3
Имя файла R:\Раздача 23\California Music & Disney Girls - 2000 - RCA-Equinox Collection\03 Jamaica Farewell.wav
Длина предзазора 0:00:01.37
Пиковый уровень 99.9 %
Скорость извлечения 4.1 X
Качество трека 99.9 %
CRC теста C446302E
CRC копии C446302E
Трек не обнаружен в базе AccurateRip
Копирование... OK
Трек 4
Имя файла R:\Раздача 23\California Music & Disney Girls - 2000 - RCA-Equinox Collection\04 California Music.wav
Пиковый уровень 98.8 %
Скорость извлечения 6.5 X
Качество трека 100.0 %
CRC теста FBBEEB5A
CRC копии FBBEEB5A
Трек не обнаружен в базе AccurateRip
Копирование... OK
Трек 5
Имя файла R:\Раздача 23\California Music & Disney Girls - 2000 - RCA-Equinox Collection\05 Disney Girls.wav
Длина предзазора 0:00:00.74
Пиковый уровень 99.9 %
Скорость извлечения 5.5 X
Качество трека 99.9 %
CRC теста 460A7B9D
CRC копии 460A7B9D
Трек не обнаружен в базе AccurateRip
Копирование... OK
Трек 6
Имя файла R:\Раздача 23\California Music & Disney Girls - 2000 - RCA-Equinox Collection\06 Be True To Your School.wav
Длина предзазора 0:00:01.36
Пиковый уровень 99.9 %
Скорость извлечения 5.1 X
Качество трека 99.9 %
CRC теста 6448C6C7
CRC копии 6448C6C7
Трек не обнаружен в базе AccurateRip
Копирование... OK
Трек 7
Имя файла R:\Раздача 23\California Music & Disney Girls - 2000 - RCA-Equinox Collection\07 Summer.wav
Пиковый уровень 98.5 %
Скорость извлечения 7.2 X
Качество трека 100.0 %
CRC теста E3CAA1CD
CRC копии E3CAA1CD
Трек не обнаружен в базе AccurateRip
Копирование... OK
Трек 8
Имя файла R:\Раздача 23\California Music & Disney Girls - 2000 - RCA-Equinox Collection\08 L.A. To Mexico.wav
Длина предзазора 0:00:01.36
Пиковый уровень 98.8 %
Скорость извлечения 7.5 X
Качество трека 100.0 %
CRC теста 3B491D84
CRC копии 3B491D84
Трек не обнаружен в базе AccurateRip
Копирование... OK
Трек 9
Имя файла R:\Раздача 23\California Music & Disney Girls - 2000 - RCA-Equinox Collection\09 Fire In A Rainstorm.wav
Пиковый уровень 97.5 %
Скорость извлечения 7.9 X
Качество трека 100.0 %
CRC теста 6B94EA83
CRC копии 6B94EA83
Трек не обнаружен в базе AccurateRip
Копирование... OK
Трек 10
Имя файла R:\Раздача 23\California Music & Disney Girls - 2000 - RCA-Equinox Collection\10 Nina.wav
Длина предзазора 0:00:01.36
Пиковый уровень 96.8 %
Скорость извлечения 7.9 X
Качество трека 100.0 %
CRC теста B0EBF2E9
CRC копии B0EBF2E9
Трек не обнаружен в базе AccurateRip
Копирование... OK
Трек 11
Имя файла R:\Раздача 23\California Music & Disney Girls - 2000 - RCA-Equinox Collection\11 We Used To Love.wav
Пиковый уровень 94.6 %
Скорость извлечения 8.9 X
Качество трека 100.0 %
CRC теста B59F0ADE
CRC копии B59F0ADE
Трек не обнаружен в базе AccurateRip
Копирование... OK
Трек 12
Имя файла R:\Раздача 23\California Music & Disney Girls - 2000 - RCA-Equinox Collection\12 You're No Better Than A Comon Thief.wav
Длина предзазора 0:00:01.36
Пиковый уровень 100.0 %
Скорость извлечения 8.6 X
Качество трека 100.0 %
CRC теста B9B308D2
CRC копии B9B308D2
Трек не обнаружен в базе AccurateRip
Копирование... OK
Трек 13
Имя файла R:\Раздача 23\California Music & Disney Girls - 2000 - RCA-Equinox Collection\13 We Could Be So Good Together.wav
Длина предзазора 0:00:01.37
Пиковый уровень 95.4 %
Скорость извлечения 8.3 X
Качество трека 100.0 %
CRC теста 374E354E
CRC копии 374E354E
Трек не обнаружен в базе AccurateRip
Копирование... OK
Трек 14
Имя файла R:\Раздача 23\California Music & Disney Girls - 2000 - RCA-Equinox Collection\14 Get It Up For Love.wav
Пиковый уровень 98.8 %
Скорость извлечения 9.2 X
Качество трека 100.0 %
CRC теста 59ECA38E
CRC копии 59ECA38E
Трек не обнаружен в базе AccurateRip
Копирование... OK
Трек 15
Имя файла R:\Раздача 23\California Music & Disney Girls - 2000 - RCA-Equinox Collection\15 I Write The Songs.wav
Длина предзазора 0:00:01.36
Пиковый уровень 99.0 %
Скорость извлечения 9.5 X
Качество трека 100.0 %
CRC теста 265DD76D
CRC копии 265DD76D
Трек не обнаружен в базе AccurateRip
Копирование... OK
Трек 16
Имя файла R:\Раздача 23\California Music & Disney Girls - 2000 - RCA-Equinox Collection\16 Disney Girls.wav
Пиковый уровень 98.3 %
Скорость извлечения 7.7 X
Качество трека 99.9 %
CRC теста 62BE9559
CRC копии 62BE9559
Трек не обнаружен в базе AccurateRip
Копирование... OK
Трек 17
Имя файла R:\Раздача 23\California Music & Disney Girls - 2000 - RCA-Equinox Collection\17 I'll Always Love You.wav
Длина предзазора 0:00:00.74
Пиковый уровень 99.9 %
Скорость извлечения 10.3 X
Качество трека 100.0 %
CRC теста 9A2E12BB
CRC копии 9A2E12BB
Трек не обнаружен в базе AccurateRip
Копирование... OK
Трек 18
Имя файла R:\Раздача 23\California Music & Disney Girls - 2000 - RCA-Equinox Collection\18 Nothing Good Comes Easy.wav
Длина предзазора 0:00:00.74
Пиковый уровень 100.0 %
Скорость извлечения 7.1 X
Качество трека 99.9 %
CRC теста 34B60C1E
CRC копии 34B60C1E
Трек не обнаружен в базе AccurateRip
Копирование... OK
Трек 19
Имя файла R:\Раздача 23\California Music & Disney Girls - 2000 - RCA-Equinox Collection\19 Darlin'.wav
Пиковый уровень 97.6 %
Скорость извлечения 7.7 X
Качество трека 99.9 %
CRC теста AB9F9088
CRC копии AB9F9088
Трек не обнаружен в базе AccurateRip
Копирование... OK
Трек 20
Имя файла R:\Раздача 23\California Music & Disney Girls - 2000 - RCA-Equinox Collection\20 This Could Be The Night.wav
Длина предзазора 0:00:01.36
Пиковый уровень 96.6 %
Скорость извлечения 8.6 X
Качество трека 100.0 %
CRC теста 6DF2C584
CRC копии 6DF2C584
Трек не обнаружен в базе AccurateRip
Копирование... OK
Трек 21
Имя файла R:\Раздача 23\California Music & Disney Girls - 2000 - RCA-Equinox Collection\21 Good Only Knows.wav
Длина предзазора 0:00:01.74
Пиковый уровень 96.7 %
Скорость извлечения 11.1 X
Качество трека 100.0 %
CRC теста 99FA449F
CRC копии 99FA449F
Трек не обнаружен в базе AccurateRip
Копирование... OK
Трек 22
Имя файла R:\Раздача 23\California Music & Disney Girls - 2000 - RCA-Equinox Collection\22 Disney Girls.wav
Длина предзазора 0:00:00.74
Пиковый уровень 95.7 %
Скорость извлечения 11.2 X
Качество трека 100.0 %
CRC теста 1525894C
CRC копии 1525894C
Трек не обнаружен в базе AccurateRip
Копирование... OK
Трек 23
Имя файла R:\Раздача 23\California Music & Disney Girls - 2000 - RCA-Equinox Collection\23 Ten Years' Harmony.wav
Длина предзазора 0:00:02.74
Пиковый уровень 70.0 %
Скорость извлечения 10.7 X
Качество трека 100.0 %
CRC теста AD2988A3
CRC копии AD2988A3
Трек не обнаружен в базе AccurateRip
Копирование... OK
Ни одного трека нет в базе AccurateRip
Ошибок не произошло
Конец отчёта
==== Контрольная сумма отчёта 69C1F4F87B63CFA04E55D26B2E5588498647738EEAC7C6FB37967B18142607F2 ====

Содержание индексной карты (.CUE)

REM GENRE Pop
REM DATE 2000
REM DISCID 4A11EA17
REM COMMENT "ExactAudioCopy v1.0b3"
CATALOG 4988017096550
PERFORMER "VA"
TITLE "California Music & Disney Girls: Rca/Equinox Collection"
FILE "01 Don't Worry Baby.wav" WAVE
TRACK 01 AUDIO
TITLE "Don't Worry Baby"
PERFORMER "California Music"
ISRC H2IM17407609
INDEX 01 00:00:00
TRACK 02 AUDIO
TITLE "Why Do Fools Fall In Love"
PERFORMER "California Music"
ISRC H2IM17507680
INDEX 00 02:47:13
FILE "02 Why Do Fools Fall In Love.wav" WAVE
INDEX 01 00:00:00
TRACK 03 AUDIO
TITLE "Jamaica Farewell"
PERFORMER "California Music"
ISRC H2IM17507679
INDEX 00 02:03:13
FILE "03 Jamaica Farewell.wav" WAVE
INDEX 01 00:00:00
FILE "04 California Music.wav" WAVE
TRACK 04 AUDIO
TITLE "California Music"
PERFORMER "California Music"
ISRC H2IM17607776
INDEX 01 00:00:00
TRACK 05 AUDIO
TITLE "Disney Girls"
PERFORMER "Papa Doo Run Run"
ISRC H2IM17507676
INDEX 00 03:23:61
FILE "05 Disney Girls.wav" WAVE
INDEX 01 00:00:00
TRACK 06 AUDIO
TITLE "Be True To Your School"
PERFORMER "Papa Doo Run Run"
ISRC H2IM17507677
INDEX 00 04:53:24
FILE "06 Be True To Your School.wav" WAVE
INDEX 01 00:00:00
FILE "07 Summer.wav" WAVE
TRACK 07 AUDIO
TITLE "Summer"
PERFORMER "George Lee"
ISRC H2IM10000486
INDEX 01 00:00:00
TRACK 08 AUDIO
TITLE "L.A. To Mexico"
PERFORMER "Terry Melcher"
ISRC H2IM17607765
INDEX 00 02:30:49
FILE "08 L.A. To Mexico.wav" WAVE
INDEX 01 00:00:00
FILE "09 Fire In A Rainstorm.wav" WAVE
TRACK 09 AUDIO
TITLE "Fire In A Rainstorm"
PERFORMER "Terry Melcher"
ISRC H2IM17607764
INDEX 01 00:00:00
TRACK 10 AUDIO
TITLE "Nina"
PERFORMER "Tony Martin Jr."
ISRC H2IM10000488
INDEX 00 03:02:39
FILE "10 Nina.wav" WAVE
INDEX 01 00:00:00
FILE "11 We Used To Love.wav" WAVE
TRACK 11 AUDIO
TITLE "We Used To Love"
PERFORMER "Tony Martin Jr."
ISRC H2IM10000489
INDEX 01 00:00:00
TRACK 12 AUDIO
TITLE "You're No Better Than A Comon Thief"
PERFORMER "Bill House"
ISRC H2IM17407610
INDEX 00 04:44:59
FILE "12 You're No Better Than A Comon Thief.wav" WAVE
INDEX 01 00:00:00
TRACK 13 AUDIO
TITLE "We Could Be So Good Together"
PERFORMER "Bill House"
ISRC H2IM17407611
INDEX 00 03:04:01
FILE "13 We Could Be So Good Together.wav" WAVE
INDEX 01 00:00:00
FILE "14 Get It Up For Love.wav" WAVE
TRACK 14 AUDIO
TITLE "Get It Up For Love"
PERFORMER "David Cassidy"
ISRC H2IM17507678
INDEX 01 00:00:00
TRACK 15 AUDIO
TITLE "I Write The Songs"
PERFORMER "David Cassidy"
ISRC H2IM10000502
INDEX 00 03:21:56
FILE "15 I Write The Songs.wav" WAVE
INDEX 01 00:00:00
FILE "16 Disney Girls.wav" WAVE
TRACK 16 AUDIO
TITLE "Disney Girls"
PERFORMER "Jack Jones"
ISRC H2IM17607774
INDEX 01 00:00:00
TRACK 17 AUDIO
TITLE "I'll Always Love You"
PERFORMER "Barry Mann"
ISRC H2IM17407576
INDEX 00 04:34:44
FILE "17 I'll Always Love You.wav" WAVE
INDEX 01 00:00:00
TRACK 18 AUDIO
TITLE "Nothing Good Comes Easy"
PERFORMER "Barry Mann"
ISRC H2IM17407584
INDEX 00 04:08:61
FILE "18 Nothing Good Comes Easy.wav" WAVE
INDEX 01 00:00:00
FILE "19 Darlin'.wav" WAVE
TRACK 19 AUDIO
TITLE "Darlin'"
PERFORMER "David Cassidy"
ISRC H2IM10000490
INDEX 01 00:00:00
TRACK 20 AUDIO
TITLE "This Could Be The Night"
PERFORMER "David Cassidy"
ISRC H2IM10000491
INDEX 00 03:19:51
FILE "20 This Could Be The Night.wav" WAVE
INDEX 01 00:00:00
TRACK 21 AUDIO
TITLE "Good Only Knows"
PERFORMER "Jack Jones"
ISRC H2IM17607775
INDEX 00 02:30:24
FILE "21 Good Only Knows.wav" WAVE
INDEX 01 00:00:00
TRACK 22 AUDIO
TITLE "Disney Girls"
PERFORMER "Cass Elliot"
ISRC H2IM17108261
INDEX 00 04:18:26
FILE "22 Disney Girls.wav" WAVE
INDEX 01 00:00:00
TRACK 23 AUDIO
TITLE "Ten Years' Harmony"
PERFORMER "California Music"
ISRC H2IM17407612
INDEX 00 04:08:03
FILE "23 Ten Years' Harmony.wav" WAVE
INDEX 01 00:00:00

If you like the topic, please click share to help develop our site.

To download the file disable ad blocking, and reload the page.

disable adblock How to disable ad blocking?

Download by magnet link 487 MB Download Torrent

Login using:

Similar topics

(Pop-Rock) VA - Surf Music - 2015, MP3, 320 kbps
 107 MB   0 | 0   16-May-17 22:17   0


   
Current time is: 24-Mar 10:00 :: All times are UTC + 3