V.A. - Pure Rock 'N' Roll
Жанр: rock 'n' roll
Носитель: CD
Год издания: 2013
Издатель (лейбл): unknown
Аудиокодек: FLAC (*.flac)
Тип рипа: tracks+.cue
Битрейт аудио: lossless
Продолжительность: 00:44:02 + 00:39:06 + 00:42:00 + 00:37:12
Источник (релизер): rofl
Наличие сканов в содержимом раздачи: нет

CD1

Треклист:
01 – Elvis Presley – Jailhouse Rock [1957]
02 – Carl Perkins – Blue Suede Shoes [1956]
03 – Crystals – Da Doo Ron Ron [1963]
04 – Dion – Donna The Prima Donna [1963]
05 – Neil Sedaka – Oh Carol [1959]
06 – Paul Anka – Diana [1957]
07 – Ronettes – The Twist [1963]
08 – Alley Cats – Puddin n’ Tain [1962]
09 – Duane Eddy & His Twangy Guitar – Rebel-Rouser [1958]
10 – Johnny Cash – I Walk The Line [1956]
11 – Guy Mitchell – Rock-A-Billy [1957]
12 – Bobby Vinton – Blue Velvet [1963]
13 – Aretha Franklin – The Shoop Shoop Song (It’s In His Kiss) [1964]
14 – Screamin’ Jay Hawkins – I Put A Spell On You [1956]
15 – Little Joe & The Thrillers – Peanuts [1957]
16 – Tony Orlando – Bless You [1961]
17 – Isley Brothers – Shout [1959]

Лог создания рипа

Exact Audio Copy V1.0 beta 3 from 29. August 2011
EAC extraction logfile from 8. September 2013, 17:02
Various Artists / Pure Rock 'n' Roll (2013) CD1
Used drive : hp CDDVDW TS-L633N Adapter: 0 ID: 1
Read mode : Secure
Utilize accurate stream : Yes
Defeat audio cache : Yes
Make use of C2 pointers : No
Read offset correction : 6
Overread into Lead-In and Lead-Out : No
Fill up missing offset samples with silence : Yes
Delete leading and trailing silent blocks : No
Null samples used in CRC calculations : Yes
Used interface : Native Win32 interface for Win NT & 2000
Gap handling : Appended to previous track
Used output format : User Defined Encoder
Selected bitrate : 1024 kBit/s
Quality : High
Add ID3 tag : No
Command line compressor : C:\Program Files (x86)\Exact Audio Copy\Flac\flac.exe
Additional command line options : -8 -V -T "ARTIST=%artist%" -T "TITLE=%title%" -T "ALBUM=%albumtitle%" -T "DATE=%year%" -T "TRACKNUMBER=%tracknr%" -T "GENRE=%genre%" -T "PERFORMER=%albuminterpret%" -T "COMPOSER=%composer%" %haslyrics%--tag-from-file=LYRICS="%lyricsfile%"%haslyrics% -T "ALBUMARTIST=%albumartist%" -T "DISCNUMBER=%cdnumber%" -T "TOTALDISCS=%totalcds%" -T "TOTALTRACKS=%numtracks%" -T "COMMENT=%comment%" %source% -o %dest%
TOC of the extracted CD
Track | Start | Length | Start sector | End sector
---------------------------------------------------------
1 | 0:00.00 | 2:37.29 | 0 | 11803
2 | 2:37.29 | 2:20.40 | 11804 | 22343
3 | 4:57.69 | 2:20.48 | 22344 | 32891
4 | 7:18.42 | 2:53.64 | 32892 | 45930
5 | 10:12.31 | 2:18.02 | 45931 | 56282
6 | 12:30.33 | 2:18.54 | 56283 | 66686
7 | 14:49.12 | 2:08.66 | 66687 | 76352
8 | 16:58.03 | 2:48.19 | 76353 | 88971
9 | 19:46.22 | 2:32.33 | 88972 | 100404
10 | 22:18.55 | 2:43.38 | 100405 | 112667
11 | 25:02.18 | 2:14.38 | 112668 | 122755
12 | 27:16.56 | 2:48.64 | 122756 | 135419
13 | 30:05.45 | 2:23.28 | 135420 | 146172
14 | 32:28.73 | 2:27.20 | 146173 | 157217
15 | 34:56.18 | 2:25.40 | 157218 | 168132
16 | 37:21.58 | 2:08.32 | 168133 | 177764
17 | 39:30.15 | 4:32.33 | 177765 | 198197
Track 1
Filename E:\CDRips\01 - Elvis Presley - Jailhouse Rock [1957].wav
Pre-gap length 0:00:02.00
Peak level 79.2 %
Extraction speed 1.5 X
Track quality 99.9 %
Test CRC 4694F320
Copy CRC 4694F320
Track not present in AccurateRip database
Copy OK
Track 2
Filename E:\CDRips\02 - Carl Perkins - Blue Suede Shoes [1956].wav
Pre-gap length 0:00:01.77
Peak level 99.7 %
Extraction speed 2.0 X
Track quality 100.0 %
Test CRC CDB7D2AE
Copy CRC CDB7D2AE
Track not present in AccurateRip database
Copy OK
Track 3
Filename E:\CDRips\03 - Crystals - Da Doo Ron Ron [1963].wav
Pre-gap length 0:00:01.77
Peak level 99.7 %
Extraction speed 2.2 X
Track quality 100.0 %
Test CRC 6D3BD344
Copy CRC 6D3BD344
Track not present in AccurateRip database
Copy OK
Track 4
Filename E:\CDRips\04 - Dion - Donna The Prima Donna [1963].wav
Pre-gap length 0:00:01.77
Peak level 99.7 %
Extraction speed 2.4 X
Track quality 100.0 %
Test CRC 16BC4BB1
Copy CRC 16BC4BB1
Track not present in AccurateRip database
Copy OK
Track 5
Filename E:\CDRips\05 - Neil Sedaka - Oh Carol [1959].wav
Pre-gap length 0:00:01.77
Peak level 87.7 %
Extraction speed 2.4 X
Track quality 100.0 %
Test CRC 8EF04216
Copy CRC 8EF04216
Track not present in AccurateRip database
Copy OK
Track 6
Filename E:\CDRips\06 - Paul Anka - Diana [1957].wav
Pre-gap length 0:00:01.77
Peak level 98.8 %
Extraction speed 2.5 X
Track quality 100.0 %
Test CRC D42EA8DD
Copy CRC D42EA8DD
Track not present in AccurateRip database
Copy OK
Track 7
Filename E:\CDRips\07 - Ronettes - The Twist [1963].wav
Pre-gap length 0:00:01.77
Peak level 99.7 %
Extraction speed 2.6 X
Track quality 100.0 %
Test CRC 1CA11ECB
Copy CRC 1CA11ECB
Track not present in AccurateRip database
Copy OK
Track 8
Filename E:\CDRips\08 - Alley Cats - Puddin n' Tain [1962].wav
Pre-gap length 0:00:01.77
Peak level 99.7 %
Extraction speed 2.8 X
Track quality 100.0 %
Test CRC 10536926
Copy CRC 10536926
Track not present in AccurateRip database
Copy OK
Track 9
Filename E:\CDRips\09 - Duane Eddy & His Twangy Guitar - Rebel-Rouser [1958].wav
Pre-gap length 0:00:01.77
Peak level 72.2 %
Extraction speed 2.9 X
Track quality 100.0 %
Test CRC E36EBBC1
Copy CRC E36EBBC1
Track not present in AccurateRip database
Copy OK
Track 10
Filename E:\CDRips\10 - Johnny Cash - I Walk The Line [1956].wav
Pre-gap length 0:00:01.77
Peak level 93.5 %
Extraction speed 3.0 X
Track quality 100.0 %
Test CRC 482D5468
Copy CRC 482D5468
Track not present in AccurateRip database
Copy OK
Track 11
Filename E:\CDRips\11 - Guy Mitchell - Rock-A-Billy [1957].wav
Pre-gap length 0:00:01.77
Peak level 78.5 %
Extraction speed 3.0 X
Track quality 100.0 %
Test CRC 2857B4C2
Copy CRC 2857B4C2
Track not present in AccurateRip database
Copy OK
Track 12
Filename E:\CDRips\12 - Bobby Vinton - Blue Velvet [1963].wav
Pre-gap length 0:00:01.77
Peak level 89.1 %
Extraction speed 3.2 X
Track quality 100.0 %
Test CRC 618E2474
Copy CRC 618E2474
Track not present in AccurateRip database
Copy OK
Track 13
Filename E:\CDRips\13 - Aretha Franklin - The Shoop Shoop Song (It's In His Kiss) [1964].wav
Pre-gap length 0:00:01.77
Peak level 89.0 %
Extraction speed 3.2 X
Track quality 100.0 %
Test CRC F32DDDA2
Copy CRC F32DDDA2
Track not present in AccurateRip database
Copy OK
Track 14
Filename E:\CDRips\14 - Screamin' Jay Hawkins - I Put A Spell On You [1956].wav
Pre-gap length 0:00:01.77
Peak level 78.7 %
Extraction speed 3.3 X
Track quality 100.0 %
Test CRC 12E8F90E
Copy CRC 12E8F90E
Track not present in AccurateRip database
Copy OK
Track 15
Filename E:\CDRips\15 - Little Joe & The Thrillers - Peanuts [1957].wav
Pre-gap length 0:00:01.77
Peak level 99.7 %
Extraction speed 3.4 X
Track quality 100.0 %
Test CRC 1522788D
Copy CRC 1522788D
Track not present in AccurateRip database
Copy OK
Track 16
Filename E:\CDRips\16 - Tony Orlando - Bless You [1961].wav
Pre-gap length 0:00:01.77
Peak level 99.7 %
Extraction speed 3.3 X
Track quality 100.0 %
Test CRC 4DA8A766
Copy CRC 4DA8A766
Track not present in AccurateRip database
Copy OK
Track 17
Filename E:\CDRips\17 - Isley Brothers - Shout [1959].wav
Pre-gap length 0:00:01.77
Peak level 83.1 %
Extraction speed 3.9 X
Track quality 100.0 %
Test CRC 7FEF5133
Copy CRC 7FEF5133
Track not present in AccurateRip database
Copy OK
None of the tracks are present in the AccurateRip database
No errors occurred
End of status report
---- CUETools DB Plugin V2.1.3
[CTDB TOCID: Iqg7UV5lPw1t8ATZv6d36phtT3I-] disk not present in database, Submit result: Iqg7UV5lPw1t8ATZv6d36phtT3I- has been uploaded
==== Log checksum 62976CC5DA5AB1E7EDD9D52809B7385DC3F3D9513EDEA0008913F88DDF3DAB8A ====

Содержание индексной карты (.CUE)

REM GENRE Oldies
REM DATE 2013
REM DISCID DC0A5211
REM COMMENT "ExactAudioCopy v1.0b3"
CATALOG 0888837506120
PERFORMER "Various Artists"
TITLE "Pure Rock 'n' Roll (2013) CD1"
FILE "01 - Elvis Presley - Jailhouse Rock [1957].wav" WAVE
TRACK 01 AUDIO
TITLE "Jailhouse Rock [1957]"
PERFORMER "Elvis Presley"
ISRC USRC10200071
INDEX 01 00:00:00
TRACK 02 AUDIO
TITLE "Blue Suede Shoes [1956]"
PERFORMER "Carl Perkins"
ISRC USSM19601979
INDEX 00 02:35:46
FILE "02 - Carl Perkins - Blue Suede Shoes [1956].wav" WAVE
INDEX 01 00:00:00
TRACK 03 AUDIO
TITLE "Da Doo Ron Ron [1963]"
PERFORMER "Crystals"
ISRC USQX91100116
INDEX 00 02:18:57
FILE "03 - Crystals - Da Doo Ron Ron [1963].wav" WAVE
INDEX 01 00:00:00
TRACK 04 AUDIO
TITLE "Donna The Prima Donna [1963]"
PERFORMER "Dion"
ISRC USSM16300095
INDEX 00 02:18:65
FILE "04 - Dion - Donna The Prima Donna [1963].wav" WAVE
INDEX 01 00:00:00
TRACK 05 AUDIO
TITLE "Oh Carol [1959]"
PERFORMER "Neil Sedaka"
ISRC USRC19900798
INDEX 00 02:52:06
FILE "05 - Neil Sedaka - Oh Carol [1959].wav" WAVE
INDEX 01 00:00:00
TRACK 06 AUDIO
TITLE "Diana [1957]"
PERFORMER "Paul Anka"
ISRC USRC10000595
INDEX 00 02:16:19
FILE "06 - Paul Anka - Diana [1957].wav" WAVE
INDEX 01 00:00:00
TRACK 07 AUDIO
TITLE "The Twist [1963]"
PERFORMER "Ronettes"
ISRC USQX91100947
INDEX 00 02:16:71
FILE "07 - Ronettes - The Twist [1963].wav" WAVE
INDEX 01 00:00:00
TRACK 08 AUDIO
TITLE "Puddin n' Tain [1962]"
PERFORMER "Alley Cats"
ISRC USQX91000372
INDEX 00 02:07:08
FILE "08 - Alley Cats - Puddin n' Tain [1962].wav" WAVE
INDEX 01 00:00:00
TRACK 09 AUDIO
TITLE "Rebel-Rouser [1958]"
PERFORMER "Duane Eddy & His Twangy Guitar"
ISRC USRC16406272
INDEX 00 02:46:36
FILE "09 - Duane Eddy & His Twangy Guitar - Rebel-Rouser [1958].wav" WAVE
INDEX 01 00:00:00
TRACK 10 AUDIO
TITLE "I Walk The Line [1956]"
PERFORMER "Johnny Cash"
ISRC USSM16901106
INDEX 00 02:30:50
FILE "10 - Johnny Cash - I Walk The Line [1956].wav" WAVE
INDEX 01 00:00:00
TRACK 11 AUDIO
TITLE "Rock-A-Billy [1957]"
PERFORMER "Guy Mitchell"
ISRC USSM15700523
INDEX 00 02:41:55
FILE "11 - Guy Mitchell - Rock-A-Billy [1957].wav" WAVE
INDEX 01 00:00:00
TRACK 12 AUDIO
TITLE "Blue Velvet [1963]"
PERFORMER "Bobby Vinton"
ISRC USSM19601971
INDEX 00 02:12:55
FILE "12 - Bobby Vinton - Blue Velvet [1963].wav" WAVE
INDEX 01 00:00:00
TRACK 13 AUDIO
TITLE "The Shoop Shoop Song (It's In His Kiss) [1964]"
PERFORMER "Aretha Franklin"
ISRC USSM16400707
INDEX 00 02:47:06
FILE "13 - Aretha Franklin - The Shoop Shoop Song (It's In His Kiss) [1964].wav" WAVE
INDEX 01 00:00:00
TRACK 14 AUDIO
TITLE "I Put A Spell On You [1956]"
PERFORMER "Screamin' Jay Hawkins"
ISRC USSM10005633
INDEX 00 02:21:45
FILE "14 - Screamin' Jay Hawkins - I Put A Spell On You [1956].wav" WAVE
INDEX 01 00:00:00
TRACK 15 AUDIO
TITLE "Peanuts [1957]"
PERFORMER "Little Joe & The Thrillers"
ISRC USSM15700717
INDEX 00 02:25:37
FILE "15 - Little Joe & The Thrillers - Peanuts [1957].wav" WAVE
INDEX 01 00:00:00
TRACK 16 AUDIO
TITLE "Bless You [1961]"
PERFORMER "Tony Orlando"
ISRC USSM16101251
INDEX 00 02:23:57
FILE "16 - Tony Orlando - Bless You [1961].wav" WAVE
INDEX 01 00:00:00
TRACK 17 AUDIO
TITLE "Shout [1959]"
PERFORMER "Isley Brothers"
ISRC USSM19601985
INDEX 00 02:06:49
FILE "17 - Isley Brothers - Shout [1959].wav" WAVE
INDEX 01 00:00:00

Лог проверки качества

AUDIOCHECKER v2.0 beta (build 457) - by Dester - opdester@freemail.hu
~~~~~~~~~~~~~~~~~~~~~~~~~~~~~~~~~~
-=== DO NOT EDIT THIS FILE! ===-
Path: ...\CD1
01 -=- 01 - Elvis Presley - Jailhouse Rock [1957].flac -=- CDDA (100%)
02 -=- 02 - Carl Perkins - Blue Suede Shoes [1956].flac -=- CDDA (100%)
03 -=- 03 - Crystals - Da Doo Ron Ron [1963].flac -=- CDDA (100%)
04 -=- 04 - Dion - Donna The Prima Donna [1963].flac -=- CDDA (100%)
05 -=- 05 - Neil Sedaka - Oh Carol [1959].flac -=- CDDA (100%)
06 -=- 06 - Paul Anka - Diana [1957].flac -=- CDDA (100%)
07 -=- 07 - Ronettes - The Twist [1963].flac -=- CDDA (100%)
08 -=- 08 - Alley Cats - Puddin n' Tain [1962].flac -=- CDDA (100%)
09 -=- 09 - Duane Eddy & His Twangy Guitar - Rebel-Rouser [1958].flac -=- CDDA (100%)
10 -=- 10 - Johnny Cash - I Walk The Line [1956].flac -=- CDDA (100%)
11 -=- 11 - Guy Mitchell - Rock-A-Billy [1957].flac -=- CDDA (100%)
12 -=- 12 - Bobby Vinton - Blue Velvet [1963].flac -=- CDDA (100%)
13 -=- 13 - Aretha Franklin - The Shoop Shoop Song (It's In His Kiss) [1964].flac -=- CDDA (100%)
14 -=- 14 - Screamin' Jay Hawkins - I Put A Spell On You [1956].flac -=- CDDA (100%)
15 -=- 15 - Little Joe & The Thrillers - Peanuts [1957].flac -=- MPEG (100%)
16 -=- 16 - Tony Orlando - Bless You [1961].flac -=- CDDA (100%)
17 -=- 17 - Isley Brothers - Shout [1959].flac -=- CDDA (100%)
Summary 94,12% CDDA
145445940

Отчёт accuraterip

[CUETools log; Date: 08.09.2014 0:28:13; Version: 2.1.4]
[CTDB TOCID: Iqg7UV5lPw1t8ATZv6d36phtT3I-] found.
Track | CTDB Status
1 | (2/2) Accurately ripped
2 | (2/2) Accurately ripped
3 | (2/2) Accurately ripped
4 | (2/2) Accurately ripped
5 | (2/2) Accurately ripped
6 | (2/2) Accurately ripped
7 | (2/2) Accurately ripped
8 | (2/2) Accurately ripped
9 | (2/2) Accurately ripped
10 | (2/2) Accurately ripped
11 | (2/2) Accurately ripped
12 | (2/2) Accurately ripped
13 | (2/2) Accurately ripped
14 | (2/2) Accurately ripped
15 | (2/2) Accurately ripped
16 | (2/2) Accurately ripped
17 | (2/2) Accurately ripped
[AccurateRip ID: 001a3ec2-014d168e-dc0a5211] found.
Track Status
01 (01/01) Accurately ripped, all offset(s) 0(1)
02 (01/01) Accurately ripped, all offset(s) 0(1)
03 (01/01) Accurately ripped, all offset(s) 0(1)
04 (01/01) Accurately ripped, all offset(s) 0(1)
05 (01/01) Accurately ripped, all offset(s) 0(1)
06 (01/01) Accurately ripped, all offset(s) 0(1)
07 (01/01) Accurately ripped, all offset(s) 0(1)
08 (01/01) Accurately ripped, all offset(s) 0(1)
09 (01/01) Accurately ripped, all offset(s) 0(1)
10 (01/01) Accurately ripped, all offset(s) 0(1)
11 (01/01) Accurately ripped, all offset(s) 0(1)
12 (01/01) Accurately ripped, all offset(s) 0(1)
13 (01/01) Accurately ripped, all offset(s) 0(1)
14 (01/01) Accurately ripped, all offset(s) 0(1)
15 (01/01) Accurately ripped, all offset(s) 0(1)
16 (01/01) Accurately ripped, all offset(s) 0(1)
17 (01/01) Accurately ripped, all offset(s) 0(1)
Track Peak [ CRC32 ] [W/O NULL] [ LOG ]
-- 99,7 [BBE34D00] [E4305467]
01 79,2 [4694F320] [7FD7C5C2] CRC32
02 99,7 [CDB7D2AE] [5C22144D] CRC32
03 99,7 [6D3BD344] [88ADAFF9] CRC32
04 99,7 [16BC4BB1] [048B0C10] CRC32
05 87,7 [8EF04216] [41ED5E8C] CRC32
06 98,8 [D42EA8DD] [3ECC32E1] CRC32
07 99,7 [1CA11ECB] [6FEFBEE5] CRC32
08 99,7 [10536926] [55BA32C9] CRC32
09 72,2 [E36EBBC1] [327D917D] CRC32
10 93,5 [482D5468] [C287883A] CRC32
11 78,5 [2857B4C2] [B894352A] CRC32
12 89,1 [618E2474] [55893FEC] CRC32
13 89,0 [F32DDDA2] [43BCF45E] CRC32
14 78,7 [12E8F90E] [47E56393] CRC32
15 99,7 [1522788D] [9514C67F] CRC32
16 99,7 [4DA8A766] [077FDD76] CRC32
17 83,1 [7FEF5133] [E3F8A7B0] CRC32

Скриншот спектра частот

CD2

Треклист:
01 – Maurice Williams & The Zodiacs – Stay [1960]
02 – Johnnie Ray – Such A Night [1954]
03 – Elvis Presley – Hound Dog [1956]
04 – Sal Mineo – Start Movin’ (In My Direction) [1957]
05 – Carl Perkins – Good Rockin’ Tonight [1958]
06 – Peggy March – I Will Follow Him [1963]
07 – Bob B Soxx & The Blue Jeans – Why Do Lovers Break Each Other’s Hearts [1962]
08 – Tokens – Tonight I Met An Angel [1963]
09 – Ames Brothers – Rockin’ Shoes [1957]
10 – Don Gibson – Sea Of Heartbreak [1961]
11 – Dion – This Little Girl [1963]
12 – Neil Sedaka – Calendar Girl [1960]
13 – Duane Eddy – (Dance With The) Guitar Man [1962]
14 – Johnny Restivo – The Shape I’m In [1959]
15 – Roy Hamilton – Don’t Let Go [1957]
16 – Carl Perkins – Shake Rattle And Roll [1958]

Лог создания рипа

Exact Audio Copy V1.0 beta 3 from 29. August 2011
EAC extraction logfile from 8. September 2013, 17:57
Various Artists / Pure Rock 'n' Roll (2013) CD2
Used drive : hp CDDVDW TS-L633N Adapter: 0 ID: 1
Read mode : Secure
Utilize accurate stream : Yes
Defeat audio cache : Yes
Make use of C2 pointers : No
Read offset correction : 6
Overread into Lead-In and Lead-Out : No
Fill up missing offset samples with silence : Yes
Delete leading and trailing silent blocks : No
Null samples used in CRC calculations : Yes
Used interface : Native Win32 interface for Win NT & 2000
Gap handling : Appended to previous track
Used output format : User Defined Encoder
Selected bitrate : 1024 kBit/s
Quality : High
Add ID3 tag : No
Command line compressor : C:\Program Files (x86)\Exact Audio Copy\Flac\flac.exe
Additional command line options : -8 -V -T "ARTIST=%artist%" -T "TITLE=%title%" -T "ALBUM=%albumtitle%" -T "DATE=%year%" -T "TRACKNUMBER=%tracknr%" -T "GENRE=%genre%" -T "PERFORMER=%albuminterpret%" -T "COMPOSER=%composer%" %haslyrics%--tag-from-file=LYRICS="%lyricsfile%"%haslyrics% -T "ALBUMARTIST=%albumartist%" -T "DISCNUMBER=%cdnumber%" -T "TOTALDISCS=%totalcds%" -T "TOTALTRACKS=%numtracks%" -T "COMMENT=%comment%" %source% -o %dest%
TOC of the extracted CD
Track | Start | Length | Start sector | End sector
---------------------------------------------------------
1 | 0:00.00 | 1:40.08 | 0 | 7507
2 | 1:40.08 | 2:14.72 | 7508 | 17629
3 | 3:55.05 | 2:16.33 | 17630 | 27862
4 | 6:11.38 | 2:32.42 | 27863 | 39304
5 | 8:44.05 | 2:21.13 | 39305 | 49892
6 | 11:05.18 | 2:28.55 | 49893 | 61047
7 | 13:33.73 | 2:51.11 | 61048 | 73883
8 | 16:25.09 | 1:57.71 | 73884 | 82729
9 | 18:23.05 | 1:55.74 | 82730 | 91428
10 | 20:19.04 | 2:33.10 | 91429 | 102913
11 | 22:52.14 | 2:48.26 | 102914 | 115539
12 | 25:40.40 | 2:38.21 | 115540 | 127410
13 | 28:18.61 | 2:41.14 | 127411 | 139499
14 | 31:00.00 | 2:06.65 | 139500 | 149014
15 | 33:06.65 | 2:30.18 | 149015 | 160282
16 | 35:37.08 | 3:29.06 | 160283 | 175963
Track 1
Filename E:\CDRips\01 - Maurice Williams & The Zodiacs - Stay [1960].wav
Pre-gap length 0:00:02.00
Peak level 91.1 %
Extraction speed 1.8 X
Track quality 100.0 %
Test CRC DE04176A
Copy CRC DE04176A
Track not present in AccurateRip database
Copy OK
Track 2
Filename E:\CDRips\02 - Johnnie Ray - Such A Night [1954].wav
Pre-gap length 0:00:01.77
Peak level 90.8 %
Extraction speed 2.0 X
Track quality 100.0 %
Test CRC 643112A3
Copy CRC 643112A3
Track not present in AccurateRip database
Copy OK
Track 3
Filename E:\CDRips\03 - Elvis Presley - Hound Dog [1956].wav
Pre-gap length 0:00:01.77
Peak level 85.7 %
Extraction speed 1.5 X
Track quality 99.9 %
Test CRC 68AF24AA
Copy CRC 68AF24AA
Track not present in AccurateRip database
Copy OK
Track 4
Filename E:\CDRips\04 - Sal Mineo - Start Movin' (In My Direction) [1957].wav
Pre-gap length 0:00:01.77
Peak level 98.8 %
Extraction speed 2.3 X
Track quality 100.0 %
Test CRC 784EDB1F
Copy CRC 784EDB1F
Track not present in AccurateRip database
Copy OK
Track 5
Filename E:\CDRips\05 - Carl Perkins - Good Rockin' Tonight [1958].wav
Pre-gap length 0:00:01.77
Peak level 89.4 %
Extraction speed 2.4 X
Track quality 100.0 %
Test CRC C4402CE2
Copy CRC C4402CE2
Track not present in AccurateRip database
Copy OK
Track 6
Filename E:\CDRips\06 - Peggy March - I Will Follow Him [1963].wav
Pre-gap length 0:00:01.77
Peak level 93.4 %
Extraction speed 1.8 X
Track quality 99.9 %
Test CRC 19B14618
Copy CRC 19B14618
Track not present in AccurateRip database
Copy OK
Track 7
Filename E:\CDRips\07 - Bob B Soxx & The Blue Jeans - Why Do Lovers Break Each Other's Hearts [1962].wav
Pre-gap length 0:00:01.77
Peak level 99.7 %
Extraction speed 2.7 X
Track quality 100.0 %
Test CRC DA7DE6D3
Copy CRC DA7DE6D3
Track not present in AccurateRip database
Copy OK
Track 8
Filename E:\CDRips\08 - Tokens - Tonight I Met An Angel [1963].wav
Pre-gap length 0:00:01.77
Peak level 96.9 %
Extraction speed 2.6 X
Track quality 100.0 %
Test CRC 6B001E1D
Copy CRC 6B001E1D
Track not present in AccurateRip database
Copy OK
Track 9
Filename E:\CDRips\09 - Ames Brothers - Rockin' Shoes [1957].wav
Pre-gap length 0:00:01.77
Peak level 99.7 %
Extraction speed 2.6 X
Track quality 100.0 %
Test CRC 0AFEE905
Copy CRC 0AFEE905
Track not present in AccurateRip database
Copy OK
Track 10
Filename E:\CDRips\10 - Don Gibson - Sea Of Heartbreak [1961].wav
Pre-gap length 0:00:01.77
Peak level 78.5 %
Extraction speed 2.9 X
Track quality 100.0 %
Test CRC 187982E3
Copy CRC 187982E3
Track not present in AccurateRip database
Copy OK
Track 11
Filename E:\CDRips\11 - Dion - This Little Girl [1963].wav
Pre-gap length 0:00:01.77
Peak level 99.7 %
Extraction speed 3.0 X
Track quality 100.0 %
Test CRC 6A792437
Copy CRC 6A792437
Track not present in AccurateRip database
Copy OK
Track 12
Filename E:\CDRips\12 - Neil Sedaka - Calendar Girl [1960].wav
Pre-gap length 0:00:01.77
Peak level 99.7 %
Extraction speed 3.1 X
Track quality 100.0 %
Test CRC 4B95C831
Copy CRC 4B95C831
Track not present in AccurateRip database
Copy OK
Track 13
Filename E:\CDRips\13 - Duane Eddy - (Dance With The) Guitar Man [1962].wav
Pre-gap length 0:00:01.77
Peak level 92.8 %
Extraction speed 3.2 X
Track quality 100.0 %
Test CRC 386CBB53
Copy CRC 386CBB53
Track not present in AccurateRip database
Copy OK
Track 14
Filename E:\CDRips\14 - Johnny Restivo - The Shape I'm In [1959].wav
Pre-gap length 0:00:01.77
Peak level 95.3 %
Extraction speed 3.1 X
Track quality 100.0 %
Test CRC F21FEF57
Copy CRC F21FEF57
Track not present in AccurateRip database
Copy OK
Track 15
Filename E:\CDRips\15 - Roy Hamilton - Don't Let Go [1957].wav
Pre-gap length 0:00:01.77
Peak level 88.1 %
Extraction speed 3.3 X
Track quality 100.0 %
Test CRC 46E431F8
Copy CRC 46E431F8
Track not present in AccurateRip database
Copy OK
Track 16
Filename E:\CDRips\16 - Carl Perkins - Shake Rattle And Roll [1958].wav
Pre-gap length 0:00:01.77
Peak level 89.2 %
Extraction speed 3.6 X
Track quality 100.0 %
Test CRC 113EB24A
Copy CRC 113EB24A
Track not present in AccurateRip database
Copy OK
None of the tracks are present in the AccurateRip database
No errors occurred
End of status report
---- CUETools DB Plugin V2.1.3
[CTDB TOCID: 7hqAKxQV69PC9FGFdIR782nX4Gc-] disk not present in database, Submit result: 7hqAKxQV69PC9FGFdIR782nX4Gc- has been uploaded
==== Log checksum D7A05CE806848C9D2EC48A500E1310DEE4C872ECE1C612710E091302E35D7004 ====

Содержание индексной карты (.CUE)

REM GENRE Oldies
REM DATE 2013
REM DISCID CE092A10
REM COMMENT "ExactAudioCopy v1.0b3"
CATALOG 0888837506120
PERFORMER "Various Artists"
TITLE "Pure Rock 'n' Roll (2013) CD2"
FILE "01 - Maurice Williams & The Zodiacs - Stay [1960].wav" WAVE
TRACK 01 AUDIO
TITLE "Stay [1960]"
PERFORMER "Maurice Williams & The Zodiacs"
ISRC USAR10300951
INDEX 01 00:00:00
TRACK 02 AUDIO
TITLE "Such A Night [1954]"
PERFORMER "Johnnie Ray"
ISRC USSM10020228
INDEX 00 01:38:25
FILE "02 - Johnnie Ray - Such A Night [1954].wav" WAVE
INDEX 01 00:00:00
TRACK 03 AUDIO
TITLE "Hound Dog [1956]"
PERFORMER "Elvis Presley"
ISRC USRC19606724
INDEX 00 02:13:14
FILE "03 - Elvis Presley - Hound Dog [1956].wav" WAVE
INDEX 01 00:00:00
TRACK 04 AUDIO
TITLE "Start Movin' (In My Direction) [1957]"
PERFORMER "Sal Mineo"
ISRC USSM15700715
INDEX 00 02:14:50
FILE "04 - Sal Mineo - Start Movin' (In My Direction) [1957].wav" WAVE
INDEX 01 00:00:00
TRACK 05 AUDIO
TITLE "Good Rockin' Tonight [1958]"
PERFORMER "Carl Perkins"
ISRC USSM15800727
INDEX 00 02:30:59
FILE "05 - Carl Perkins - Good Rockin' Tonight [1958].wav" WAVE
INDEX 01 00:00:00
TRACK 06 AUDIO
TITLE "I Will Follow Him [1963]"
PERFORMER "Peggy March"
ISRC USRC19901070
INDEX 00 02:19:30
FILE "06 - Peggy March - I Will Follow Him [1963].wav" WAVE
INDEX 01 00:00:00
TRACK 07 AUDIO
TITLE "Why Do Lovers Break Each Other's Hearts [1962]"
PERFORMER "Bob B Soxx & The Blue Jeans"
ISRC USSM10906870
INDEX 00 02:26:72
FILE "07 - Bob B Soxx & The Blue Jeans - Why Do Lovers Break Each Other's Hearts [1962].wav" WAVE
INDEX 01 00:00:00
TRACK 08 AUDIO
TITLE "Tonight I Met An Angel [1963]"
PERFORMER "Tokens"
ISRC USRC16300988
INDEX 00 02:49:28
FILE "08 - Tokens - Tonight I Met An Angel [1963].wav" WAVE
INDEX 01 00:00:00
TRACK 09 AUDIO
TITLE "Rockin' Shoes [1957]"
PERFORMER "Ames Brothers"
ISRC USRC15707158
INDEX 00 01:56:13
FILE "09 - Ames Brothers - Rockin' Shoes [1957].wav" WAVE
INDEX 01 00:00:00
TRACK 10 AUDIO
TITLE "Sea Of Heartbreak [1961]"
PERFORMER "Don Gibson"
ISRC USRN10100020
INDEX 00 01:54:16
FILE "10 - Don Gibson - Sea Of Heartbreak [1961].wav" WAVE
INDEX 01 00:00:00
TRACK 11 AUDIO
TITLE "This Little Girl [1963]"
PERFORMER "Dion"
ISRC USSM16300090
INDEX 00 02:31:27
FILE "11 - Dion - This Little Girl [1963].wav" WAVE
INDEX 01 00:00:00
TRACK 12 AUDIO
TITLE "Calendar Girl [1960]"
PERFORMER "Neil Sedaka"
ISRC USRC19900793
INDEX 00 02:46:43
FILE "12 - Neil Sedaka - Calendar Girl [1960].wav" WAVE
INDEX 01 00:00:00
TRACK 13 AUDIO
TITLE "(Dance With The) Guitar Man [1962]"
PERFORMER "Duane Eddy"
ISRC USRC19901087
INDEX 00 02:36:38
FILE "13 - Duane Eddy - (Dance With The) Guitar Man [1962].wav" WAVE
INDEX 01 00:00:00
TRACK 14 AUDIO
TITLE "The Shape I'm In [1959]"
PERFORMER "Johnny Restivo"
ISRC USRC15907072
INDEX 00 02:39:31
FILE "14 - Johnny Restivo - The Shape I'm In [1959].wav" WAVE
INDEX 01 00:00:00
TRACK 15 AUDIO
TITLE "Don't Let Go [1957]"
PERFORMER "Roy Hamilton"
ISRC USSM15700603
INDEX 00 02:05:07
FILE "15 - Roy Hamilton - Don't Let Go [1957].wav" WAVE
INDEX 01 00:00:00
TRACK 16 AUDIO
TITLE "Shake Rattle And Roll [1958]"
PERFORMER "Carl Perkins"
ISRC USSM15800726
INDEX 00 02:28:35
FILE "16 - Carl Perkins - Shake Rattle And Roll [1958].wav" WAVE
INDEX 01 00:00:00

Лог проверки качества

AUDIOCHECKER v2.0 beta (build 457) - by Dester - opdester@freemail.hu
~~~~~~~~~~~~~~~~~~~~~~~~~~~~~~~~~~
-=== DO NOT EDIT THIS FILE! ===-
Path: ...\CD2
01 -=- 01 - Maurice Williams & The Zodiacs - Stay [1960].flac -=- CDDA (100%)
02 -=- 02 - Johnnie Ray - Such A Night [1954].flac -=- CDDA (100%)
03 -=- 03 - Elvis Presley - Hound Dog [1956].flac -=- CDDA (100%)
04 -=- 04 - Sal Mineo - Start Movin' (In My Direction) [1957].flac -=- CDDA (100%)
05 -=- 05 - Carl Perkins - Good Rockin' Tonight [1958].flac -=- CDDA (100%)
06 -=- 06 - Peggy March - I Will Follow Him [1963].flac -=- CDDA (99%)
07 -=- 07 - Bob B Soxx & The Blue Jeans - Why Do Lovers Break Each Other's Hearts [1962].flac -=- CDDA (100%)
08 -=- 08 - Tokens - Tonight I Met An Angel [1963].flac -=- MPEG (95%)
09 -=- 09 - Ames Brothers - Rockin' Shoes [1957].flac -=- MPEG (100%)
10 -=- 10 - Don Gibson - Sea Of Heartbreak [1961].flac -=- CDDA (100%)
11 -=- 11 - Dion - This Little Girl [1963].flac -=- CDDA (100%)
12 -=- 12 - Neil Sedaka - Calendar Girl [1960].flac -=- CDDA (100%)
13 -=- 13 - Duane Eddy - (Dance With The) Guitar Man [1962].flac -=- CDDA (100%)
14 -=- 14 - Johnny Restivo - The Shape I'm In [1959].flac -=- CDDA (100%)
15 -=- 15 - Roy Hamilton - Don't Let Go [1957].flac -=- CDDA (100%)
16 -=- 16 - Carl Perkins - Shake Rattle And Roll [1958].flac -=- CDDA (100%)
Summary 87,75% CDDA
78638324

Отчёт accuraterip

[CUETools log; Date: 08.09.2014 0:50:43; Version: 2.1.4]
[CTDB TOCID: 7hqAKxQV69PC9FGFdIR782nX4Gc-] found.
Track | CTDB Status
1 | (3/3) Accurately ripped
2 | (3/3) Accurately ripped
3 | (3/3) Accurately ripped
4 | (3/3) Accurately ripped
5 | (3/3) Accurately ripped
6 | (3/3) Accurately ripped
7 | (3/3) Accurately ripped
8 | (3/3) Accurately ripped
9 | (3/3) Accurately ripped
10 | (3/3) Accurately ripped
11 | (3/3) Accurately ripped
12 | (3/3) Accurately ripped
13 | (3/3) Accurately ripped
14 | (3/3) Accurately ripped
15 | (3/3) Accurately ripped
16 | (3/3) Accurately ripped
[AccurateRip ID: 0015b25d-01078ae8-ce092a10] found.
Track Status
01 (01/01) Accurately ripped, all offset(s) 0(1)
02 (01/01) Accurately ripped, all offset(s) 0(1)
03 (01/01) Accurately ripped, all offset(s) 0(1)
04 (01/01) Accurately ripped, all offset(s) 0(1)
05 (01/01) Accurately ripped, all offset(s) 0(1)
06 (01/01) Accurately ripped, all offset(s) 0(1)
07 (01/01) Accurately ripped, all offset(s) 0(1)
08 (01/01) Accurately ripped, all offset(s) 0(1)
09 (01/01) Accurately ripped, all offset(s) 0(1)
10 (01/01) Accurately ripped, all offset(s) 0(1)
11 (01/01) Accurately ripped, all offset(s) 0(1)
12 (01/01) Accurately ripped, all offset(s) 0(1)
13 (01/01) Accurately ripped, all offset(s) 0(1)
14 (01/01) Accurately ripped, all offset(s) 0(1)
15 (01/01) Accurately ripped, all offset(s) 0(1)
16 (01/01) Accurately ripped, all offset(s) 0(1)
Track Peak [ CRC32 ] [W/O NULL] [ LOG ]
-- 99,7 [A217EC51] [C33F2169]
01 91,1 [DE04176A] [CAE3A747] CRC32
02 90,8 [643112A3] [D2BA4405] CRC32
03 85,7 [68AF24AA] [6DD85B05] CRC32
04 98,8 [784EDB1F] [780F449F] CRC32
05 89,4 [C4402CE2] [12E9303F] CRC32
06 93,4 [19B14618] [F88B1D3A] CRC32
07 99,7 [DA7DE6D3] [B9A86A4C] CRC32
08 96,9 [6B001E1D] [A3C40DA3] CRC32
09 99,7 [0AFEE905] [12ADA7FB] CRC32
10 78,5 [187982E3] [3D018244] CRC32
11 99,7 [6A792437] [EE995C8E] CRC32
12 99,7 [4B95C831] [1DDDE108] CRC32
13 92,8 [386CBB53] [B7EB2B7C] CRC32
14 95,3 [F21FEF57] [D6C1FB31] CRC32
15 88,1 [46E431F8] [2AD52B3D] CRC32
16 89,2 [113EB24A] [0D656749] CRC32

Скриншот спектра частот

CD3

Треклист:
01 – Crystals – He’s A Rebel [1962]
02 – Neil Sedaka – Breaking Up Is Hard To Do [1962]
03 – Paul Anka – A Steel Guitar And A Glass Of Wine [1962]
04 – Elvis Presley – Don’t Be Cruel [1956]
05 – Don Gibson – Oh Lonesome Me [1957]
06 – Dion – Ruby Baby [1962]
07 – Carl Perkins – That’s All Right [1958]
08 – Johnnie Ray – Yes Tonight Josephine [1957]
09 – Darlene Love – Wait Till My Bobby Gets Home [1959]
10 – Guy Mitchell – Heartaches By The Number [1959]
11 – Ray Peterson – Corrine Corrina [1960]
12 – Bobby Vinton – Blue On Blue [1963]
13 – Floyd Robinson – Makin’ Love [1959]
14 – Eddy Arnold – Gonna Find Me A Bluebird [1957]
15 – John D Loudermilk – Language Of Love [1961]
16 – Silhouettes – Get A Job [1958]
17 – Tokens – The Lion Sleeps Tonight [1961]

Лог создания рипа

Exact Audio Copy V1.0 beta 3 from 29. August 2011
EAC extraction logfile from 8. September 2013, 19:07
Various Artists / Pure Rock 'n' Roll (2013) CD3
Used drive : hp CDDVDW TS-L633N Adapter: 0 ID: 1
Read mode : Secure
Utilize accurate stream : Yes
Defeat audio cache : Yes
Make use of C2 pointers : No
Read offset correction : 6
Overread into Lead-In and Lead-Out : No
Fill up missing offset samples with silence : Yes
Delete leading and trailing silent blocks : No
Null samples used in CRC calculations : Yes
Used interface : Native Win32 interface for Win NT & 2000
Gap handling : Appended to previous track
Used output format : User Defined Encoder
Selected bitrate : 1024 kBit/s
Quality : High
Add ID3 tag : No
Command line compressor : C:\Program Files (x86)\Exact Audio Copy\Flac\flac.exe
Additional command line options : -8 -V -T "ARTIST=%artist%" -T "TITLE=%title%" -T "ALBUM=%albumtitle%" -T "DATE=%year%" -T "TRACKNUMBER=%tracknr%" -T "GENRE=%genre%" -T "PERFORMER=%albuminterpret%" -T "COMPOSER=%composer%" %haslyrics%--tag-from-file=LYRICS="%lyricsfile%"%haslyrics% -T "ALBUMARTIST=%albumartist%" -T "DISCNUMBER=%cdnumber%" -T "TOTALDISCS=%totalcds%" -T "TOTALTRACKS=%numtracks%" -T "COMMENT=%comment%" %source% -o %dest%
TOC of the extracted CD
Track | Start | Length | Start sector | End sector
---------------------------------------------------------
1 | 0:00.00 | 2:33.43 | 0 | 11517
2 | 2:33.43 | 2:17.08 | 11518 | 21800
3 | 4:50.51 | 2:12.69 | 21801 | 31769
4 | 7:03.45 | 2:04.06 | 31770 | 41075
5 | 9:07.51 | 2:30.36 | 41076 | 52361
6 | 11:38.12 | 2:37.00 | 52362 | 64136
7 | 14:15.12 | 3:35.25 | 64137 | 80286
8 | 17:50.37 | 2:32.16 | 80287 | 91702
9 | 20:22.53 | 2:25.69 | 91703 | 102646
10 | 22:48.47 | 2:39.60 | 102647 | 114631
11 | 25:28.32 | 2:41.29 | 114632 | 126735
12 | 28:09.61 | 2:30.23 | 126736 | 138008
13 | 30:40.09 | 1:53.43 | 138009 | 146526
14 | 32:33.52 | 2:11.41 | 146527 | 156392
15 | 34:45.18 | 1:46.66 | 156393 | 164408
16 | 36:32.09 | 2:46.07 | 164409 | 176865
17 | 39:18.16 | 2:42.00 | 176866 | 189015
Track 1
Filename E:\CDRips\01 - Crystals - He's A Rebel [1962].wav
Pre-gap length 0:00:02.00
Peak level 82.0 %
Extraction speed 2.0 X
Track quality 100.0 %
Test CRC 92021BE0
Copy CRC 92021BE0
Track not present in AccurateRip database
Copy OK
Track 2
Filename E:\CDRips\02 - Neil Sedaka - Breaking Up Is Hard To Do [1962].wav
Pre-gap length 0:00:01.77
Peak level 99.7 %
Extraction speed 1.5 X
Track quality 99.9 %
Test CRC 5736393D
Copy CRC 5736393D
Track not present in AccurateRip database
Copy OK
Track 3
Filename E:\CDRips\03 - Paul Anka - A Steel Guitar And A Glass Of Wine [1962].wav
Pre-gap length 0:00:01.77
Peak level 96.6 %
Extraction speed 2.2 X
Track quality 100.0 %
Test CRC 7724EF87
Copy CRC 7724EF87
Track not present in AccurateRip database
Copy OK
Track 4
Filename E:\CDRips\04 - Elvis Presley - Don't Be Cruel [1956].wav
Pre-gap length 0:00:01.77
Peak level 98.4 %
Extraction speed 2.2 X
Track quality 100.0 %
Test CRC 2CE4BC3E
Copy CRC 2CE4BC3E
Track not present in AccurateRip database
Copy OK
Track 5
Filename E:\CDRips\05 - Don Gibson - Oh Lonesome Me [1957].wav
Pre-gap length 0:00:01.77
Peak level 69.8 %
Extraction speed 2.4 X
Track quality 100.0 %
Test CRC 01B4BF7D
Copy CRC 01B4BF7D
Track not present in AccurateRip database
Copy OK
Track 6
Filename E:\CDRips\06 - Dion - Ruby Baby [1962].wav
Pre-gap length 0:00:01.77
Peak level 99.7 %
Extraction speed 1.9 X
Track quality 99.9 %
Test CRC 4C329C10
Copy CRC 4C329C10
Track not present in AccurateRip database
Copy OK
Track 7
Filename E:\CDRips\07 - Carl Perkins - That's All Right [1958].wav
Pre-gap length 0:00:01.77
Peak level 93.1 %
Extraction speed 2.8 X
Track quality 100.0 %
Test CRC A60BB14E
Copy CRC A60BB14E
Track not present in AccurateRip database
Copy OK
Track 8
Filename E:\CDRips\08 - Johnnie Ray - Yes Tonight Josephine [1957].wav
Pre-gap length 0:00:01.77
Peak level 75.0 %
Extraction speed 2.8 X
Track quality 100.0 %
Test CRC 6B392EED
Copy CRC 6B392EED
Track not present in AccurateRip database
Copy OK
Track 9
Filename E:\CDRips\09 - Darlene Love - Wait Till My Bobby Gets Home [1959].wav
Pre-gap length 0:00:01.77
Peak level 99.7 %
Extraction speed 2.9 X
Track quality 100.0 %
Test CRC 43B15409
Copy CRC 43B15409
Track not present in AccurateRip database
Copy OK
Track 10
Filename E:\CDRips\10 - Guy Mitchell - Heartaches By The Number [1959].wav
Pre-gap length 0:00:01.77
Peak level 98.8 %
Extraction speed 3.0 X
Track quality 100.0 %
Test CRC 23CCD6EC
Copy CRC 23CCD6EC
Track not present in AccurateRip database
Copy OK
Track 11
Filename E:\CDRips\11 - Ray Peterson - Corrine Corrina [1960].wav
Pre-gap length 0:00:01.77
Peak level 78.5 %
Extraction speed 3.1 X
Track quality 100.0 %
Test CRC 513439BA
Copy CRC 513439BA
Track not present in AccurateRip database
Copy OK
Track 12
Filename E:\CDRips\12 - Bobby Vinton - Blue On Blue [1963].wav
Pre-gap length 0:00:01.77
Peak level 99.7 %
Extraction speed 3.1 X
Track quality 100.0 %
Test CRC 739D8AB9
Copy CRC 739D8AB9
Track not present in AccurateRip database
Copy OK
Track 13
Filename E:\CDRips\13 - Floyd Robinson - Makin' Love [1959].wav
Pre-gap length 0:00:01.77
Peak level 88.1 %
Extraction speed 3.0 X
Track quality 100.0 %
Test CRC 986C7D23
Copy CRC 986C7D23
Track not present in AccurateRip database
Copy OK
Track 14
Filename E:\CDRips\14 - Eddy Arnold - Gonna Find Me A Bluebird [1957].wav
Pre-gap length 0:00:01.77
Peak level 99.7 %
Extraction speed 3.2 X
Track quality 100.0 %
Test CRC 35076725
Copy CRC 35076725
Track not present in AccurateRip database
Copy OK
Track 15
Filename E:\CDRips\15 - John D Loudermilk - Language Of Love [1961].wav
Pre-gap length 0:00:01.77
Peak level 84.1 %
Extraction speed 2.1 X
Track quality 99.9 %
Test CRC 0792C655
Copy CRC 0792C655
Track not present in AccurateRip database
Copy OK
Track 16
Filename E:\CDRips\16 - Silhouettes - Get A Job [1958].wav
Pre-gap length 0:00:01.77
Peak level 97.3 %
Extraction speed 3.5 X
Track quality 100.0 %
Test CRC D1C4528B
Copy CRC D1C4528B
Track not present in AccurateRip database
Copy OK
Track 17
Filename E:\CDRips\17 - Tokens - The Lion Sleeps Tonight [1961].wav
Pre-gap length 0:00:01.77
Peak level 99.7 %
Extraction speed 2.6 X
Track quality 99.9 %
Test CRC 69A0665F
Copy CRC 69A0665F
Track not present in AccurateRip database
Copy OK
None of the tracks are present in the AccurateRip database
No errors occurred
End of status report
---- CUETools DB Plugin V2.1.3
[CTDB TOCID: fuLeBguuoGdIbM7om45NMblYBmM-] disk not present in database, Submit result: fuLeBguuoGdIbM7om45NMblYBmM- has been uploaded
==== Log checksum 55CD60273D4E344101D6836C0B28C9DDB7E5623BE3164EDAF23D1DD85EDEF3AB ====

Содержание индексной карты (.CUE)

REM GENRE Oldies
REM DATE 2013
REM DISCID D909D811
REM COMMENT "ExactAudioCopy v1.0b3"
CATALOG 0888837506120
PERFORMER "Various Artists"
TITLE "Pure Rock 'n' Roll (2013) CD3"
FILE "01 - Crystals - He's A Rebel [1962].wav" WAVE
TRACK 01 AUDIO
TITLE "He's A Rebel [1962]"
PERFORMER "Crystals"
ISRC USQX91100111
INDEX 01 00:00:00
TRACK 02 AUDIO
TITLE "Breaking Up Is Hard To Do [1962]"
PERFORMER "Neil Sedaka"
ISRC USRC19901068
INDEX 00 02:31:60
FILE "02 - Neil Sedaka - Breaking Up Is Hard To Do [1962].wav" WAVE
INDEX 01 00:00:00
TRACK 03 AUDIO
TITLE "A Steel Guitar And A Glass Of Wine [1962]"
PERFORMER "Paul Anka"
ISRC USRC19900849
INDEX 00 02:15:25
FILE "03 - Paul Anka - A Steel Guitar And A Glass Of Wine [1962].wav" WAVE
INDEX 01 00:00:00
TRACK 04 AUDIO
TITLE "Don't Be Cruel [1956]"
PERFORMER "Elvis Presley"
ISRC USRC10200073
INDEX 00 02:11:11
FILE "04 - Elvis Presley - Don't Be Cruel [1956].wav" WAVE
INDEX 01 00:00:00
TRACK 05 AUDIO
TITLE "Oh Lonesome Me [1957]"
PERFORMER "Don Gibson"
ISRC USRN10200036
INDEX 00 02:02:23
FILE "05 - Don Gibson - Oh Lonesome Me [1957].wav" WAVE
INDEX 01 00:00:00
TRACK 06 AUDIO
TITLE "Ruby Baby [1962]"
PERFORMER "Dion"
ISRC USSM16200090
INDEX 00 02:28:53
FILE "06 - Dion - Ruby Baby [1962].wav" WAVE
INDEX 01 00:00:00
TRACK 07 AUDIO
TITLE "That's All Right [1958]"
PERFORMER "Carl Perkins"
ISRC USSM15800728
INDEX 00 02:35:17
FILE "07 - Carl Perkins - That's All Right [1958].wav" WAVE
INDEX 01 00:00:00
TRACK 08 AUDIO
TITLE "Yes Tonight Josephine [1957]"
PERFORMER "Johnnie Ray"
ISRC USSM10310966
INDEX 00 03:33:42
FILE "08 - Johnnie Ray - Yes Tonight Josephine [1957].wav" WAVE
INDEX 01 00:00:00
TRACK 09 AUDIO
TITLE "Wait Till My Bobby Gets Home [1959]"
PERFORMER "Darlene Love"
ISRC USSM10906445
INDEX 00 02:30:33
FILE "09 - Darlene Love - Wait Till My Bobby Gets Home [1959].wav" WAVE
INDEX 01 00:00:00
TRACK 10 AUDIO
TITLE "Heartaches By The Number [1959]"
PERFORMER "Guy Mitchell"
ISRC USSM15900947
INDEX 00 02:24:11
FILE "10 - Guy Mitchell - Heartaches By The Number [1959].wav" WAVE
INDEX 01 00:00:00
TRACK 11 AUDIO
TITLE "Corrine Corrina [1960]"
PERFORMER "Ray Peterson"
ISRC USRC19708371
INDEX 00 02:38:02
FILE "11 - Ray Peterson - Corrine Corrina [1960].wav" WAVE
INDEX 01 00:00:00
TRACK 12 AUDIO
TITLE "Blue On Blue [1963]"
PERFORMER "Bobby Vinton"
ISRC USSM10404746
INDEX 00 02:39:46
FILE "12 - Bobby Vinton - Blue On Blue [1963].wav" WAVE
INDEX 01 00:00:00
TRACK 13 AUDIO
TITLE "Makin' Love [1959]"
PERFORMER "Floyd Robinson"
ISRC USRC15903548
INDEX 00 02:28:40
FILE "13 - Floyd Robinson - Makin' Love [1959].wav" WAVE
INDEX 01 00:00:00
TRACK 14 AUDIO
TITLE "Gonna Find Me A Bluebird [1957]"
PERFORMER "Eddy Arnold"
ISRC USRN10400449
INDEX 00 01:51:60
FILE "14 - Eddy Arnold - Gonna Find Me A Bluebird [1957].wav" WAVE
INDEX 01 00:00:00
TRACK 15 AUDIO
TITLE "Language Of Love [1961]"
PERFORMER "John D Loudermilk"
ISRC USRC10201188
INDEX 00 02:09:58
FILE "15 - John D Loudermilk - Language Of Love [1961].wav" WAVE
INDEX 01 00:00:00
TRACK 16 AUDIO
TITLE "Get A Job [1958]"
PERFORMER "Silhouettes"
ISRC USAR17200003
INDEX 00 01:45:08
FILE "16 - Silhouettes - Get A Job [1958].wav" WAVE
INDEX 01 00:00:00
TRACK 17 AUDIO
TITLE "The Lion Sleeps Tonight [1961]"
PERFORMER "Tokens"
ISRC USRC16100933
INDEX 00 02:44:24
FILE "17 - Tokens - The Lion Sleeps Tonight [1961].wav" WAVE
INDEX 01 00:00:00

Лог проверки качества

AUDIOCHECKER v2.0 beta (build 457) - by Dester - opdester@freemail.hu
~~~~~~~~~~~~~~~~~~~~~~~~~~~~~~~~~~
-=== DO NOT EDIT THIS FILE! ===-
Path: ...\CD3
01 -=- 01 - Crystals - He's A Rebel [1962].flac -=- CDDA (100%)
02 -=- 02 - Neil Sedaka - Breaking Up Is Hard To Do [1962].flac -=- CDDA (100%)
03 -=- 03 - Paul Anka - A Steel Guitar And A Glass Of Wine [1962].flac -=- CDDA (100%)
04 -=- 04 - Elvis Presley - Don't Be Cruel [1956].flac -=- CDDA (100%)
05 -=- 05 - Don Gibson - Oh Lonesome Me [1957].flac -=- CDDA (100%)
06 -=- 06 - Dion - Ruby Baby [1962].flac -=- CDDA (100%)
07 -=- 07 - Carl Perkins - That's All Right [1958].flac -=- CDDA (99%)
08 -=- 08 - Johnnie Ray - Yes Tonight Josephine [1957].flac -=- CDDA (100%)
09 -=- 09 - Darlene Love - Wait Till My Bobby Gets Home [1959].flac -=- CDDA (100%)
10 -=- 10 - Guy Mitchell - Heartaches By The Number [1959].flac -=- CDDA (100%)
11 -=- 11 - Ray Peterson - Corrine Corrina [1960].flac -=- CDDA (100%)
12 -=- 12 - Bobby Vinton - Blue On Blue [1963].flac -=- CDDA (100%)
13 -=- 13 - Floyd Robinson - Makin' Love [1959].flac -=- CDDA (100%)
14 -=- 14 - Eddy Arnold - Gonna Find Me A Bluebird [1957].flac -=- ERROR
15 -=- 15 - John D Loudermilk - Language Of Love [1961].flac -=- CDDA (100%)
16 -=- 16 - Silhouettes - Get A Job [1958].flac -=- CDDA (100%)
17 -=- 17 - Tokens - The Lion Sleeps Tonight [1961].flac -=- CDDA (100%)
Summary 99,94% CDDA
239980852

Отчёт accuraterip

[CUETools log; Date: 08.09.2014 0:53:54; Version: 2.1.4]
[CTDB TOCID: fuLeBguuoGdIbM7om45NMblYBmM-] found.
Track | CTDB Status
1 | (2/2) Accurately ripped
2 | (2/2) Accurately ripped
3 | (2/2) Accurately ripped
4 | (2/2) Accurately ripped
5 | (2/2) Accurately ripped
6 | (2/2) Accurately ripped
7 | (2/2) Accurately ripped
8 | (2/2) Accurately ripped
9 | (2/2) Accurately ripped
10 | (2/2) Accurately ripped
11 | (2/2) Accurately ripped
12 | (2/2) Accurately ripped
13 | (2/2) Accurately ripped
14 | (2/2) Accurately ripped
15 | (2/2) Accurately ripped
16 | (2/2) Accurately ripped
17 | (2/2) Accurately ripped
[AccurateRip ID: 001a1741-014af9e4-d909d811] found.
Track Status
01 (01/01) Accurately ripped, all offset(s) 0(1)
02 (01/01) Accurately ripped, all offset(s) 0(1)
03 (01/01) Accurately ripped, all offset(s) 0(1)
04 (01/01) Accurately ripped, all offset(s) 0(1)
05 (01/01) Accurately ripped, all offset(s) 0(1)
06 (01/01) Accurately ripped, all offset(s) 0(1)
07 (01/01) Accurately ripped, all offset(s) 0(1)
08 (01/01) Accurately ripped, all offset(s) 0(1)
09 (01/01) Accurately ripped, all offset(s) 0(1)
10 (01/01) Accurately ripped, all offset(s) 0(1)
11 (01/01) Accurately ripped, all offset(s) 0(1)
12 (01/01) Accurately ripped, all offset(s) 0(1)
13 (01/01) Accurately ripped, all offset(s) 0(1)
14 (01/01) Accurately ripped, all offset(s) 0(1)
15 (01/01) Accurately ripped, all offset(s) 0(1)
16 (01/01) Accurately ripped, all offset(s) 0(1)
17 (01/01) Accurately ripped, all offset(s) 0(1)
Track Peak [ CRC32 ] [W/O NULL] [ LOG ]
-- 99,7 [F786F252] [5F38201F]
01 82,0 [92021BE0] [23969FDC] CRC32
02 99,7 [5736393D] [1FEBA622] CRC32
03 96,6 [7724EF87] [E6C3A03B] CRC32
04 98,4 [2CE4BC3E] [BC7BAFD5] CRC32
05 69,8 [01B4BF7D] [09A1B573] CRC32
06 99,7 [4C329C10] [8DA1DB5B] CRC32
07 93,1 [A60BB14E] [1D498409] CRC32
08 75,0 [6B392EED] [BB01BF8A] CRC32
09 99,7 [43B15409] [E1A4A106] CRC32
10 98,8 [23CCD6EC] [8E2C5E11] CRC32
11 78,5 [513439BA] [60C141A7] CRC32
12 99,7 [739D8AB9] [EA92A97A] CRC32
13 88,1 [986C7D23] [CFB5A6AF] CRC32
14 99,7 [35076725] [3C02261B] CRC32
15 84,1 [0792C655] [062ACF26] CRC32
16 97,3 [D1C4528B] [10CA3802] CRC32
17 99,7 [69A0665F] [E2656194] CRC32

Скриншот спектра частот

CD4

Треклист:
01 – Johnny Cash – Ring Of Fire [1963]
02 – Carl Perkins – Pink Pedal Pushers [1958]
03 – Aretha Franklin – Rock-A-Bye Your Baby With A Dixie Melody [1961]
04 – Elvis Presley – A Big Hunk O’ Love [1958]
05 – Mickey & Sylvia – Love Is Strange [1956]
06 – Ronettes – Hot Pastrami [1963]
07 – Wilbert Harrison – Kansas City [1959]
08 – Five Blobs – The Blob [1958]
09 – Guy Mitchell – Knee Deep In The Blues [1956]
10 – Roy Hamilton – You Can Have Her (I Don’t Want Her) [1961]
11 – Sal Mineo – Party Time [1957]
12 – Dion – Can’t We Be Sweethearts [1963]
13 – Neil Sedaka – Next Door To An Angel [1962]
14 – Shakin’ Stevens – This Ole House [1980]
15 – Stray Cats – Rock This Town [1981]

Лог создания рипа

Exact Audio Copy V1.0 beta 3 from 29. August 2011
EAC extraction logfile from 8. September 2013, 19:44
Various Artists / Pure Rock 'n' Roll (2013) CD4
Used drive : hp CDDVDW TS-L633N Adapter: 0 ID: 1
Read mode : Secure
Utilize accurate stream : Yes
Defeat audio cache : Yes
Make use of C2 pointers : No
Read offset correction : 6
Overread into Lead-In and Lead-Out : No
Fill up missing offset samples with silence : Yes
Delete leading and trailing silent blocks : No
Null samples used in CRC calculations : Yes
Used interface : Native Win32 interface for Win NT & 2000
Gap handling : Appended to previous track
Used output format : User Defined Encoder
Selected bitrate : 1024 kBit/s
Quality : High
Add ID3 tag : No
Command line compressor : C:\Program Files (x86)\Exact Audio Copy\Flac\flac.exe
Additional command line options : -8 -V -T "ARTIST=%artist%" -T "TITLE=%title%" -T "ALBUM=%albumtitle%" -T "DATE=%year%" -T "TRACKNUMBER=%tracknr%" -T "GENRE=%genre%" -T "PERFORMER=%albuminterpret%" -T "COMPOSER=%composer%" %haslyrics%--tag-from-file=LYRICS="%lyricsfile%"%haslyrics% -T "ALBUMARTIST=%albumartist%" -T "DISCNUMBER=%cdnumber%" -T "TOTALDISCS=%totalcds%" -T "TOTALTRACKS=%numtracks%" -T "COMMENT=%comment%" %source% -o %dest%
TOC of the extracted CD
Track | Start | Length | Start sector | End sector
---------------------------------------------------------
1 | 0:00.00 | 2:37.54 | 0 | 11828
2 | 2:37.54 | 2:36.67 | 11829 | 23595
3 | 5:14.46 | 2:23.62 | 23596 | 34382
4 | 7:38.33 | 2:14.03 | 34383 | 44435
5 | 9:52.36 | 2:54.05 | 44436 | 57490
6 | 12:46.41 | 1:32.57 | 57491 | 64447
7 | 14:19.23 | 2:24.53 | 64448 | 75300
8 | 16:44.01 | 2:40.71 | 75301 | 87371
9 | 19:24.72 | 2:12.63 | 87372 | 97334
10 | 21:37.60 | 2:40.38 | 97335 | 109372
11 | 24:18.23 | 2:15.66 | 109373 | 119563
12 | 26:34.14 | 2:24.54 | 119564 | 130417
13 | 28:58.68 | 2:26.29 | 130418 | 141396
14 | 31:25.22 | 3:06.41 | 141397 | 155387
15 | 34:31.63 | 2:40.22 | 155388 | 167409
Track 1
Filename E:\CDRips\01 - Johnny Cash - Ring Of Fire [1963].wav
Pre-gap length 0:00:02.00
Peak level 87.7 %
Extraction speed 1.5 X
Track quality 99.9 %
Test CRC A1A976BD
Copy CRC A1A976BD
Track not present in AccurateRip database
Copy OK
Track 2
Filename E:\CDRips\02 - Carl Perkins - Pink Pedal Pushers [1958].wav
Pre-gap length 0:00:01.77
Peak level 97.0 %
Extraction speed 2.1 X
Track quality 100.0 %
Test CRC B013EABE
Copy CRC B013EABE
Track not present in AccurateRip database
Copy OK
Track 3
Filename E:\CDRips\03 - Aretha Franklin - Rock-A-Bye Your Baby With A Dixie Melody [1961].wav
Pre-gap length 0:00:01.77
Peak level 89.1 %
Extraction speed 2.2 X
Track quality 100.0 %
Test CRC 5F214BEA
Copy CRC 5F214BEA
Track not present in AccurateRip database
Copy OK
Track 4
Filename E:\CDRips\04 - Elvis Presley - A Big Hunk O' Love [1958].wav
Pre-gap length 0:00:01.77
Peak level 97.6 %
Extraction speed 2.3 X
Track quality 100.0 %
Test CRC 8BB49D86
Copy CRC 8BB49D86
Track not present in AccurateRip database
Copy OK
Track 5
Filename E:\CDRips\05 - Mickey & Sylvia - Love Is Strange [1956].wav
Pre-gap length 0:00:01.77
Peak level 98.8 %
Extraction speed 2.5 X
Track quality 100.0 %
Test CRC 870BCF59
Copy CRC 870BCF59
Track not present in AccurateRip database
Copy OK
Track 6
Filename E:\CDRips\06 - Ronettes - Hot Pastrami [1963].wav
Pre-gap length 0:00:01.77
Peak level 99.7 %
Extraction speed 2.3 X
Track quality 100.0 %
Test CRC A4940AD9
Copy CRC A4940AD9
Track not present in AccurateRip database
Copy OK
Track 7
Filename E:\CDRips\07 - Wilbert Harrison - Kansas City [1959].wav
Pre-gap length 0:00:01.77
Peak level 98.8 %
Extraction speed 2.6 X
Track quality 100.0 %
Test CRC 94D2CC3B
Copy CRC 94D2CC3B
Track not present in AccurateRip database
Copy OK
Track 8
Filename E:\CDRips\08 - Five Blobs - The Blob [1958].wav
Pre-gap length 0:00:01.77
Peak level 99.7 %
Extraction speed 2.8 X
Track quality 100.0 %
Test CRC 4E258DDE
Copy CRC 4E258DDE
Track not present in AccurateRip database
Copy OK
Track 9
Filename E:\CDRips\09 - Guy Mitchell - Knee Deep In The Blues [1956].wav
Pre-gap length 0:00:01.77
Peak level 95.1 %
Extraction speed 2.7 X
Track quality 100.0 %
Test CRC E40B590B
Copy CRC E40B590B
Track not present in AccurateRip database
Copy OK
Track 10
Filename E:\CDRips\10 - Roy Hamilton - You Can Have Her (I Don't Want Her) [1961].wav
Pre-gap length 0:00:01.77
Peak level 75.8 %
Extraction speed 3.0 X
Track quality 100.0 %
Test CRC DBF4A950
Copy CRC DBF4A950
Track not present in AccurateRip database
Copy OK
Track 11
Filename E:\CDRips\11 - Sal Mineo - Party Time [1957].wav
Pre-gap length 0:00:01.77
Peak level 89.1 %
Extraction speed 3.0 X
Track quality 100.0 %
Test CRC F07BAF78
Copy CRC F07BAF78
Track not present in AccurateRip database
Copy OK
Track 12
Filename E:\CDRips\12 - Dion - Can't We Be Sweethearts [1963].wav
Pre-gap length 0:00:01.77
Peak level 99.7 %
Extraction speed 2.3 X
Track quality 99.9 %
Test CRC 1FC3D088
Copy CRC 1FC3D088
Track not present in AccurateRip database
Copy OK
Track 13
Filename E:\CDRips\13 - Neil Sedaka - Next Door To An Angel [1962].wav
Pre-gap length 0:00:01.92
Peak level 99.7 %
Extraction speed 2.3 X
Track quality 99.9 %
Test CRC F3A50475
Copy CRC F3A50475
Track not present in AccurateRip database
Copy OK
Track 14
Filename E:\CDRips\14 - Shakin' Stevens - This Ole House [1980].wav
Pre-gap length 0:00:02.17
Peak level 62.7 %
Extraction speed 2.6 X
Track quality 99.9 %
Test CRC 5A26D3F0
Copy CRC 5A26D3F0
Track not present in AccurateRip database
Copy OK
Track 15
Filename E:\CDRips\15 - Stray Cats - Rock This Town [1981].wav
Pre-gap length 0:00:01.77
Peak level 99.7 %
Extraction speed 3.4 X
Track quality 100.0 %
Test CRC F5304579
Copy CRC F5304579
Track not present in AccurateRip database
Copy OK
None of the tracks are present in the AccurateRip database
No errors occurred
End of status report
---- CUETools DB Plugin V2.1.3
[CTDB TOCID: drA_VS8Dcqz8sf_IIqHOUbBdJ_s-] disk not present in database, Submit result: drA_VS8Dcqz8sf_IIqHOUbBdJ_s- has been uploaded
==== Log checksum 16B3C9E1684E30C8743C1AA0D9867ECC11969B8E7C762911C37B7ACD971A8721 ====

Содержание индексной карты (.CUE)

REM GENRE Oldies
REM DATE 2013
REM DISCID D508B80F
REM COMMENT "ExactAudioCopy v1.0b3"
CATALOG 0888837506120
PERFORMER "Various Artists"
TITLE "Pure Rock 'n' Roll (2013) CD4"
FILE "01 - Johnny Cash - Ring Of Fire [1963].wav" WAVE
TRACK 01 AUDIO
TITLE "Ring Of Fire [1963]"
PERFORMER "Johnny Cash"
ISRC USSM16301296
INDEX 01 00:00:00
TRACK 02 AUDIO
TITLE "Pink Pedal Pushers [1958]"
PERFORMER "Carl Perkins"
ISRC USSM15800724
INDEX 00 02:35:71
FILE "02 - Carl Perkins - Pink Pedal Pushers [1958].wav" WAVE
INDEX 01 00:00:00
TRACK 03 AUDIO
TITLE "Rock-A-Bye Your Baby With A Dixie Melody [1961]"
PERFORMER "Aretha Franklin"
ISRC USSM10600746
INDEX 00 02:35:09
FILE "03 - Aretha Franklin - Rock-A-Bye Your Baby With A Dixie Melody [1961].wav" WAVE
INDEX 01 00:00:00
TRACK 04 AUDIO
TITLE "A Big Hunk O' Love [1958]"
PERFORMER "Elvis Presley"
ISRC USRC15805822
INDEX 00 02:22:04
FILE "04 - Elvis Presley - A Big Hunk O' Love [1958].wav" WAVE
INDEX 01 00:00:00
TRACK 05 AUDIO
TITLE "Love Is Strange [1956]"
PERFORMER "Mickey & Sylvia"
ISRC USRC15607532
INDEX 00 02:12:20
FILE "05 - Mickey & Sylvia - Love Is Strange [1956].wav" WAVE
INDEX 01 00:00:00
TRACK 06 AUDIO
TITLE "Hot Pastrami [1963]"
PERFORMER "Ronettes"
ISRC USQX91100944
INDEX 00 02:52:22
FILE "06 - Ronettes - Hot Pastrami [1963].wav" WAVE
INDEX 01 00:00:00
TRACK 07 AUDIO
TITLE "Kansas City [1959]"
PERFORMER "Wilbert Harrison"
ISRC USAR19901255
INDEX 00 01:30:74
FILE "07 - Wilbert Harrison - Kansas City [1959].wav" WAVE
INDEX 01 00:00:00
TRACK 08 AUDIO
TITLE "The Blob [1958]"
PERFORMER "Five Blobs"
ISRC USSM17301465
INDEX 00 02:22:70
FILE "08 - Five Blobs - The Blob [1958].wav" WAVE
INDEX 01 00:00:00
TRACK 09 AUDIO
TITLE "Knee Deep In The Blues [1956]"
PERFORMER "Guy Mitchell"
ISRC USSM15600361
INDEX 00 02:39:13
FILE "09 - Guy Mitchell - Knee Deep In The Blues [1956].wav" WAVE
INDEX 01 00:00:00
TRACK 10 AUDIO
TITLE "You Can Have Her (I Don't Want Her) [1961]"
PERFORMER "Roy Hamilton"
ISRC USSM10213187
INDEX 00 02:11:05
FILE "10 - Roy Hamilton - You Can Have Her (I Don't Want Her) [1961].wav" WAVE
INDEX 01 00:00:00
TRACK 11 AUDIO
TITLE "Party Time [1957]"
PERFORMER "Sal Mineo"
ISRC USSM15700121
INDEX 00 02:38:55
FILE "11 - Sal Mineo - Party Time [1957].wav" WAVE
INDEX 01 00:00:00
TRACK 12 AUDIO
TITLE "Can't We Be Sweethearts [1963]"
PERFORMER "Dion"
ISRC USSM16300089
INDEX 00 02:14:08
FILE "12 - Dion - Can't We Be Sweethearts [1963].wav" WAVE
INDEX 01 00:00:00
TRACK 13 AUDIO
TITLE "Next Door To An Angel [1962]"
PERFORMER "Neil Sedaka"
ISRC USRC19900800
INDEX 00 02:22:60
FILE "13 - Neil Sedaka - Next Door To An Angel [1962].wav" WAVE
INDEX 01 00:00:00
TRACK 14 AUDIO
TITLE "This Ole House [1980]"
PERFORMER "Shakin' Stevens"
ISRC GBARL0801563
INDEX 00 02:24:16
FILE "14 - Shakin' Stevens - This Ole House [1980].wav" WAVE
INDEX 01 00:00:00
TRACK 15 AUDIO
TITLE "Rock This Town [1981]"
PERFORMER "Stray Cats"
ISRC GBARK8100007
INDEX 00 03:04:58
FILE "15 - Stray Cats - Rock This Town [1981].wav" WAVE
INDEX 01 00:00:00

Лог проверки качества

AUDIOCHECKER v2.0 beta (build 457) - by Dester - opdester@freemail.hu
~~~~~~~~~~~~~~~~~~~~~~~~~~~~~~~~~~
-=== DO NOT EDIT THIS FILE! ===-
Path: ...\CD4
01 -=- 01 - Johnny Cash - Ring Of Fire [1963].flac -=- CDDA (100%)
02 -=- 02 - Carl Perkins - Pink Pedal Pushers [1958].flac -=- CDDA (100%)
03 -=- 03 - Aretha Franklin - Rock-A-Bye Your Baby With A Dixie Melody [1961].flac -=- CDDA (100%)
04 -=- 04 - Elvis Presley - A Big Hunk O' Love [1958].flac -=- CDDA (100%)
05 -=- 05 - Mickey & Sylvia - Love Is Strange [1956].flac -=- CDDA (100%)
06 -=- 06 - Ronettes - Hot Pastrami [1963].flac -=- CDDA (100%)
07 -=- 07 - Wilbert Harrison - Kansas City [1959].flac -=- CDDA (100%)
08 -=- 08 - Five Blobs - The Blob [1958].flac -=- CDDA (100%)
09 -=- 09 - Guy Mitchell - Knee Deep In The Blues [1956].flac -=- CDDA (100%)
10 -=- 10 - Roy Hamilton - You Can Have Her (I Don't Want Her) [1961].flac -=- CDDA (100%)
11 -=- 11 - Sal Mineo - Party Time [1957].flac -=- ERROR
12 -=- 12 - Dion - Can't We Be Sweethearts [1963].flac -=- CDDA (100%)
13 -=- 13 - Neil Sedaka - Next Door To An Angel [1962].flac -=- CDDA (100%)
14 -=- 14 - Shakin' Stevens - This Ole House [1980].flac -=- CDDA (100%)
15 -=- 15 - Stray Cats - Rock This Town [1981].flac -=- CDDA (100%)
Summary 100,00% CDDA
27159380

Отчёт accuraterip

[CUETools log; Date: 08.09.2014 0:55:48; Version: 2.1.4]
[CTDB TOCID: drA_VS8Dcqz8sf_IIqHOUbBdJ_s-] found.
Track | CTDB Status
1 | (3/3) Accurately ripped
2 | (3/3) Accurately ripped
3 | (3/3) Accurately ripped
4 | (3/3) Accurately ripped
5 | (3/3) Accurately ripped
6 | (3/3) Accurately ripped
7 | (3/3) Accurately ripped
8 | (3/3) Accurately ripped
9 | (3/3) Accurately ripped
10 | (3/3) Accurately ripped
11 | (3/3) Accurately ripped
12 | (3/3) Accurately ripped
13 | (3/3) Accurately ripped
14 | (3/3) Accurately ripped
15 | (3/3) Accurately ripped
[AccurateRip ID: 0014233d-00e3e23e-d508b80f] found.
Track Status
01 (01/01) Accurately ripped, all offset(s) 0(1)
02 (01/01) Accurately ripped, all offset(s) 0(1)
03 (01/01) Accurately ripped, all offset(s) 0(1)
04 (01/01) Accurately ripped, all offset(s) 0(1)
05 (01/01) Accurately ripped, all offset(s) 0(1)
06 (01/01) Accurately ripped, all offset(s) 0(1)
07 (01/01) Accurately ripped, all offset(s) 0(1)
08 (01/01) Accurately ripped, all offset(s) 0(1)
09 (01/01) Accurately ripped, all offset(s) 0(1)
10 (01/01) Accurately ripped, all offset(s) 0(1)
11 (01/01) Accurately ripped, all offset(s) 0(1)
12 (01/01) Accurately ripped, all offset(s) 0(1)
13 (01/01) Accurately ripped, all offset(s) 0(1)
14 (01/01) Accurately ripped, all offset(s) 0(1)
15 (01/01) Accurately ripped, all offset(s) 0(1)
Track Peak [ CRC32 ] [W/O NULL] [ LOG ]
-- 99,7 [7607338B] [6062345B]
01 87,7 [A1A976BD] [30B14BA4] CRC32
02 97,0 [B013EABE] [5461F131] CRC32
03 89,1 [5F214BEA] [58AA3AB9] CRC32
04 97,6 [8BB49D86] [0392E824] CRC32
05 98,8 [870BCF59] [D0F5A379] CRC32
06 99,7 [A4940AD9] [796482EA] CRC32
07 98,8 [94D2CC3B] [9D2F4621] CRC32
08 99,7 [4E258DDE] [8BABA588] CRC32
09 95,1 [E40B590B] [23880283] CRC32
10 75,8 [DBF4A950] [00E4F834] CRC32
11 89,1 [F07BAF78] [F7A61676] CRC32
12 99,7 [1FC3D088] [86BA948B] CRC32
13 99,7 [F3A50475] [2A5DA512] CRC32
14 62,7 [5A26D3F0] [9C433FA0] CRC32
15 99,7 [F5304579] [D7C2B065] CRC32

Скриншот спектра частот

Об альбоме (сборнике)

Label: Sony Music - 1070259 (?)

To download the file disable ad blocking, and reload the page.

disable adblock How to disable ad blocking?

Download by magnet link 898 MB Download Torrent

Login using:



   
Current time is: 23-Sep 16:10 :: All times are UTC ± 0