Pomegranates – Persian Pop, Funk, Folk, and Psych Of The 60s & 70s
Жанр: Persian pop, psych, funk, and folk
Носитель: CD
Страна-производитель диска: US
Год издания: 2009
Издатель (лейбл): B-Music
Аудиокодек: FLAC (*.flac)
Тип рипа: tracks+.cue
Битрейт аудио: lossless
Продолжительность: 1:06:52
Источник (релизер): diston/Demonoid
Наличие сканов в содержимом раздачи: нет
Треклист:
01 – Zia - Helelyos 4:35
02 – Mohammad Nouri - Biya Bar-e Safar Bandim 3:53
03 – Mehrpouya - Soul Raga 4:07
04 – Googoosh - Talagh 4:46
05 – Kourosh Yaghmaei - Gol-e Yakh 5:14
06 – Parva - Mosem-e Gol 4:33
07 – Noosh Afarin* - Gol-e Aftab Gardoon 3:24
08 – Soli - Miravi 3:24
09 – Marjan - Kavir-e Del 4:26
10 – Sima Bina - Naz Kardanet Vaveyla 3:12
11 – Soli - Negar 4:05
12 – Googoosh - Bemoun Ta Bemounam 2:53
13 – Zia - Kofriam 4:58
14 – Ramesh - Sharm-e Boos-e 4:01
15 – Dariush - Cheshm-e Man 4:57
16 – Googoosh - Gol Bi Goldoon 4:24

Лог создания рипа

Exact Audio Copy V0.99 prebeta 4 from 23. January 2008
EAC extraction logfile from 28. February 2010, 21:28
Various / Pomegranates - Persian Pop, Funk, Folk, and Psych of the 60s & 70s
Used drive : TSSTcorpCDDVDW SH-S223F Adapter: 2 ID: 1
Read mode : Secure
Utilize accurate stream : Yes
Defeat audio cache : Yes
Make use of C2 pointers : No
Read offset correction : 6
Overread into Lead-In and Lead-Out : No
Fill up missing offset samples with silence : Yes
Delete leading and trailing silent blocks : No
Null samples used in CRC calculations : Yes
Used interface : Native Win32 interface for Win NT & 2000
Gap handling : Appended to previous track
Used output format : User Defined Encoder
Selected bitrate : 320 kBit/s
Quality : High
Add ID3 tag : No
Command line compressor : C:\Program Files\Exact Audio Copy\Flac\flac.exe
Additional command line options : -V -8 -T "artist=%a" -T "title=%t" -T "album=%g" -T "date=%y" -T "tracknumber=%n" -T "genre=%m" %s
TOC of the extracted CD
Track | Start | Length | Start sector | End sector
---------------------------------------------------------
1 | 0:00.00 | 4:34.73 | 0 | 20622
2 | 4:34.73 | 3:52.52 | 20623 | 38074
3 | 8:27.50 | 4:06.45 | 38075 | 56569
4 | 12:34.20 | 4:45.47 | 56570 | 77991
5 | 17:19.67 | 5:14.10 | 77992 | 101551
6 | 22:34.02 | 4:32.55 | 101552 | 122006
7 | 27:06.57 | 3:23.54 | 122007 | 137285
8 | 30:30.36 | 3:23.71 | 137286 | 152581
9 | 33:54.32 | 4:26.14 | 152582 | 172545
10 | 38:20.46 | 3:12.26 | 172546 | 186971
11 | 41:32.72 | 4:04.71 | 186972 | 205342
12 | 45:37.68 | 2:53.33 | 205343 | 218350
13 | 48:31.26 | 4:58.16 | 218351 | 240716
14 | 53:29.42 | 4:01.34 | 240717 | 258825
15 | 57:31.01 | 4:56.68 | 258826 | 281093
16 | 62:27.69 | 4:24.34 | 281094 | 300927
Track 1
Filename G:\MUSIC\Back-Up Music\Various - 2009 - Pomegranates - Persian Pop, Funk, Folk, and Psych of the 60s & 70s [FLAC]\01 - Helelyos.wav
Pre-gap length 0:00:02.00
Peak level 98.8 %
Track quality 100.0 %
Test CRC 64D9F68E
Copy CRC 64D9F68E
Track not present in AccurateRip database
Copy OK
Track 2
Filename G:\MUSIC\Back-Up Music\Various - 2009 - Pomegranates - Persian Pop, Funk, Folk, and Psych of the 60s & 70s [FLAC]\02 - Biya Bar-e Safar Bandim.wav
Peak level 98.8 %
Track quality 100.0 %
Test CRC 5F4AFD7A
Copy CRC 5F4AFD7A
Track not present in AccurateRip database
Copy OK
Track 3
Filename G:\MUSIC\Back-Up Music\Various - 2009 - Pomegranates - Persian Pop, Funk, Folk, and Psych of the 60s & 70s [FLAC]\03 - Soul Raga.wav
Pre-gap length 0:00:00.21
Peak level 78.5 %
Track quality 100.0 %
Test CRC FCF997CD
Copy CRC FCF997CD
Track not present in AccurateRip database
Copy OK
Track 4
Filename G:\MUSIC\Back-Up Music\Various - 2009 - Pomegranates - Persian Pop, Funk, Folk, and Psych of the 60s & 70s [FLAC]\04 - Talagh.wav
Pre-gap length 0:00:00.85
Peak level 98.8 %
Track quality 100.0 %
Test CRC EDEB6124
Copy CRC EDEB6124
Track not present in AccurateRip database
Copy OK
Track 5
Filename G:\MUSIC\Back-Up Music\Various - 2009 - Pomegranates - Persian Pop, Funk, Folk, and Psych of the 60s & 70s [FLAC]\05 - Gol-e Yakh.wav
Pre-gap length 0:00:00.45
Peak level 98.8 %
Track quality 99.9 %
Test CRC CD34139A
Copy CRC CD34139A
Track not present in AccurateRip database
Copy OK
Track 6
Filename G:\MUSIC\Back-Up Music\Various - 2009 - Pomegranates - Persian Pop, Funk, Folk, and Psych of the 60s & 70s [FLAC]\06 - Mosem-e Gol.wav
Peak level 98.8 %
Track quality 100.0 %
Test CRC E754F84E
Copy CRC E754F84E
Track not present in AccurateRip database
Copy OK
Track 7
Filename G:\MUSIC\Back-Up Music\Various - 2009 - Pomegranates - Persian Pop, Funk, Folk, and Psych of the 60s & 70s [FLAC]\07 - Gol-e Aftab Gardoon.wav
Peak level 85.4 %
Track quality 100.0 %
Test CRC 440078A2
Copy CRC 440078A2
Track not present in AccurateRip database
Copy OK
Track 8
Filename G:\MUSIC\Back-Up Music\Various - 2009 - Pomegranates - Persian Pop, Funk, Folk, and Psych of the 60s & 70s [FLAC]\08 - Miravi.wav
Peak level 100.0 %
Track quality 100.0 %
Test CRC 3D63ED81
Copy CRC 3D63ED81
Track not present in AccurateRip database
Copy OK
Track 9
Filename G:\MUSIC\Back-Up Music\Various - 2009 - Pomegranates - Persian Pop, Funk, Folk, and Psych of the 60s & 70s [FLAC]\09 - Kavir-e Del.wav
Pre-gap length 0:00:02.00
Peak level 99.9 %
Track quality 100.0 %
Test CRC FB1474DC
Copy CRC FB1474DC
Track not present in AccurateRip database
Copy OK
Track 10
Filename G:\MUSIC\Back-Up Music\Various - 2009 - Pomegranates - Persian Pop, Funk, Folk, and Psych of the 60s & 70s [FLAC]\10 - Naz Kardanet Vaveyla.wav
Peak level 88.1 %
Track quality 100.0 %
Test CRC D1A2511A
Copy CRC D1A2511A
Track not present in AccurateRip database
Copy OK
Track 11
Filename G:\MUSIC\Back-Up Music\Various - 2009 - Pomegranates - Persian Pop, Funk, Folk, and Psych of the 60s & 70s [FLAC]\11 - Negar.wav
Pre-gap length 0:00:00.14
Peak level 99.9 %
Track quality 100.0 %
Test CRC 07820D83
Copy CRC 07820D83
Track not present in AccurateRip database
Copy OK
Track 12
Filename G:\MUSIC\Back-Up Music\Various - 2009 - Pomegranates - Persian Pop, Funk, Folk, and Psych of the 60s & 70s [FLAC]\12 - Bemoun Ta Bemounam.wav
Pre-gap length 0:00:00.18
Peak level 95.4 %
Track quality 100.0 %
Test CRC E94B0B0C
Copy CRC E94B0B0C
Track not present in AccurateRip database
Copy OK
Track 13
Filename G:\MUSIC\Back-Up Music\Various - 2009 - Pomegranates - Persian Pop, Funk, Folk, and Psych of the 60s & 70s [FLAC]\13 - Kofriam.wav
Pre-gap length 0:00:00.41
Peak level 78.5 %
Track quality 99.9 %
Test CRC C8ECA53D
Copy CRC C8ECA53D
Track not present in AccurateRip database
Copy OK
Track 14
Filename G:\MUSIC\Back-Up Music\Various - 2009 - Pomegranates - Persian Pop, Funk, Folk, and Psych of the 60s & 70s [FLAC]\14 - Sharm-e Boos-e.wav
Peak level 98.8 %
Track quality 100.0 %
Test CRC 37EEAE0D
Copy CRC 37EEAE0D
Track not present in AccurateRip database
Copy OK
Track 15
Filename G:\MUSIC\Back-Up Music\Various - 2009 - Pomegranates - Persian Pop, Funk, Folk, and Psych of the 60s & 70s [FLAC]\15 - Cheshm-e Man.wav
Pre-gap length 0:00:00.66
Peak level 98.8 %
Track quality 100.0 %
Test CRC 3419216E
Copy CRC 3419216E
Track not present in AccurateRip database
Copy OK
Track 16
Filename G:\MUSIC\Back-Up Music\Various - 2009 - Pomegranates - Persian Pop, Funk, Folk, and Psych of the 60s & 70s [FLAC]\16 - Gol Bi Goldoon.wav
Pre-gap length 0:00:01.81
Peak level 79.4 %
Track quality 100.0 %
Test CRC E5FEA20B
Copy CRC E5FEA20B
Track not present in AccurateRip database
Copy OK
None of the tracks are present in the AccurateRip database
No errors occurred
End of status report

Содержание индексной карты (.CUE)

REM GENRE Funk
REM DATE 2009
REM DISCID DB0FAC10
REM COMMENT "ExactAudioCopy v0.99pb4"
PERFORMER "Various"
TITLE "Pomegranates - Persian Pop, Funk, Folk, and Psych of the 60s & 70s"
FILE "01 - Helelyos.wav" WAVE
TRACK 01 AUDIO
TITLE "Helelyos"
PERFORMER "Zia"
INDEX 01 00:00:00
FILE "02 - Biya Bar-e Safar Bandim.wav" WAVE
TRACK 02 AUDIO
TITLE "Biya Bar-e Safar Bandim"
PERFORMER "Mohammad Nouri"
INDEX 01 00:00:00
TRACK 03 AUDIO
TITLE "Soul Raga"
PERFORMER "Mehrpouya"
INDEX 00 03:52:36
FILE "03 - Soul Raga.wav" WAVE
INDEX 01 00:00:00
TRACK 04 AUDIO
TITLE "Talagh"
PERFORMER "Googoosh"
INDEX 00 04:05:56
FILE "04 - Talagh.wav" WAVE
INDEX 01 00:00:00
TRACK 05 AUDIO
TITLE "Gol-e Yakh"
PERFORMER "Kourosh Yaghmaie"
INDEX 00 04:45:13
FILE "05 - Gol-e Yakh.wav" WAVE
INDEX 01 00:00:00
FILE "06 - Mosem-e Gol.wav" WAVE
TRACK 06 AUDIO
TITLE "Mosem-e Gol"
PERFORMER "Parva"
INDEX 01 00:00:00
FILE "07 - Gol-e Aftab Gardoon.wav" WAVE
TRACK 07 AUDIO
TITLE "Gol-e Aftab Gardoon"
PERFORMER "Noosh Afarin"
INDEX 01 00:00:00
FILE "08 - Miravi.wav" WAVE
TRACK 08 AUDIO
TITLE "Miravi"
PERFORMER "Soli"
INDEX 01 00:00:00
TRACK 09 AUDIO
TITLE "Kavir-e Del"
PERFORMER "Marjan"
INDEX 00 03:21:71
FILE "09 - Kavir-e Del.wav" WAVE
INDEX 01 00:00:00
FILE "10 - Naz Kardanet Vaveyla.wav" WAVE
TRACK 10 AUDIO
TITLE "Naz Kardanet Vaveyla"
PERFORMER "Sima Bina"
INDEX 01 00:00:00
TRACK 11 AUDIO
TITLE "Negar"
PERFORMER "Soli"
INDEX 00 03:12:15
FILE "11 - Negar.wav" WAVE
INDEX 01 00:00:00
TRACK 12 AUDIO
TITLE "Bemoun Ta Bemounam"
PERFORMER "Googoosh"
INDEX 00 04:04:57
FILE "12 - Bemoun Ta Bemounam.wav" WAVE
INDEX 01 00:00:00
TRACK 13 AUDIO
TITLE "Kofriam"
PERFORMER "Zia"
INDEX 00 02:53:02
FILE "13 - Kofriam.wav" WAVE
INDEX 01 00:00:00
FILE "14 - Sharm-e Boos-e.wav" WAVE
TRACK 14 AUDIO
TITLE "Sharm-e Boos-e"
PERFORMER "Ramesh"
INDEX 01 00:00:00
TRACK 15 AUDIO
TITLE "Cheshm-e Man"
PERFORMER "Dariush"
INDEX 00 04:00:59
FILE "15 - Cheshm-e Man.wav" WAVE
INDEX 01 00:00:00
TRACK 16 AUDIO
TITLE "Gol Bi Goldoon"
PERFORMER "Googoosh"
INDEX 00 04:55:07
FILE "16 - Gol Bi Goldoon.wav" WAVE
INDEX 01 00:00:00

Об альбоме (сборнике)

Description from the reissue label
It’s no accident that the phoenix is an exalted moral, mythical, and figurative symbol in Iran. Like the phoenix, Iranian culture is in constant flux and, at times, elusive, with its existential wavering and blurred panoramas. Most of contemporary Iran’s artistic and creative leanings, its grapples with history and identity, are loosely and mystically conjoined and contested in memory. Iran is marked by the complex interplay of diverse constituencies, philosophies, and influences: ethnic, religious, political, geopolitical and historical. The glorification of pre-Islamic antiquity (in search of authentication) marked the socio-cultural attitude of a bygone era and is witnessing revival in the present day. The discordant reality of eastern traditions complicated by the rampant confusions of modernity has become a norm in Persian dialogue, not to mention revolution, exile, and diaspora. Like many other countries, the Sixties and Seventies were a time of tumult in Iran, bringing growth (via petrodollars) and freedom (under the banner of socioeconomic development) while exacerbating inequalities within the country. The music and voices that blossomed during those decades exemplify the turbulence and excitement of the age. It is worth recognizing these ‘left out’ and ‘lost’ artists individually and as a group in the global happenings of 60s/70s psych, rock and folk, while exploring their influence and relevance to the present day. Is it possible that there is a genus of delectable sounds and fetching images that almost exclusively reside in the elbowroom of memory and nostalgic ‘yesteryear’ storytelling? Little consideration has been given to the correlation of these sounds and stories within the universal psychedelic phenomena: parallel to the shared stylistics of British and American players, and the radical politicking of their Turkish and Korean counterparts. This collection endeavors to re-contextualize these songs from the realm of reminiscence, nostalgia, and memory into a specific and accessible narrative to share and relate within the universal musical gamut. It is for aficionados, the curious, and collectors alike. We hope that Iranians around the world will rediscover these songs. This collection is, in some sense, dedicated to a generation in self-imposed mental exile, due to years of war and catastrophe; decades of lies and bombs; a fundamentalist theocracy of reformist shams; addiction; isolation and alienation; unemployment, and inflation. These are voices and stories that may again prove relevant to a psychologically damaged and spiritually corrupt society, a society whose discontents recall the latter years of the Shah’s rule. The recordings excavated here are highly sexual musings, voluble love songs, and simple folk tunes. In many of these songs, there are subtle voices of political protest. Here is a personal best, a handful of artists and diversely stylized songs, presented on Finders Keepers.
Review by Thom Jurek
As a label, Finders Keepers has been on a roll. They’ve issued everything from two volumes of Bollywood soundtracks by M. Ashraf/Nahid Akhtar to soundtracks by Bruno Spoerri and Dom Thomas, to compilations of Spanish and Italian psych; they’ve issued consistently fine recordings of rare and nearly unheard of records on CD. Pomegranates is a 16-cut comp of Persian pop, psych, funk, and folk sounds from the 1960s and '70s, recorded and released inside Iran during a period until the Islamic revolution swept the Shah from power in 1979. The tracks collected here run the gamut in styles, but it is important to note that the artists represented were among the most popular in the nation. These include the inimitable Googoosh who, though living in the United States, had commenced her recording career. She is still considered an influence on Iranian women. Her hits “Talagh” and “Bemoun to Bemounam” are both here. The latter, with its fusion of Persan scales and Latin rhythms, is utterly fascinating and irresistible. Ramesh, who was Iran’s first “hippie chick,” as evidenced by her record covers, is represented by her biggest single, “Sharm-e Boos-e,” with its fuzzed-out electric guitars, basslines, and a Hammond B-3 painting rockist atmospheres behind her lyrics. One can hear many influences, from the Jefferson Airplane to the Shocking Blue, in her sound. Two of the most revelatory cuts here come from male vocalists. The first is “Soul Raga” by Mehrpouya (the title track to an album of his own on Finders Keepers). Along with sitars, tambouras, and tablas, one can hear the trance-like funky rhythms of Fela’s Afro-beat and the horn charts of James Brown. The other is the electric folk-cum-cabaret sounds of Kouroush Yaghmale. His track, “Gol-e Yakh,” carries within it vocal influences ranging from Serge Gainsbourg and Jacques Brel to flamenco cantes, yet captured with a plinking upright piano, snaky electric guitars, and a slippery bassline. Virtually every track on this set is worth the investment, and the historical liner notes by Mahssa Taghinia are exhaustive and engaging. Chalk this one up as another winner for Finders Keepers.

To download the file disable ad blocking, and reload the page.

disable adblock How to disable ad blocking?

Download by magnet link 394 MB Download Torrent

Login using:

Similar topics



   
Current time is: 15-Nov 21:32 :: All times are UTC + 3