Classic Rock presents: Monster Mash!
Жанр: Rock, Hard Rock, Indie Rock, Groove Metal
Носитель: CD
Страна-производитель диска: EU
Год издания: 2014
Издатель (лейбл): Classic Rock Magazine / TeamRock
Номер по каталогу: ROC198-07-14
Аудиокодек: FLAC (*.flac)
Тип рипа: tracks+.cue
Битрейт аудио: lossless
Продолжительность: 01:02:09
Источник (релизер): kirjakach
Наличие сканов в содержимом раздачи: да
Треклист:
01. Lionize - Reality Check (3:13)
02. California Breed - The Way (4:06)
03. Magnum - Too Many Clowns (4:38)
04. Circa Zero - Levitation (4:00)
05. Marc Ford - Turquoise Blue (3:51)
06. Sontaag - Spaceshifter (2:49)
07. Afghan Whigs - The Lottery (4:05)
08. Black Label Society - Fields of Unforgiveness (3:13)
09. The People, The Poet - People (5:03)
10. Nazareth - Back2B4 (4:52)
11. Rodrigo y Gabriela - The Soundmaker (4:53)
12. Electric River - The Fixer (4:27)
13. Down - We Knew Him Well (4:06)
14. Pixies - Indy Cindy (4:41)
15. Bigelf - Alien Frequency (4:13)
----------------------------------------------------------------------------
сборник-приложение к 198-ому номеру журнала Classic Rock
----------------------------------------------------------------------------

Лог создания рипа

Exact Audio Copy V1.0 beta 3 from 29. August 2011
EAC extraction logfile from 23. August 2014, 18:24
Various Artists / Monster Mash!
Used drive : ATAPI iHAS120 X Adapter: 3 ID: 0
Read mode : Secure
Utilize accurate stream : Yes
Defeat audio cache : Yes
Make use of C2 pointers : No
Read offset correction : 48
Overread into Lead-In and Lead-Out : No
Fill up missing offset samples with silence : Yes
Delete leading and trailing silent blocks : No
Null samples used in CRC calculations : Yes
Used interface : Native Win32 interface for Win NT & 2000
Gap handling : Appended to previous track
Used output format : User Defined Encoder
Selected bitrate : 128 kBit/s
Quality : High
Add ID3 tag : No
Command line compressor : C:\Program Files (x86)\Exact Audio Copy\Flac\flac.exe
Additional command line options : -8 -V -T "ARTIST=%artist%" -T "TITLE=%title%" -T "ALBUM=%albumtitle%" -T "DATE=%year%" -T "TRACKNUMBER=%tracknr%" -T "TOTALTRACKS=%numtracks%" -T "GENRE=%genre%" -T "ALBUMARTIST=%albumartist%" -T "ALBUM ARTIST=%albumartist%" -T "COMMENT=EAC Secure Mode, Test & Copy, AccurateRip, FLAC -8" %source%
TOC of the extracted CD
Track | Start | Length | Start sector | End sector
---------------------------------------------------------
1 | 0:00.00 | 3:12.40 | 0 | 14439
2 | 3:12.40 | 4:05.42 | 14440 | 32856
3 | 7:18.07 | 4:37.66 | 32857 | 53697
4 | 11:55.73 | 4:00.28 | 53698 | 71725
5 | 15:56.26 | 3:51.26 | 71726 | 89076
6 | 19:47.52 | 2:49.35 | 89077 | 101786
7 | 22:37.12 | 4:05.35 | 101787 | 120196
8 | 26:42.47 | 3:13.11 | 120197 | 134682
9 | 29:55.58 | 5:02.61 | 134683 | 157393
10 | 34:58.44 | 4:51.38 | 157394 | 179256
11 | 39:50.07 | 4:52.38 | 179257 | 201194
12 | 44:42.45 | 4:27.18 | 201195 | 221237
13 | 49:09.63 | 4:06.03 | 221238 | 239690
14 | 53:15.66 | 4:41.04 | 239691 | 260769
15 | 57:56.70 | 4:12.53 | 260770 | 279722
Track 1
Filename D:\Monster Mash!\01 - Lionize - Reality Check.wav
Pre-gap length 0:00:02.00
Peak level 98.8 %
Extraction speed 1.9 X
Track quality 99.9 %
Test CRC 2BEE4D9C
Copy CRC 2BEE4D9C
Accurately ripped (confidence 3) [B6844F06] (AR v2)
Copy OK
Track 2
Filename D:\Monster Mash!\02 - California Breed - The Way.wav
Pre-gap length 0:00:02.00
Peak level 98.8 %
Extraction speed 2.5 X
Track quality 100.0 %
Test CRC B6BF19EC
Copy CRC B6BF19EC
Accurately ripped (confidence 3) [AEB7548F] (AR v2)
Copy OK
Track 3
Filename D:\Monster Mash!\03 - Magnum - Too Many Clowns.wav
Pre-gap length 0:00:02.00
Peak level 98.8 %
Extraction speed 2.6 X
Track quality 99.9 %
Test CRC CB1E7D17
Copy CRC CB1E7D17
Accurately ripped (confidence 3) [422E511B] (AR v2)
Copy OK
Track 4
Filename D:\Monster Mash!\04 - Circa Zero - Levitation.wav
Pre-gap length 0:00:02.00
Peak level 97.7 %
Extraction speed 2.7 X
Track quality 99.9 %
Test CRC 105F84CF
Copy CRC 105F84CF
Accurately ripped (confidence 3) [72774532] (AR v2)
Copy OK
Track 5
Filename D:\Monster Mash!\05 - Marc Ford - Turquoise Blue.wav
Pre-gap length 0:00:02.00
Peak level 98.8 %
Extraction speed 3.2 X
Track quality 100.0 %
Test CRC F7565277
Copy CRC F7565277
Accurately ripped (confidence 3) [ED4FF097] (AR v2)
Copy OK
Track 6
Filename D:\Monster Mash!\06 - Sontaag - Spaceshifter.wav
Pre-gap length 0:00:02.00
Peak level 98.8 %
Extraction speed 3.2 X
Track quality 100.0 %
Test CRC FEF9C71E
Copy CRC FEF9C71E
Accurately ripped (confidence 3) [1346019A] (AR v2)
Copy OK
Track 7
Filename D:\Monster Mash!\07 - Afghan Whigs - The Lottery.wav
Pre-gap length 0:00:02.00
Peak level 97.7 %
Extraction speed 3.6 X
Track quality 100.0 %
Test CRC D5769EBC
Copy CRC D5769EBC
Accurately ripped (confidence 3) [51D51A25] (AR v2)
Copy OK
Track 8
Filename D:\Monster Mash!\08 - Black Label Society - Fields of Unforgiveness.wav
Pre-gap length 0:00:02.00
Peak level 98.8 %
Extraction speed 3.6 X
Track quality 100.0 %
Test CRC 76EF60F3
Copy CRC 76EF60F3
Accurately ripped (confidence 3) [F34A5DB0] (AR v2)
Copy OK
Track 9
Filename D:\Monster Mash!\09 - The People, The Poet - People.wav
Pre-gap length 0:00:02.00
Peak level 98.8 %
Extraction speed 3.9 X
Track quality 100.0 %
Test CRC 8610A4AC
Copy CRC 8610A4AC
Accurately ripped (confidence 3) [F0A3425C] (AR v2)
Copy OK
Track 10
Filename D:\Monster Mash!\10 - Nazareth - Back2B4.wav
Pre-gap length 0:00:02.00
Peak level 98.8 %
Extraction speed 3.8 X
Track quality 99.9 %
Test CRC 219737DE
Copy CRC 219737DE
Accurately ripped (confidence 3) [A14DAD73] (AR v2)
Copy OK
Track 11
Filename D:\Monster Mash!\11 - Rodrigo y Gabriela - The Soundmaker.wav
Pre-gap length 0:00:02.00
Peak level 100.0 %
Extraction speed 3.9 X
Track quality 99.9 %
Test CRC 4F4180B9
Copy CRC 4F4180B9
Accurately ripped (confidence 3) [DBD2AA28] (AR v2)
Copy OK
Track 12
Filename D:\Monster Mash!\12 - Electric River - The Fixer.wav
Pre-gap length 0:00:02.00
Peak level 98.2 %
Extraction speed 4.0 X
Track quality 99.9 %
Test CRC E9EACE13
Copy CRC E9EACE13
Accurately ripped (confidence 3) [A67EEC59] (AR v2)
Copy OK
Track 13
Filename D:\Monster Mash!\13 - Down - We Knew Him Well.wav
Pre-gap length 0:00:02.00
Peak level 98.8 %
Extraction speed 4.1 X
Track quality 99.9 %
Test CRC D264851D
Copy CRC D264851D
Accurately ripped (confidence 3) [F3E9BFDA] (AR v2)
Copy OK
Track 14
Filename D:\Monster Mash!\14 - Pixies - Indy Cindy.wav
Pre-gap length 0:00:02.00
Peak level 98.8 %
Extraction speed 4.8 X
Track quality 100.0 %
Test CRC 3991B918
Copy CRC 3991B918
Accurately ripped (confidence 3) [1A0B45CD] (AR v2)
Copy OK
Track 15
Filename D:\Monster Mash!\15 - Bigelf - Alien Frequency.wav
Pre-gap length 0:00:02.00
Peak level 98.8 %
Extraction speed 4.8 X
Track quality 100.0 %
Test CRC 0B62CDD3
Copy CRC 0B62CDD3
Accurately ripped (confidence 3) [ACA53A93] (AR v2)
Copy OK
All tracks accurately ripped
No errors occurred
End of status report
==== Log checksum 39DFC9A6ECCF6625E5547CC5B049562745138C45FCB38888A60D5592AB8B7A39 ====

Содержание индексной карты (.CUE)

REM GENRE Rock
REM DATE 2014
REM DISCID E70E910F
REM COMMENT "ExactAudioCopy v1.0b3"
PERFORMER "Various Artists"
TITLE "Monster Mash!"
FILE "01 - Lionize - Reality Check.wav" WAVE
TRACK 01 AUDIO
TITLE "Reality Check"
PERFORMER "Lionize"
INDEX 01 00:00:00
TRACK 02 AUDIO
TITLE "The Way"
PERFORMER "California Breed"
INDEX 00 03:10:40
FILE "02 - California Breed - The Way.wav" WAVE
INDEX 01 00:00:00
TRACK 03 AUDIO
TITLE "Too Many Clowns"
PERFORMER "Magnum"
INDEX 00 04:03:42
FILE "03 - Magnum - Too Many Clowns.wav" WAVE
INDEX 01 00:00:00
TRACK 04 AUDIO
TITLE "Levitation"
PERFORMER "Circa Zero"
INDEX 00 04:35:66
FILE "04 - Circa Zero - Levitation.wav" WAVE
INDEX 01 00:00:00
TRACK 05 AUDIO
TITLE "Turquoise Blue"
PERFORMER "Marc Ford"
INDEX 00 03:58:28
FILE "05 - Marc Ford - Turquoise Blue.wav" WAVE
INDEX 01 00:00:00
TRACK 06 AUDIO
TITLE "Spaceshifter"
PERFORMER "Sontaag"
INDEX 00 03:49:26
FILE "06 - Sontaag - Spaceshifter.wav" WAVE
INDEX 01 00:00:00
TRACK 07 AUDIO
TITLE "The Lottery"
PERFORMER "Afghan Whigs"
INDEX 00 02:47:35
FILE "07 - Afghan Whigs - The Lottery.wav" WAVE
INDEX 01 00:00:00
TRACK 08 AUDIO
TITLE "Fields of Unforgiveness"
PERFORMER "Black Label Society"
INDEX 00 04:03:35
FILE "08 - Black Label Society - Fields of Unforgiveness.wav" WAVE
INDEX 01 00:00:00
TRACK 09 AUDIO
TITLE "People"
PERFORMER "The People, The Poet"
INDEX 00 03:11:11
FILE "09 - The People, The Poet - People.wav" WAVE
INDEX 01 00:00:00
TRACK 10 AUDIO
TITLE "Back2B4"
PERFORMER "Nazareth"
INDEX 00 05:00:61
FILE "10 - Nazareth - Back2B4.wav" WAVE
INDEX 01 00:00:00
TRACK 11 AUDIO
TITLE "The Soundmaker"
PERFORMER "Rodrigo y Gabriela"
INDEX 00 04:49:38
FILE "11 - Rodrigo y Gabriela - The Soundmaker.wav" WAVE
INDEX 01 00:00:00
TRACK 12 AUDIO
TITLE "The Fixer"
PERFORMER "Electric River"
INDEX 00 04:50:38
FILE "12 - Electric River - The Fixer.wav" WAVE
INDEX 01 00:00:00
TRACK 13 AUDIO
TITLE "We Knew Him Well"
PERFORMER "Down"
INDEX 00 04:25:18
FILE "13 - Down - We Knew Him Well.wav" WAVE
INDEX 01 00:00:00
TRACK 14 AUDIO
TITLE "Indy Cindy"
PERFORMER "Pixies"
INDEX 00 04:04:03
FILE "14 - Pixies - Indy Cindy.wav" WAVE
INDEX 01 00:00:00
TRACK 15 AUDIO
TITLE "Alien Frequency"
PERFORMER "Bigelf"
INDEX 00 04:39:04
FILE "15 - Bigelf - Alien Frequency.wav" WAVE
INDEX 01 00:00:00

To download the file disable ad blocking, and reload the page.

disable adblock How to disable ad blocking?

Download by magnet link 477 MB Download Torrent

Login using:

Similar topics

(Indie-Rock/Folk) Ben Howard - Noonday Dream - 2018, MP3, 320 kbps
 116 MB   0 | 0   03-Jun-18 08:20   0


   
Current time is: 20-Sep 00:39 :: All times are UTC ± 0