- Various Artists -- Nostalgi Tou Rock 'N' Roll (1960-1970-1980) (3CD) - --Жанр: Greek Rock, Rock'n'Roll
Носитель: CD
Страна-производитель диска: Greece
Год издания диска: 2009
Издатель (лейбл): LYRA
Страна: Greece
Аудиокодек: FLAC (*.flac)
Тип рипа: tracks+.cue
Битрейт аудио: lossless
Продолжительность: 03:12:42
Источник (релизер): alekow
Наличие сканов в содержимом раздачи: да-Greek rock (Greek: Ελληνικό ροκ) originated in the early 1960s with the creation of several anglophone pop-rock bands such as The Forminx (which included composer Vangelis), The Idols and The Olympians. The late sixties saw the formation of Aphrodite's Child, one of the most important and successful Greek rock bands: with their album It's Five O'Clock (1969) they achieved worldwide fame. Another aspect of Greek rock in the late 1960s saw the release of the first albums of Dionysis Savvopoulos, who combined Greek folk-music with rock elements.
Greek rock first peaked in the early seventies, while Greece was still ruled by a military dictatorship. Bands included Socrates Drank The Conium (anglophone progressive rock), Nostradamos, Exadahtylos (political/satirical lyrics), Pelóma Bokioú (Santana-like Latin rock with Greek lyrics), Poll (folk with vocal harmonies, Greek lyrics).
-Треклист:

CD 1 (01:09:32) 01. Γιάννης Γιοκαρίνης - Νοσταλγός Του Rock 'N' Roll [03:53]
02. Παύλος Σιδηρόπουλος - Να Μ' Αγαπάς [04:03]
03. Βαγγέλης Γερμανός - Κρουαζιέρα [03:33]
04. Νάμα - Οδυσσέας [02:56]
05. Αντώνης Τουρκογιώργης - Στέλλα Σ' Αγαπάω... Τάκης [03:40]
06. Βασίλης Παπακωνσταντίνου - Γιουσουρούμ [06:42]
07. Βασίλης Καζούλης - Κάτι Να Γυαλίζει [05:52]
08. Τζίμης Πανούσης - Κάγκελα Παντού (Live) [03:44]
09. Magic De Spell - Τέρμα Το Διάλειμμα (Η Μπαμπέσα) [03:05]
10. Πελόμα Μποκιού - Γαρύφαλλε-Γαρύφαλλε [03:40]
11. Θανάσης Γκαιφύλιας - Ωτοστόπ [02:24]
12. Εξαδάκτυλος - Έχουν Κακούς Σκοπούς [03:56]
13. Ριφιφί - Αμετανόητα Τρελός [04:56]
14. 2002 GR - Μαγική Αυλή [04:32]
15. Νοστράδαμος - Τα Παραμύθια Της Γιαγιάς [03:13]
16. Γιώργος Ρωμανός - Το Ρολόι [01:54]
17. Μαρίνα - Να 'μουν Αιτός [02:44]
18. The Forminx - Until The End [02:26]
19. The Lubogg - She Is Cool [02:19]

Лог создания рипа

Exact Audio Copy V0.99 prebeta 5 from 4. May 2009
EAC extraction logfile from 14. July 2010, 12:51
Various Artists / Νοσταλγοί Του Rock N' Roll (CD1)
Used drive : HL-DT-STDVD-RAM GH22NP20 Adapter: 1 ID: 1
Read mode : Secure
Utilize accurate stream : Yes
Defeat audio cache : Yes
Make use of C2 pointers : No
Read offset correction : 102
Overread into Lead-In and Lead-Out : No
Fill up missing offset samples with silence : Yes
Delete leading and trailing silent blocks : No
Null samples used in CRC calculations : Yes
Used interface : Installed external ASPI interface
Gap handling : Appended to previous track
Used output format : User Defined Encoder
Selected bitrate : 1024 kBit/s
Quality : High
Add ID3 tag : No
Command line compressor : C:\Program Files\Exact Audio Copy\FLAC\FLAC.EXE
Additional command line options : -5 -V -T "ARTIST=%a" -T "TITLE=%t" -T "ALBUM=%g" -T "DATE=%y" -T "TRACKNUMBER=%n" -T "GENRE=%m" -T "COMMENT=%e" %s -o %d
Use compression offset : 48
TOC of the extracted CD
Track | Start | Length | Start sector | End sector
---------------------------------------------------------
1 | 0:00.00 | 3:52.69 | 0 | 17468
2 | 3:52.69 | 4:02.32 | 17469 | 35650
3 | 7:55.26 | 3:32.67 | 35651 | 51617
4 | 11:28.18 | 2:55.31 | 51618 | 64773
5 | 14:23.49 | 3:39.64 | 64774 | 81262
6 | 18:03.38 | 6:42.23 | 81263 | 111435
7 | 24:45.61 | 5:51.45 | 111436 | 137805
8 | 30:37.31 | 3:43.69 | 137806 | 154599
9 | 34:21.25 | 3:05.05 | 154600 | 168479
10 | 37:26.30 | 3:40.28 | 168480 | 185007
11 | 41:06.58 | 2:24.19 | 185008 | 195826
12 | 43:31.02 | 3:55.47 | 195827 | 213498
13 | 47:26.49 | 4:56.20 | 213499 | 235718
14 | 52:22.69 | 4:31.55 | 235719 | 256098
15 | 56:54.49 | 3:12.57 | 256099 | 270555
16 | 60:07.31 | 1:54.15 | 270556 | 279120
17 | 62:01.46 | 2:43.39 | 279121 | 291384
18 | 64:45.10 | 2:26.14 | 291385 | 302348
19 | 67:11.24 | 2:18.38 | 302349 | 312736
Track 1
Filename C:\New Folder\01. Γιάννης Γιοκαρίνης - Νοσταλγός Του Rock 'N' Roll.wav
Pre-gap length 0:00:02.00
Peak level 95.5 %
Track quality 100.0 %
Copy CRC 73368D4B
Accurately ripped (confidence 4) [9E2DFA93]
Copy OK
Track 2
Filename C:\New Folder\02. Παύλος Σιδηρόπουλος - Να Μ' Αγαπάς.wav
Pre-gap length 0:00:02.00
Peak level 97.7 %
Track quality 99.9 %
Copy CRC F656F35D
Accurately ripped (confidence 4) [EFBCB971]
Copy OK
Track 3
Filename C:\New Folder\03. Βαγγέλης Γερμανός - Κρουαζιέρα.wav
Pre-gap length 0:00:02.00
Peak level 97.7 %
Track quality 100.0 %
Copy CRC F61F6CF0
Accurately ripped (confidence 4) [096DB26F]
Copy OK
Track 4
Filename C:\New Folder\04. Νάμα - Οδυσσέας.wav
Pre-gap length 0:00:02.00
Peak level 97.7 %
Track quality 100.0 %
Copy CRC 90A4A556
Accurately ripped (confidence 4) [8B8CB430]
Copy OK
Track 5
Filename C:\New Folder\05. Αντώνης Τουρκογιώργης - Στέλλα Σ' Αγαπάω... Τάκης.wav
Pre-gap length 0:00:02.00
Peak level 92.2 %
Track quality 100.0 %
Copy CRC C5E00407
Accurately ripped (confidence 4) [7F4B0F68]
Copy OK
Track 6
Filename C:\New Folder\06. Βασίλης Παπακωνσταντίνου - Γιουσουρούμ.wav
Pre-gap length 0:00:02.00
Peak level 97.7 %
Track quality 100.0 %
Copy CRC 5D0D6958
Accurately ripped (confidence 4) [8A2308F4]
Copy OK
Track 7
Filename C:\New Folder\07. Βασίλης Καζούλης - Κάτι Να Γυαλίζει.wav
Pre-gap length 0:00:02.00
Peak level 97.7 %
Track quality 100.0 %
Copy CRC 1AD987A2
Accurately ripped (confidence 4) [D5B879AA]
Copy OK
Track 8
Filename C:\New Folder\08. Τζίμης Πανούσης - Κάγκελα Παντού (Live).wav
Pre-gap length 0:00:02.00
Peak level 97.9 %
Track quality 100.0 %
Copy CRC 8F30AAF2
Accurately ripped (confidence 4) [245BC1D7]
Copy OK
Track 9
Filename C:\New Folder\09. Magic De Spell - Τέρμα Το Διάλειμμα (Η Μπαμπέσα).wav
Pre-gap length 0:00:02.00
Peak level 97.7 %
Track quality 100.0 %
Copy CRC 5480EC9C
Accurately ripped (confidence 4) [B0605B29]
Copy OK
Track 10
Filename C:\New Folder\10. Πελόμα Μποκιού - Γαρύφαλλε-Γαρύφαλλε.wav
Pre-gap length 0:00:02.00
Peak level 97.7 %
Track quality 100.0 %
Copy CRC 80A8E1DF
Accurately ripped (confidence 4) [3008F3EC]
Copy OK
Track 11
Filename C:\New Folder\11. Θανάσης Γκαιφύλιας - Ωτοστόπ.wav
Pre-gap length 0:00:02.00
Peak level 97.7 %
Track quality 100.0 %
Copy CRC 625D06A3
Accurately ripped (confidence 4) [63831C18]
Copy OK
Track 12
Filename C:\New Folder\12. Εξαδάκτυλος - Έχουν Κακούς Σκοπούς.wav
Pre-gap length 0:00:02.00
Peak level 97.7 %
Track quality 100.0 %
Copy CRC 40E5DC8D
Accurately ripped (confidence 3) [C5A4AF26]
Copy OK
Track 13
Filename C:\New Folder\13. Ριφιφί - Αμετανόητα Τρελός.wav
Pre-gap length 0:00:02.00
Peak level 97.7 %
Track quality 100.0 %
Copy CRC E44F04A1
Accurately ripped (confidence 3) [F481D3B9]
Copy OK
Track 14
Filename C:\New Folder\14. 2002 GR - Μαγική Αυλή.wav
Pre-gap length 0:00:02.00
Peak level 97.7 %
Track quality 100.0 %
Copy CRC 3F3BC2B9
Accurately ripped (confidence 3) [B95001C5]
Copy OK
Track 15
Filename C:\New Folder\15. Νοστράδαμος - Τα Παραμύθια Της Γιαγιάς.wav
Pre-gap length 0:00:02.00
Peak level 97.7 %
Track quality 100.0 %
Copy CRC 39E0CCB9
Accurately ripped (confidence 3) [20EBD9CC]
Copy OK
Track 16
Filename C:\New Folder\16. Γιώργος Ρωμανός - Το Ρολόι.wav
Pre-gap length 0:00:02.00
Peak level 97.7 %
Track quality 99.9 %
Copy CRC 8D2DF3A7
Accurately ripped (confidence 4) [2DE20C10]
Copy OK
Track 17
Filename C:\New Folder\17. Μαρίνα - Να 'μουν Αιτός.wav
Pre-gap length 0:00:02.00
Peak level 97.7 %
Track quality 100.0 %
Copy CRC BB5280B8
Accurately ripped (confidence 3) [7AEC92B2]
Copy OK
Track 18
Filename C:\New Folder\18. The Forminx - Until The End.wav
Pre-gap length 0:00:02.00
Peak level 97.7 %
Track quality 100.0 %
Copy CRC 1D1FD499
Accurately ripped (confidence 3) [4CC03E51]
Copy OK
Track 19
Filename C:\New Folder\19. The Lubogg - She Is Cool.wav
Pre-gap length 0:00:02.00
Peak level 98.8 %
Track quality 99.9 %
Copy CRC BC3921EB
Accurately ripped (confidence 3) [670D8E4D]
Copy OK
All tracks accurately ripped
No errors occurred
End of status report

Содержание индексной карты (.CUE)

REM GENRE Rock
REM DATE 2009
REM DISCID 27104913
REM COMMENT "ExactAudioCopy v0.99pb5"
PERFORMER "Various Artists"
TITLE "Νοσταλγοί Του Rock N' Roll (CD1)"
FILE "01. Γιάννης Γιοκαρίνης - Νοσταλγός Του Rock 'N' Roll.wav" WAVE
TRACK 01 AUDIO
TITLE "Νοσταλγός Του Rock 'N' Roll"
PERFORMER "Γιάννης Γιοκαρίνης"
INDEX 01 00:00:00
TRACK 02 AUDIO
TITLE "Να Μ' Αγαπάς"
PERFORMER "Παύλος Σιδηρόπουλος"
INDEX 00 03:50:69
FILE "02. Παύλος Σιδηρόπουλος - Να Μ' Αγαπάς.wav" WAVE
INDEX 01 00:00:00
TRACK 03 AUDIO
TITLE "Κρουαζιέρα"
PERFORMER "Βαγγέλης Γερμανός"
INDEX 00 04:00:32
FILE "03. Βαγγέλης Γερμανός - Κρουαζιέρα.wav" WAVE
INDEX 01 00:00:00
TRACK 04 AUDIO
TITLE "Οδυσσέας"
PERFORMER "Νάμα"
INDEX 00 03:30:67
FILE "04. Νάμα - Οδυσσέας.wav" WAVE
INDEX 01 00:00:00
TRACK 05 AUDIO
TITLE "Στέλλα Σ' Αγαπάω... Τάκης"
PERFORMER "Αντώνης Τουρκογιώργης"
INDEX 00 02:53:31
FILE "05. Αντώνης Τουρκογιώργης - Στέλλα Σ' Αγαπάω... Τάκης.wav" WAVE
INDEX 01 00:00:00
TRACK 06 AUDIO
TITLE "Γιουσουρούμ"
PERFORMER "Βασίλης Παπακωνσταντίνου"
INDEX 00 03:37:64
FILE "06. Βασίλης Παπακωνσταντίνου - Γιουσουρούμ.wav" WAVE
INDEX 01 00:00:00
TRACK 07 AUDIO
TITLE "Κάτι Να Γυαλίζει"
PERFORMER "Βασίλης Καζούλης"
INDEX 00 06:40:23
FILE "07. Βασίλης Καζούλης - Κάτι Να Γυαλίζει.wav" WAVE
INDEX 01 00:00:00
TRACK 08 AUDIO
TITLE "Κάγκελα Παντού (Live)"
PERFORMER "Τζίμης Πανούσης"
INDEX 00 05:49:45
FILE "08. Τζίμης Πανούσης - Κάγκελα Παντού (Live).wav" WAVE
INDEX 01 00:00:00
TRACK 09 AUDIO
TITLE "Τέρμα Το Διάλειμμα (Η Μπαμπέσα)"
PERFORMER "Magic De Spell"
INDEX 00 03:41:69
FILE "09. Magic De Spell - Τέρμα Το Διάλειμμα (Η Μπαμπέσα).wav" WAVE
INDEX 01 00:00:00
TRACK 10 AUDIO
TITLE "Γαρύφαλλε-Γαρύφαλλε"
PERFORMER "Πελόμα Μποκιού"
INDEX 00 03:03:05
FILE "10. Πελόμα Μποκιού - Γαρύφαλλε-Γαρύφαλλε.wav" WAVE
INDEX 01 00:00:00
TRACK 11 AUDIO
TITLE "Ωτοστόπ"
PERFORMER "Θανάσης Γκαιφύλιας"
INDEX 00 03:38:28
FILE "11. Θανάσης Γκαιφύλιας - Ωτοστόπ.wav" WAVE
INDEX 01 00:00:00
TRACK 12 AUDIO
TITLE "Έχουν Κακούς Σκοπούς"
PERFORMER "Εξαδάκτυλος"
INDEX 00 02:22:19
FILE "12. Εξαδάκτυλος - Έχουν Κακούς Σκοπούς.wav" WAVE
INDEX 01 00:00:00
TRACK 13 AUDIO
TITLE "Αμετανόητα Τρελός"
PERFORMER "Ριφιφί"
INDEX 00 03:53:47
FILE "13. Ριφιφί - Αμετανόητα Τρελός.wav" WAVE
INDEX 01 00:00:00
TRACK 14 AUDIO
TITLE "Μαγική Αυλή"
PERFORMER "2002 GR"
INDEX 00 04:54:20
FILE "14. 2002 GR - Μαγική Αυλή.wav" WAVE
INDEX 01 00:00:00
TRACK 15 AUDIO
TITLE "Τα Παραμύθια Της Γιαγιάς"
PERFORMER "Νοστράδαμος"
INDEX 00 04:29:55
FILE "15. Νοστράδαμος - Τα Παραμύθια Της Γιαγιάς.wav" WAVE
INDEX 01 00:00:00
TRACK 16 AUDIO
TITLE "Το Ρολόι"
PERFORMER "Γιώργος Ρωμανός"
INDEX 00 03:10:57
FILE "16. Γιώργος Ρωμανός - Το Ρολόι.wav" WAVE
INDEX 01 00:00:00
TRACK 17 AUDIO
TITLE "Να 'μουν Αιτός"
PERFORMER "Μαρίνα"
INDEX 00 01:52:15
FILE "17. Μαρίνα - Να 'μουν Αιτός.wav" WAVE
INDEX 01 00:00:00
TRACK 18 AUDIO
TITLE "Until The End"
PERFORMER "The Forminx"
INDEX 00 02:41:39
FILE "18. The Forminx - Until The End.wav" WAVE
INDEX 01 00:00:00
TRACK 19 AUDIO
TITLE "She Is Cool"
PERFORMER "The Lubogg"
INDEX 00 02:24:14
FILE "19. The Lubogg - She Is Cool.wav" WAVE
INDEX 01 00:00:00
CD 2 (01:03:58) 01. Νοστράδαμος - Δωσ' Μου Το Χέρι Σου [02:52]
02. Γιάννης Γιοκαρίνης - Κιθαρίστας Ή Ντράμερ [03:31]
03. Βασίλης Καζούλης - Αν Ήσουν Άγγελος (Live) [03:18]
04. Νικόλας Άσιμος - Ο Μηχανισμός [03:05]
05. Τζίμης Πανούσης - Δουλειές Του Κεφαλιού [04:36]
06. Παύλος Σιδηρόπουλος - Μου 'πες Θα Φύγω [04:12]
07. Βαγγέλης Γερμανός - Ο Κηπουρός [02:09]
08. Νάμα - Μου Ζητάς Να Μείνω [03:23]
09. Magic De Spell - Η Μπαταρία [04:33]
10. Εξαδάκτυλος - Ο Ανεπρόκοπος (Live) [05:21]
11. Γιαννης Κιουρτσόγλου - Η Κυρία Η Μαμά Σου [02:21]
12. Τά Ανάκαρα - Που Πας Αφέντη Μέρμηγκα [02:30]
13. Δέσποινα Γλέζου - Αποσμητικά (Live) [03:37]
14. Ριφιφί - Φίλα Με [04:20]
15. 2002 GR - Άννα [03:09]
16. Γιώργος Ρωμανός - Η Αγάπη Μας Κοιμάται Στα Νερά [02:27]
17. Μαρίνα - Ο Κούκλος [02:22]
18. The Forminx - Love Without Love [02:58]
19. The Teenagers - You Don't Love Me [03:14]

Лог создания рипа

Exact Audio Copy V0.99 prebeta 5 from 4. May 2009
EAC extraction logfile from 14. July 2010, 13:56
Various Artists / Νοσταλγοί Του Rock N' Roll (CD2)
Used drive : HL-DT-STDVD-RAM GH22NP20 Adapter: 1 ID: 1
Read mode : Secure
Utilize accurate stream : Yes
Defeat audio cache : Yes
Make use of C2 pointers : No
Read offset correction : 102
Overread into Lead-In and Lead-Out : No
Fill up missing offset samples with silence : Yes
Delete leading and trailing silent blocks : No
Null samples used in CRC calculations : Yes
Used interface : Installed external ASPI interface
Gap handling : Appended to previous track
Used output format : User Defined Encoder
Selected bitrate : 1024 kBit/s
Quality : High
Add ID3 tag : No
Command line compressor : C:\Program Files\Exact Audio Copy\FLAC\FLAC.EXE
Additional command line options : -5 -V -T "ARTIST=%a" -T "TITLE=%t" -T "ALBUM=%g" -T "DATE=%y" -T "TRACKNUMBER=%n" -T "GENRE=%m" -T "COMMENT=%e" %s -o %d
Use compression offset : 48
TOC of the extracted CD
Track | Start | Length | Start sector | End sector
---------------------------------------------------------
1 | 0:00.00 | 2:51.39 | 0 | 12863
2 | 2:51.39 | 3:31.27 | 12864 | 28715
3 | 6:22.66 | 3:18.20 | 28716 | 43585
4 | 9:41.11 | 3:05.27 | 43586 | 57487
5 | 12:46.38 | 4:35.72 | 57488 | 78184
6 | 17:22.35 | 4:12.24 | 78185 | 97108
7 | 21:34.59 | 2:09.24 | 97109 | 106807
8 | 23:44.08 | 3:22.33 | 106808 | 121990
9 | 27:06.41 | 4:32.39 | 121991 | 142429
10 | 31:39.05 | 5:21.03 | 142430 | 166507
11 | 37:00.08 | 2:21.07 | 166508 | 177089
12 | 39:21.15 | 2:30.28 | 177090 | 188367
13 | 41:51.43 | 3:36.42 | 188368 | 204609
14 | 45:28.10 | 4:20.26 | 204610 | 224135
15 | 49:48.36 | 3:09.01 | 224136 | 238311
16 | 52:57.37 | 2:26.74 | 238312 | 249335
17 | 55:24.36 | 2:21.37 | 249336 | 259947
18 | 57:45.73 | 2:58.20 | 259948 | 273317
19 | 60:44.18 | 3:14.07 | 273318 | 287874
Track 1
Filename C:\New Folder\01. Νοστράδαμος - Δωσ' Μου Το Χέρι Σου.wav
Pre-gap length 0:00:02.00
Peak level 95.5 %
Track quality 100.0 %
Copy CRC 92E66C35
Accurately ripped (confidence 4) [F2C59C8D]
Copy OK
Track 2
Filename C:\New Folder\02. Γιάννης Γιοκαρίνης - Κιθαρίστας Ή Ντράμερ.wav
Pre-gap length 0:00:02.00
Peak level 93.3 %
Track quality 100.0 %
Copy CRC 7F03C3F0
Accurately ripped (confidence 4) [24033338]
Copy OK
Track 3
Filename C:\New Folder\03. Βασίλης Καζούλης - Αν Ήσουν Άγγελος (Live).wav
Pre-gap length 0:00:02.00
Peak level 97.7 %
Track quality 100.0 %
Copy CRC A94F86B0
Accurately ripped (confidence 4) [B2E19613]
Copy OK
Track 4
Filename C:\New Folder\04. Νικόλας Άσιμος - Ο Μηχανισμός.wav
Pre-gap length 0:00:02.00
Peak level 95.5 %
Track quality 100.0 %
Copy CRC 0DF9A4B4
Accurately ripped (confidence 3) [5AC9BCD8]
Copy OK
Track 5
Filename C:\New Folder\05. Τζίμης Πανούσης - Δουλειές Του Κεφαλιού.wav
Pre-gap length 0:00:02.00
Peak level 96.6 %
Track quality 99.9 %
Copy CRC 68D7007D
Accurately ripped (confidence 3) [3FDEB2D5]
Copy OK
Track 6
Filename C:\New Folder\06. Παύλος Σιδηρόπουλος - Μου 'πες Θα Φύγω.wav
Pre-gap length 0:00:02.00
Peak level 97.7 %
Track quality 100.0 %
Copy CRC 319E6A90
Accurately ripped (confidence 4) [CB04AF52]
Copy OK
Track 7
Filename C:\New Folder\07. Βαγγέλης Γερμανός - Ο Κηπουρός.wav
Pre-gap length 0:00:02.00
Peak level 97.7 %
Track quality 100.0 %
Copy CRC 8B72B888
Accurately ripped (confidence 4) [3C5CDEE7]
Copy OK
Track 8
Filename C:\New Folder\08. Νάμα - Μου Ζητάς Να Μείνω.wav
Pre-gap length 0:00:02.00
Peak level 98.8 %
Track quality 100.0 %
Copy CRC 58D9409E
Accurately ripped (confidence 4) [654D9202]
Copy OK
Track 9
Filename C:\New Folder\09. Magic De Spell - Η Μπαταρία.wav
Pre-gap length 0:00:02.00
Peak level 97.7 %
Track quality 100.0 %
Copy CRC 919F6E26
Accurately ripped (confidence 4) [9A7B19EF]
Copy OK
Track 10
Filename C:\New Folder\10. Εξαδάκτυλος - Ο Ανεπρόκοπος (Live).wav
Pre-gap length 0:00:02.00
Peak level 95.5 %
Track quality 100.0 %
Copy CRC 5BFA1A7C
Accurately ripped (confidence 4) [6E7A46FC]
Copy OK
Track 11
Filename C:\New Folder\11. Γιαννης Κιουρτσόγλου - Η Κυρία Η Μαμά Σου.wav
Pre-gap length 0:00:02.00
Peak level 95.5 %
Track quality 99.9 %
Copy CRC 1D99E4C0
Accurately ripped (confidence 4) [191A5EFD]
Copy OK
Track 12
Filename C:\New Folder\12. Τά Ανάκαρα - Που Πας Αφέντη Μέρμηγκα.wav
Pre-gap length 0:00:02.00
Peak level 97.7 %
Track quality 100.0 %
Copy CRC 52EC50CA
Accurately ripped (confidence 4) [9F895D20]
Copy OK
Track 13
Filename C:\New Folder\13. Δέσποινα Γλέζου - Αποσμητικά (Live).wav
Pre-gap length 0:00:02.00
Peak level 97.7 %
Track quality 100.0 %
Copy CRC 94E321BB
Accurately ripped (confidence 4) [1AC81211]
Copy OK
Track 14
Filename C:\New Folder\14. Ριφιφί - Φίλα Με.wav
Pre-gap length 0:00:02.00
Peak level 95.5 %
Track quality 99.9 %
Copy CRC 02A40B78
Accurately ripped (confidence 4) [FF2A767F]
Copy OK
Track 15
Filename C:\New Folder\15. 2002 GR - Άννα.wav
Pre-gap length 0:00:02.00
Peak level 96.6 %
Track quality 100.0 %
Copy CRC 2AB245A4
Accurately ripped (confidence 4) [22E63E95]
Copy OK
Track 16
Filename C:\New Folder\16. Γιώργος Ρωμανός - Η Αγάπη Μας Κοιμάται Στα Νερά.wav
Pre-gap length 0:00:02.00
Peak level 97.7 %
Track quality 100.0 %
Copy CRC FE5EA94C
Accurately ripped (confidence 4) [8647AE59]
Copy OK
Track 17
Filename C:\New Folder\17. Μαρίνα - Ο Κούκλος.wav
Pre-gap length 0:00:02.00
Peak level 97.7 %
Track quality 100.0 %
Copy CRC 9E2502EE
Accurately ripped (confidence 4) [E4382AEE]
Copy OK
Track 18
Filename C:\New Folder\18. The Forminx - Love Without Love.wav
Pre-gap length 0:00:02.00
Peak level 97.7 %
Track quality 100.0 %
Copy CRC CA70D550
Accurately ripped (confidence 3) [6394F9F6]
Copy OK
Track 19
Filename C:\New Folder\19. The Teenagers - You Don't Love Me.wav
Pre-gap length 0:00:02.00
Peak level 97.7 %
Track quality 100.0 %
Copy CRC 9BFA13C9
Accurately ripped (confidence 3) [392C5519]
Copy OK
All tracks accurately ripped
No errors occurred
End of status report

Содержание индексной карты (.CUE)

REM GENRE Rock
REM DATE 2009
REM DISCID 100EFE13
REM COMMENT "ExactAudioCopy v0.99pb5"
PERFORMER "Various Artists"
TITLE "Νοσταλγοί Του Rock N' Roll (CD2)"
FILE "01. Νοστράδαμος - Δωσ' Μου Το Χέρι Σου.wav" WAVE
TRACK 01 AUDIO
TITLE "Δωσ' Μου Το Χέρι Σου"
PERFORMER "Νοστράδαμος"
INDEX 01 00:00:00
TRACK 02 AUDIO
TITLE "Κιθαρίστας Ή Ντράμερ"
PERFORMER "Γιάννης Γιοκαρίνης"
INDEX 00 02:49:39
FILE "02. Γιάννης Γιοκαρίνης - Κιθαρίστας Ή Ντράμερ.wav" WAVE
INDEX 01 00:00:00
TRACK 03 AUDIO
TITLE "Αν Ήσουν Άγγελος (Live)"
PERFORMER "Βασίλης Καζούλης"
INDEX 00 03:29:27
FILE "03. Βασίλης Καζούλης - Αν Ήσουν Άγγελος (Live).wav" WAVE
INDEX 01 00:00:00
TRACK 04 AUDIO
TITLE "Ο Μηχανισμός"
PERFORMER "Νικόλας Άσιμος"
INDEX 00 03:16:20
FILE "04. Νικόλας Άσιμος - Ο Μηχανισμός.wav" WAVE
INDEX 01 00:00:00
TRACK 05 AUDIO
TITLE "Δουλειές Του Κεφαλιού"
PERFORMER "Τζίμης Πανούσης"
INDEX 00 03:03:27
FILE "05. Τζίμης Πανούσης - Δουλειές Του Κεφαλιού.wav" WAVE
INDEX 01 00:00:00
TRACK 06 AUDIO
TITLE "Μου 'πες Θα Φύγω"
PERFORMER "Παύλος Σιδηρόπουλος"
INDEX 00 04:33:72
FILE "06. Παύλος Σιδηρόπουλος - Μου 'πες Θα Φύγω.wav" WAVE
INDEX 01 00:00:00
TRACK 07 AUDIO
TITLE "Ο Κηπουρός"
PERFORMER "Βαγγέλης Γερμανός"
INDEX 00 04:10:24
FILE "07. Βαγγέλης Γερμανός - Ο Κηπουρός.wav" WAVE
INDEX 01 00:00:00
TRACK 08 AUDIO
TITLE "Μου Ζητάς Να Μείνω"
PERFORMER "Νάμα"
INDEX 00 02:07:24
FILE "08. Νάμα - Μου Ζητάς Να Μείνω.wav" WAVE
INDEX 01 00:00:00
TRACK 09 AUDIO
TITLE "Η Μπαταρία"
PERFORMER "Magic De Spell"
INDEX 00 03:20:33
FILE "09. Magic De Spell - Η Μπαταρία.wav" WAVE
INDEX 01 00:00:00
TRACK 10 AUDIO
TITLE "Ο Ανεπρόκοπος (Live)"
PERFORMER "Εξαδάκτυλος"
INDEX 00 04:30:39
FILE "10. Εξαδάκτυλος - Ο Ανεπρόκοπος (Live).wav" WAVE
INDEX 01 00:00:00
TRACK 11 AUDIO
TITLE "Η Κυρία Η Μαμά Σου"
PERFORMER "Γιαννης Κιουρτσόγλου"
INDEX 00 05:19:03
FILE "11. Γιαννης Κιουρτσόγλου - Η Κυρία Η Μαμά Σου.wav" WAVE
INDEX 01 00:00:00
TRACK 12 AUDIO
TITLE "Που Πας Αφέντη Μέρμηγκα"
PERFORMER "Τά Ανάκαρα"
INDEX 00 02:19:07
FILE "12. Τά Ανάκαρα - Που Πας Αφέντη Μέρμηγκα.wav" WAVE
INDEX 01 00:00:00
TRACK 13 AUDIO
TITLE "Αποσμητικά (Live)"
PERFORMER "Δέσποινα Γλέζου"
INDEX 00 02:28:28
FILE "13. Δέσποινα Γλέζου - Αποσμητικά (Live).wav" WAVE
INDEX 01 00:00:00
TRACK 14 AUDIO
TITLE "Φίλα Με"
PERFORMER "Ριφιφί"
INDEX 00 03:34:42
FILE "14. Ριφιφί - Φίλα Με.wav" WAVE
INDEX 01 00:00:00
TRACK 15 AUDIO
TITLE "Άννα"
PERFORMER "2002 GR"
INDEX 00 04:18:26
FILE "15. 2002 GR - Άννα.wav" WAVE
INDEX 01 00:00:00
TRACK 16 AUDIO
TITLE "Η Αγάπη Μας Κοιμάται Στα Νερά"
PERFORMER "Γιώργος Ρωμανός"
INDEX 00 03:07:01
FILE "16. Γιώργος Ρωμανός - Η Αγάπη Μας Κοιμάται Στα Νερά.wav" WAVE
INDEX 01 00:00:00
TRACK 17 AUDIO
TITLE "Ο Κούκλος"
PERFORMER "Μαρίνα"
INDEX 00 02:24:74
FILE "17. Μαρίνα - Ο Κούκλος.wav" WAVE
INDEX 01 00:00:00
TRACK 18 AUDIO
TITLE "Love Without Love"
PERFORMER "The Forminx"
INDEX 00 02:19:37
FILE "18. The Forminx - Love Without Love.wav" WAVE
INDEX 01 00:00:00
TRACK 19 AUDIO
TITLE "You Don't Love Me"
PERFORMER "The Teenagers"
INDEX 00 02:56:20
FILE "19. The Teenagers - You Don't Love Me.wav" WAVE
INDEX 01 00:00:00
CD 3 (00:59:12) 01. Βασίλης Καζούλης - Η Φανή [03:22]
02. Γιάννης Κούτρας - Τσικαμπούμ [03:18]
03. Γιάννης Γιοκαρίνης - Δεν Είμαστε Καλά [02:43]
04. Βαγγέλης Γερμανός - Ο Απόκληρος (Συμμετέχει Η Ελευθερία Αρβανιτάκη) [02:13]
05. Παύλος Σιδηρόπουλος - Ο Μπάμπης Ο Φλου (Live) [03:25]
06. Τζίμης Πανούσης - Μεταμοντέρνο [03:32]
07. Νικόλας Άσιμος - Ο Ρωμιός [03:38]
08. Νάμα - Ζωή Παράσταση [04:01]
09. Γιάννης Γιοκαρίνης - Ευλαμπία [03:11]
10. Magic De Spell - Νίψον Ανομήματα [03:41]
11. Πελόμα Μποκιού - Μαρί, Μαρία [02:57]
12. Μπουρμπούλια - Ο Ντάμης Ο Σκληρός [03:40]
13. Ριφιφί - Ριφιφί [02:35]
14. 2002 GR - Είπες Πως [02:30]
15. Γιώργος Ρωμανός - Ει Κορίτσι [02:21]
16. The Forminx - Αν Τύχει Να Περάσετε Από Εκεί [02:31]
17. The Forminx - Say You Love Me [03:13]
18. We Five - Do You Wanna Dance [02:38]
19. The M.G.C. - Foxy Lady [03:43]

Лог создания рипа

Exact Audio Copy V0.99 prebeta 5 from 4. May 2009
EAC extraction logfile from 14. July 2010, 14:51
Various / Νοσταλγοί Του Rock N' Roll (CD3)
Used drive : HL-DT-STDVD-RAM GH22NP20 Adapter: 1 ID: 1
Read mode : Secure
Utilize accurate stream : Yes
Defeat audio cache : Yes
Make use of C2 pointers : No
Read offset correction : 102
Overread into Lead-In and Lead-Out : No
Fill up missing offset samples with silence : Yes
Delete leading and trailing silent blocks : No
Null samples used in CRC calculations : Yes
Used interface : Installed external ASPI interface
Gap handling : Appended to previous track
Used output format : User Defined Encoder
Selected bitrate : 1024 kBit/s
Quality : High
Add ID3 tag : No
Command line compressor : C:\Program Files\Exact Audio Copy\FLAC\FLAC.EXE
Additional command line options : -5 -V -T "ARTIST=%a" -T "TITLE=%t" -T "ALBUM=%g" -T "DATE=%y" -T "TRACKNUMBER=%n" -T "GENRE=%m" -T "COMMENT=%e" %s -o %d
Use compression offset : 48
TOC of the extracted CD
Track | Start | Length | Start sector | End sector
---------------------------------------------------------
1 | 0:00.00 | 3:22.03 | 0 | 15152
2 | 3:22.03 | 3:17.54 | 15153 | 29981
3 | 6:39.57 | 2:42.52 | 29982 | 42183
4 | 9:22.34 | 2:13.24 | 42184 | 52182
5 | 11:35.58 | 3:24.62 | 52183 | 67544
6 | 15:00.45 | 3:32.27 | 67545 | 83471
7 | 18:32.72 | 3:38.28 | 83472 | 99849
8 | 22:11.25 | 4:00.54 | 99850 | 117903
9 | 26:12.04 | 3:10.68 | 117904 | 132221
10 | 29:22.72 | 3:41.17 | 132222 | 148813
11 | 33:04.14 | 2:57.08 | 148814 | 162096
12 | 36:01.22 | 3:39.61 | 162097 | 178582
13 | 39:41.08 | 2:34.73 | 178583 | 190205
14 | 42:16.06 | 2:30.00 | 190206 | 201455
15 | 44:46.06 | 2:21.18 | 201456 | 212048
16 | 47:07.24 | 2:31.28 | 212049 | 223401
17 | 49:38.52 | 3:13.07 | 223402 | 237883
18 | 52:51.59 | 2:38.26 | 237884 | 249759
19 | 55:30.10 | 3:43.18 | 249760 | 266502
Track 1
Filename C:\New Folder\01. Βασίλης Καζούλης - Η Φανή.wav
Pre-gap length 0:00:02.00
Peak level 95.5 %
Track quality 100.0 %
Copy CRC D710CA97
Accurately ripped (confidence 4) [B9FE0A08]
Copy OK
Track 2
Filename C:\New Folder\02. Γιάννης Κούτρας - Τσικαμπούμ.wav
Pre-gap length 0:00:02.00
Peak level 97.7 %
Track quality 100.0 %
Copy CRC 3F19279B
Accurately ripped (confidence 4) [B24EA459]
Copy OK
Track 3
Filename C:\New Folder\03. Γιάννης Γιοκαρίνης - Δεν Είμαστε Καλά.wav
Pre-gap length 0:00:02.00
Peak level 97.7 %
Track quality 99.9 %
Copy CRC 58A20EC9
Accurately ripped (confidence 4) [0FF099D1]
Copy OK
Track 4
Filename C:\New Folder\04. Βαγγέλης Γερμανός - Ο Απόκληρος (Συμμετέχει Η Ελευθερία Αρβανιτάκη).wav
Pre-gap length 0:00:02.00
Peak level 97.7 %
Track quality 100.0 %
Copy CRC 42C3F8A2
Accurately ripped (confidence 4) [07884472]
Copy OK
Track 5
Filename C:\New Folder\05. Παύλος Σιδηρόπουλος - Ο Μπάμπης Ο Φλου (Live).wav
Pre-gap length 0:00:02.00
Peak level 97.7 %
Track quality 100.0 %
Copy CRC 15C12650
Accurately ripped (confidence 4) [7309095A]
Copy OK
Track 6
Filename C:\New Folder\06. Τζίμης Πανούσης - Μεταμοντέρνο.wav
Pre-gap length 0:00:02.00
Peak level 96.6 %
Track quality 100.0 %
Copy CRC 139C5C67
Accurately ripped (confidence 4) [8F36D08C]
Copy OK
Track 7
Filename C:\New Folder\07. Νικόλας Άσιμος - Ο Ρωμιός.wav
Pre-gap length 0:00:02.00
Peak level 95.5 %
Track quality 100.0 %
Copy CRC 54B8A0B8
Accurately ripped (confidence 3) [ECDFBD19]
Copy OK
Track 8
Filename C:\New Folder\08. Νάμα - Ζωή Παράσταση.wav
Pre-gap length 0:00:02.00
Peak level 97.7 %
Track quality 99.9 %
Copy CRC 701A93AB
Accurately ripped (confidence 4) [934F59D0]
Copy OK
Track 9
Filename C:\New Folder\09. Γιάννης Γιοκαρίνης - Ευλαμπία.wav
Pre-gap length 0:00:02.00
Peak level 97.7 %
Track quality 99.9 %
Copy CRC 3F7909BD
Accurately ripped (confidence 4) [41684E07]
Copy OK
Track 10
Filename C:\New Folder\10. Magic De Spell - Νίψον Ανομήματα.wav
Pre-gap length 0:00:02.00
Peak level 97.7 %
Track quality 100.0 %
Copy CRC 6974E003
Accurately ripped (confidence 3) [F29A8E28]
Copy OK
Track 11
Filename C:\New Folder\11. Πελόμα Μποκιού - Μαρί, Μαρία.wav
Pre-gap length 0:00:02.00
Peak level 95.5 %
Track quality 100.0 %
Copy CRC 252F9DBE
Accurately ripped (confidence 4) [E6CB7D94]
Copy OK
Track 12
Filename C:\New Folder\12. Μπουρμπούλια - Ο Ντάμης Ο Σκληρός.wav
Pre-gap length 0:00:02.00
Peak level 95.5 %
Track quality 99.9 %
Copy CRC 38711992
Accurately ripped (confidence 3) [A3B4541B]
Copy OK
Track 13
Filename C:\New Folder\13. Ριφιφί - Ριφιφί.wav
Pre-gap length 0:00:02.00
Peak level 95.5 %
Track quality 100.0 %
Copy CRC D7FDAA52
Accurately ripped (confidence 4) [6266A94B]
Copy OK
Track 14
Filename C:\New Folder\14. 2002 GR - Είπες Πως.wav
Pre-gap length 0:00:02.00
Peak level 97.7 %
Track quality 100.0 %
Copy CRC 83BA2F87
Accurately ripped (confidence 4) [71F610CB]
Copy OK
Track 15
Filename C:\New Folder\15. Γιώργος Ρωμανός - Ει Κορίτσι.wav
Pre-gap length 0:00:02.00
Peak level 97.7 %
Track quality 100.0 %
Copy CRC A4F6E15F
Accurately ripped (confidence 3) [8391FE6A]
Copy OK
Track 16
Filename C:\New Folder\16. The Forminx - Αν Τύχει Να Περάσετε Από Εκεί.wav
Pre-gap length 0:00:02.00
Peak level 97.7 %
Track quality 100.0 %
Copy CRC 4A2EB56F
Accurately ripped (confidence 2) [ABFD1F4F]
Copy OK
Track 17
Filename C:\New Folder\17. The Forminx - Say You Love Me.wav
Pre-gap length 0:00:02.00
Peak level 97.7 %
Track quality 100.0 %
Copy CRC 78B7C9F7
Accurately ripped (confidence 2) [F7E417A7]
Copy OK
Track 18
Filename C:\New Folder\18. We Five - Do You Wanna Dance.wav
Pre-gap length 0:00:02.00
Peak level 95.5 %
Track quality 100.0 %
Copy CRC 2E250CF5
Accurately ripped (confidence 3) [8F201180]
Copy OK
Track 19
Filename C:\New Folder\19. The M.G.C. - Foxy Lady.wav
Pre-gap length 0:00:02.00
Peak level 97.7 %
Track quality 100.0 %
Copy CRC 6B368C25
Accurately ripped (confidence 3) [0B935FE0]
Copy OK
All tracks accurately ripped
No errors occurred
End of status report

Содержание индексной карты (.CUE)

REM GENRE Rock
REM DATE 2009
REM DISCID 110DE113
REM COMMENT "ExactAudioCopy v0.99pb5"
PERFORMER "Various"
TITLE "Νοσταλγοί Του Rock N' Roll (CD3)"
FILE "01. Βασίλης Καζούλης - Η Φανή.wav" WAVE
TRACK 01 AUDIO
TITLE "Η Φανή"
PERFORMER "Βασίλης Καζούλης"
INDEX 01 00:00:00
TRACK 02 AUDIO
TITLE "Τσικαμπούμ"
PERFORMER "Γιάννης Κούτρας"
INDEX 00 03:20:03
FILE "02. Γιάννης Κούτρας - Τσικαμπούμ.wav" WAVE
INDEX 01 00:00:00
TRACK 03 AUDIO
TITLE "Δεν Είμαστε Καλά"
PERFORMER "Γιάννης Γιοκαρίνης"
INDEX 00 03:15:54
FILE "03. Γιάννης Γιοκαρίνης - Δεν Είμαστε Καλά.wav" WAVE
INDEX 01 00:00:00
TRACK 04 AUDIO
TITLE "Ο Απόκληρος (Συμμετέχει Η Ελευθερία Αρβανιτάκη)"
PERFORMER "Βαγγέλης Γερμανός"
INDEX 00 02:40:52
FILE "04. Βαγγέλης Γερμανός - Ο Απόκληρος (Συμμετέχει Η Ελευθερία Αρβανιτάκη).wav" WAVE
INDEX 01 00:00:00
TRACK 05 AUDIO
TITLE "Ο Μπάμπης Ο Φλου (Live)"
PERFORMER "Παύλος Σιδηρόπουλος"
INDEX 00 02:11:24
FILE "05. Παύλος Σιδηρόπουλος - Ο Μπάμπης Ο Φλου (Live).wav" WAVE
INDEX 01 00:00:00
TRACK 06 AUDIO
TITLE "Μεταμοντέρνο"
PERFORMER "Τζίμης Πανούσης"
INDEX 00 03:22:62
FILE "06. Τζίμης Πανούσης - Μεταμοντέρνο.wav" WAVE
INDEX 01 00:00:00
TRACK 07 AUDIO
TITLE "Ο Ρωμιός"
PERFORMER "Νικόλας Άσιμος"
INDEX 00 03:30:27
FILE "07. Νικόλας Άσιμος - Ο Ρωμιός.wav" WAVE
INDEX 01 00:00:00
TRACK 08 AUDIO
TITLE "Ζωή Παράσταση"
PERFORMER "Νάμα"
INDEX 00 03:36:28
FILE "08. Νάμα - Ζωή Παράσταση.wav" WAVE
INDEX 01 00:00:00
TRACK 09 AUDIO
TITLE "Ευλαμπία"
PERFORMER "Γιάννης Γιοκαρίνης"
INDEX 00 03:58:54
FILE "09. Γιάννης Γιοκαρίνης - Ευλαμπία.wav" WAVE
INDEX 01 00:00:00
TRACK 10 AUDIO
TITLE "Νίψον Ανομήματα"
PERFORMER "Magic De Spell"
INDEX 00 03:08:68
FILE "10. Magic De Spell - Νίψον Ανομήματα.wav" WAVE
INDEX 01 00:00:00
TRACK 11 AUDIO
TITLE "Μαρί, Μαρία"
PERFORMER "Πελόμα Μποκιού"
INDEX 00 03:39:17
FILE "11. Πελόμα Μποκιού - Μαρί, Μαρία.wav" WAVE
INDEX 01 00:00:00
TRACK 12 AUDIO
TITLE "Ο Ντάμης Ο Σκληρός"
PERFORMER "Μπουρμπούλια"
INDEX 00 02:55:08
FILE "12. Μπουρμπούλια - Ο Ντάμης Ο Σκληρός.wav" WAVE
INDEX 01 00:00:00
TRACK 13 AUDIO
TITLE "Ριφιφί"
PERFORMER "Ριφιφί"
INDEX 00 03:37:61
FILE "13. Ριφιφί - Ριφιφί.wav" WAVE
INDEX 01 00:00:00
TRACK 14 AUDIO
TITLE "Είπες Πως"
PERFORMER "2002 GR"
INDEX 00 02:32:73
FILE "14. 2002 GR - Είπες Πως.wav" WAVE
INDEX 01 00:00:00
TRACK 15 AUDIO
TITLE "Ει Κορίτσι"
PERFORMER "Γιώργος Ρωμανός"
INDEX 00 02:28:00
FILE "15. Γιώργος Ρωμανός - Ει Κορίτσι.wav" WAVE
INDEX 01 00:00:00
TRACK 16 AUDIO
TITLE "Αν Τύχει Να Περάσετε Από Εκεί"
PERFORMER "The Forminx"
INDEX 00 02:19:18
FILE "16. The Forminx - Αν Τύχει Να Περάσετε Από Εκεί.wav" WAVE
INDEX 01 00:00:00
TRACK 17 AUDIO
TITLE "Say You Love Me"
PERFORMER "The Forminx"
INDEX 00 02:29:28
FILE "17. The Forminx - Say You Love Me.wav" WAVE
INDEX 01 00:00:00
TRACK 18 AUDIO
TITLE "Do You Wanna Dance"
PERFORMER "We Five"
INDEX 00 03:11:07
FILE "18. We Five - Do You Wanna Dance.wav" WAVE
INDEX 01 00:00:00
TRACK 19 AUDIO
TITLE "Foxy Lady"
PERFORMER "The M.G.C."
INDEX 00 02:36:26
FILE "19. The M.G.C. - Foxy Lady.wav" WAVE
INDEX 01 00:00:00

To download the file disable ad blocking, and reload the page.

disable adblock How to disable ad blocking?

Download by magnet link 1.29 GB Download Torrent

Login using:



   
Current time is: 23-Sep 16:47 :: All times are UTC ± 0