Various Artists
The Continental Magazine #22
-- Жанр: Surf, Rock'n'Roll, Spaghetti Western, Spy
Носитель: CD
Страна-производитель диска: USA
Год издания: 2014
Издатель (лейбл): Double Crown Records
Аудиокодек: FLAC (*.flac)
Тип рипа: image+.cue
Битрейт аудио: lossless
Продолжительность: 58:39
Источник (релизер): ©СЁРФ-Маrаtones aka izia1956
Наличие сканов в содержимом раздачи: да
--

01. The Man Who Couldn't Tell Time - The Tomorrow Men (3:03)
02. Coast of Capri - The Trabants (2:46)
03. Koko Head - Martin Cilia (3:35)
04. Snake Eyes - Jason Lee & The R.I.P Tides (2:48)
05. Panic Beach - The Stingrays (2:22)
06. El Avispon - Audios Amigos (2:45)
07. Life is Too Short - Die Kosmonauten (2:57)
08. Rio Sangre - The Derangers (3:45)
09. Satan's Invisible World... Revealed! - Beware The Dangers of a Ghost..... (2:45)
10. Candyass - The Surf Zombies (2:33)
11. Simon Beat - Les Agamemnonz (2:37)
12. A Proper Quarrel - The Secret Samurai (4:08)
13. Are You Ready for a Rock n Roll - The Razorblades (2:32)
14. Victory At Sunset - 9th Wave (2:24)
15. The Creamer - The Torments (2:26)
16. Meltdown - The Grande Bois (3:09)
17. Surfing Salzburg - The Spytones (4:23)
18. SA Woman - Los #3 Dinners (4:31)
19. The Scrump - The Delusionaires (3:01)
--

Лог создания рипа

Exact Audio Copy V1.0 beta 3 from 29. August 2011
Отчёт EAC об извлечении, выполненном 17. августа 2014, 16:53
Various / Continental #22
Дисковод: PLEXTOR DVDR PX-880SA Adapter: 1 ID: 0
Режим чтения : Достоверность
Использование точного потока : Да
Отключение кэша аудио : Да
Использование указателей C2 : Нет
Коррекция смещения при чтении : 6
Способность читать области Lead-in и Lead-out : Нет
Заполнение пропущенных сэмплов тишиной : Да
Удаление блоков с тишиной в начале и конце : Нет
При вычислениях CRC использовались нулевые сэмплы : Да
Интерфейс : Установленный внешний ASPI-интерфейс
Выходной формат : Пользовательский кодировщик
Выбранный битрейт : 1024 kBit/s
Качество : Высокий
Добавление ID3-тега : Нет
Утилита сжатия : C:\Program Files\Exact Audio Copy\FLAC\FLAC.EXE
Дополнительные параметры : -10 -V -T "ARTIST=%artist%" -T "ALBUM=%albumtitle%" -T "DATE=%year%" -T "GENRE=%genre%" -T "COMMENT=ripped by izia1956" %source%
TOC извлечённого CD
Трек | Старт | Длительность | Начальный сектор | Конечный сектор
---------------------------------------------------------------------
1 | 0:00.00 | 3:03.67 | 0 | 13791
2 | 3:03.67 | 2:46.50 | 13792 | 26291
3 | 5:50.42 | 3:35.60 | 26292 | 42476
4 | 9:26.27 | 2:48.66 | 42477 | 55142
5 | 12:15.18 | 2:22.71 | 55143 | 65863
6 | 14:38.14 | 2:45.70 | 65864 | 78308
7 | 17:24.09 | 2:57.02 | 78309 | 91585
8 | 20:21.11 | 3:45.07 | 91586 | 108467
9 | 24:06.18 | 2:45.28 | 108468 | 120870
10 | 26:51.46 | 2:33.29 | 120871 | 132374
11 | 29:25.00 | 2:37.08 | 132375 | 144157
12 | 32:02.08 | 4:08.24 | 144158 | 162781
13 | 36:10.32 | 2:32.38 | 162782 | 174219
14 | 38:42.70 | 2:24.32 | 174220 | 185051
15 | 41:07.27 | 2:26.00 | 185052 | 196001
16 | 43:33.27 | 3:09.40 | 196002 | 210216
17 | 46:42.67 | 4:23.37 | 210217 | 229978
18 | 51:06.29 | 4:31.33 | 229979 | 250336
19 | 55:37.62 | 3:01.51 | 250337 | 263962
Характеристики диапазона извлечения и сообщения об ошибках
Выбранный диапазон
Имя файла D:\BitComet\Various - Continental Magazine #22(2014)(flac)\Various - Continental #22.wav
Пиковый уровень 97.7 %
Скорость извлечения 4.7 X
Качество диапазона 100.0 %
CRC теста 44441AB8
CRC копии 44441AB8
Копирование... OK
Ошибок не произошло
AccurateRip: сводка
Трек 1 : извлечено точно (доверие 1) [5973CF22] (AR v2)
Трек 2 : извлечено точно (доверие 1) [4D923E52] (AR v2)
Трек 3 : извлечено точно (доверие 1) [A17BA4DA] (AR v2)
Трек 4 : извлечено точно (доверие 1) [0D77505F] (AR v2)
Трек 5 : извлечено точно (доверие 1) [5E5452B2] (AR v2)
Трек 6 : извлечено точно (доверие 1) [A4926649] (AR v2)
Трек 7 : извлечено точно (доверие 1) [C0684986] (AR v2)
Трек 8 : извлечено точно (доверие 1) [A91C3A5E] (AR v2)
Трек 9 : извлечено точно (доверие 1) [B70F3909] (AR v2)
Трек 10 : извлечено точно (доверие 1) [66C8E729] (AR v2)
Трек 11 : извлечено точно (доверие 1) [230E10C7] (AR v2)
Трек 12 : извлечено точно (доверие 1) [03469546] (AR v2)
Трек 13 : извлечено точно (доверие 1) [D8807B01] (AR v2)
Трек 14 : извлечено точно (доверие 1) [BD44A5B4] (AR v2)
Трек 15 : извлечено точно (доверие 1) [F2A15C69] (AR v2)
Трек 16 : извлечено точно (доверие 1) [55A9FA68] (AR v2)
Трек 17 : извлечено точно (доверие 1) [E407F146] (AR v2)
Трек 18 : извлечено точно (доверие 1) [06792D3C] (AR v2)
Трек 19 : извлечено точно (доверие 1) [4FAC9B93] (AR v2)
Все треки извлечены точно
Конец отчёта
==== Контрольная сумма отчёта 34596AE2F5F2E13399AB06C8D331C729BF388DF6B2876A609F738A12BDB6D7E1 ====

Содержание индексной карты (.CUE)

REM GENRE Surf/Spy/Western
REM DATE 2014
REM DISCID 0E0DBF13
REM COMMENT "ExactAudioCopy v1.0b3"
PERFORMER "Various "
TITLE "Continental #22"
FILE "Various - Continental #22.flac" WAVE
TRACK 01 AUDIO
TITLE "The Man Who Couldn't Tell Time"
PERFORMER "Th TomorrowMen"
INDEX 01 00:00:00
TRACK 02 AUDIO
TITLE "Coast of Capri"
PERFORMER "The Trabants"
INDEX 01 03:03:67
TRACK 03 AUDIO
TITLE "Koko Head"
PERFORMER "Martin Cilia"
INDEX 01 05:50:42
TRACK 04 AUDIO
TITLE "Snake Eyes"
PERFORMER "Jason Lee & The R.I.P Tides"
INDEX 01 09:26:27
TRACK 05 AUDIO
TITLE "Panic Beach"
PERFORMER "The Stingrays"
INDEX 01 12:15:18
TRACK 06 AUDIO
TITLE "El Avispon"
PERFORMER "Audios Amigos"
INDEX 01 14:38:14
TRACK 07 AUDIO
TITLE "Life is Too Short"
PERFORMER "Die Kosmonauten"
INDEX 01 17:24:09
TRACK 08 AUDIO
TITLE "Rio Sangre"
PERFORMER "The Derangers"
INDEX 01 20:21:11
TRACK 09 AUDIO
TITLE "Satan's Invisible World... Revealed!"
PERFORMER "Beware The Dangers ofa Ghost....."
INDEX 01 24:06:18
TRACK 10 AUDIO
TITLE "Candyass"
PERFORMER "The Surf Zombies"
INDEX 01 26:51:46
TRACK 11 AUDIO
TITLE "Simon Beat"
PERFORMER "Les Agamemnonz"
INDEX 01 29:25:00
TRACK 12 AUDIO
TITLE "A Proper Quarrel"
PERFORMER "The Secret Samurai"
INDEX 00 32:02:07
INDEX 01 32:02:08
TRACK 13 AUDIO
TITLE "Are You Ready for a Rock n Roll"
PERFORMER "Razorblades"
INDEX 01 36:10:32
TRACK 14 AUDIO
TITLE "Victory At Sunset"
PERFORMER "9th Wave"
INDEX 01 38:42:70
TRACK 15 AUDIO
TITLE "The Creamer"
PERFORMER "The Torments"
INDEX 01 41:07:27
TRACK 16 AUDIO
TITLE "Meltdown"
PERFORMER "The Grande Bois"
INDEX 01 43:33:27
TRACK 17 AUDIO
TITLE "Surfing Salzburg"
PERFORMER "The Spytones"
INDEX 01 46:42:67
TRACK 18 AUDIO
TITLE "SA Woman"
PERFORMER "Los #3 Dinners"
INDEX 01 51:06:29
TRACK 19 AUDIO
TITLE "The Scrump"
PERFORMER "The Delusionaires"
INDEX 01 55:37:62

The Continental Magazine #22

Доп. информация: Рип сделан собственноручно.
Сканы в папке.
Рип от ©СЁРФ-Маrаtones aka izia1956

To download the file disable ad blocking, and reload the page.

disable adblock How to disable ad blocking?

Download by magnet link 476 MB Download Torrent

Login using:

Similar topics



   
Current time is: 23-Sep 15:47 :: All times are UTC ± 0