Pop Giganten (Hits der 60er)
Жанр: Classic Rock, Prog-Rock
Страна-производитель диска: Germany
Год издания: 1991
Издатель (лейбл): BMG (Bertesmann Music Group) Ariola Media GmbH
Номер по каталогу: 354229
Аудиокодек: FLAC (*.flac)
Тип рипа: tracks+.cue
Битрейт аудио: lossless
Продолжительность: 0:54:57 + 0:56:34
Источник (релизер): clustert
Наличие сканов в содержимом раздачи: да

CD 1

01. The Kinks / Waterloo Sunset [0:03:16.32]
02. Small Faces / Lazy Sunday [0:03:04.63]
03. Julie Driscoll with The Brian Auger Trinity / This Wheel's On Fire [0:03:25.05]
04. John Fred & His Playboy Band / Judy In Disguise (With Glasses) [0:02:55.22]
05. Amen Corner / (If Paradise Is) Half As Nice [0:03:01.25]
06. The American Breed / Bend Me Shape Me [0:02:12.43]
07. Thunderclap Newman / Something In The Air [0:03:56.67]
08. The Move / Blackberry Way [0:03:37.13]
09. The Smoke / My Friend Jack [0:03:07.70]
10. Status Quo / Pictures of Matchstick Men [0:03:09.70]
11. The Troggs / Wild Thing [0:02:34.67]
12. Free / All Right Now [0:05:33.58]
13. Cream / White Room [0:04:56.72]
14. Humble Pie / Natural Born Boogie [0:04:14.40]
15. Spencer Davis Group feat. Steve Winwood / Gimme Some Lovin' [0:02:57.23]
16. The Crazy World Of Arthur Brown / Fire [0:02:52.55]

LOG

Exact Audio Copy V1.0 beta 3 from 29. August 2011
Отчёт EAC об извлечении, выполненном 31. августа 2014, 15:13
V.A. / Pop Giganten (Hits der 60er) CD1 1
Дисковод: ASUS DRW-1814BLT Adapter: 4 ID: 0
Режим чтения : Достоверность
Использование точного потока : Да
Отключение кэша аудио : Да
Использование указателей C2 : Нет
Коррекция смещения при чтении : 6
Способность читать области Lead-in и Lead-out : Нет
Заполнение пропущенных сэмплов тишиной : Да
Удаление блоков с тишиной в начале и конце : Нет
При вычислениях CRC использовались нулевые сэмплы : Да
Интерфейс : Встроенный Win32-интерфейс для Win NT/2000
Обработка зазоров : Добавлено к предыдущему треку
Выходной формат : Пользовательский кодировщик
Выбранный битрейт : 128 kBit/s
Качество : Высокий
Добавление ID3-тега : Нет
Утилита сжатия : C:\Program Files\Exact Audio Copy\Flac\flac.exe
Дополнительные параметры : -V -8 -T "Genre=%genre%" -T "Artist=%artist%" -T "Title=%title%" -T "Album=%albumtitle%" -T "Date=%year%" -T "Tracknumber=%tracknr%" -T "Comment=EAC1.0b2 FLAC -8" %source%
TOC извлечённого CD
Трек | Старт | Длительность | Начальный сектор | Конечный сектор
---------------------------------------------------------------------
1 | 0:00.33 | 3:16.32 | 33 | 14764
2 | 3:16.65 | 3:04.63 | 14765 | 28627
3 | 6:21.53 | 3:25.05 | 28628 | 44007
4 | 9:46.58 | 2:55.22 | 44008 | 57154
5 | 12:42.05 | 3:01.25 | 57155 | 70754
6 | 15:43.30 | 2:12.43 | 70755 | 80697
7 | 17:55.73 | 3:56.67 | 80698 | 98464
8 | 21:52.65 | 3:37.13 | 98465 | 114752
9 | 25:30.03 | 3:07.70 | 114753 | 128847
10 | 28:37.73 | 3:09.70 | 128848 | 143092
11 | 31:47.68 | 2:34.67 | 143093 | 154709
12 | 34:22.60 | 5:33.58 | 154710 | 179742
13 | 39:56.43 | 4:56.72 | 179743 | 202014
14 | 44:53.40 | 4:14.40 | 202015 | 221104
15 | 49:08.05 | 2:57.23 | 221105 | 234402
16 | 52:05.28 | 2:52.55 | 234403 | 247357
Трек 1
Имя файла R:\Раздача 22\VA - Pop Giganten - Hits Der 60er - 1991\CD 1\01 Waterloo Sunset.wav
Длина предзазора 0:00:02.33
Пиковый уровень 78.3 %
Скорость извлечения 2.5 X
Качество трека 100.0 %
CRC теста A248091B
CRC копии A248091B
Точное извлечение (достоверность 11) [0F57CB74] (AR v2)
Копирование... OK
Трек 2
Имя файла R:\Раздача 22\VA - Pop Giganten - Hits Der 60er - 1991\CD 1\02 Lazy Sunday.wav
Длина предзазора 0:00:01.25
Пиковый уровень 99.0 %
Скорость извлечения 2.7 X
Качество трека 100.0 %
CRC теста E14072D9
CRC копии E14072D9
Точное извлечение (достоверность 12) [70EA1BB9] (AR v2)
Копирование... OK
Трек 3
Имя файла R:\Раздача 22\VA - Pop Giganten - Hits Der 60er - 1991\CD 1\03 This Wheel's On Fire.wav
Длина предзазора 0:00:01.25
Пиковый уровень 95.4 %
Скорость извлечения 2.9 X
Качество трека 100.0 %
CRC теста DF5BF702
CRC копии DF5BF702
Точное извлечение (достоверность 12) [57497E1A] (AR v2)
Копирование... OK
Трек 4
Имя файла R:\Раздача 22\VA - Pop Giganten - Hits Der 60er - 1991\CD 1\04 Judy In Disguise (With Glasses).wav
Длина предзазора 0:00:01.25
Пиковый уровень 99.0 %
Скорость извлечения 1.7 X
Качество трека 99.9 %
CRC теста E1D1FD64
CRC копии E1D1FD64
Точное извлечение (достоверность 12) [8B4FC247] (AR v2)
Копирование... OK
Трек 5
Имя файла R:\Раздача 22\VA - Pop Giganten - Hits Der 60er - 1991\CD 1\05 (If Paradise Is) Half As Nice.wav
Длина предзазора 0:00:01.25
Пиковый уровень 99.0 %
Скорость извлечения 3.2 X
Качество трека 100.0 %
CRC теста A49C038F
CRC копии A49C038F
Точное извлечение (достоверность 12) [E4F6963F] (AR v2)
Копирование... OK
Трек 6
Имя файла R:\Раздача 22\VA - Pop Giganten - Hits Der 60er - 1991\CD 1\06 Bend Me Shape Me.wav
Длина предзазора 0:00:01.25
Пиковый уровень 99.9 %
Скорость извлечения 3.2 X
Качество трека 100.0 %
CRC теста 32BEC4A4
CRC копии 32BEC4A4
Точное извлечение (достоверность 12) [EBB48EF8] (AR v2)
Копирование... OK
Трек 7
Имя файла R:\Раздача 22\VA - Pop Giganten - Hits Der 60er - 1991\CD 1\07 Something In The Air.wav
Длина предзазора 0:00:01.25
Пиковый уровень 99.0 %
Скорость извлечения 3.7 X
Качество трека 100.0 %
CRC теста 36B0CE33
CRC копии 36B0CE33
Точное извлечение (достоверность 11) [50C17793] (AR v2)
Копирование... OK
Трек 8
Имя файла R:\Раздача 22\VA - Pop Giganten - Hits Der 60er - 1991\CD 1\08 Blackberry Way.wav
Длина предзазора 0:00:01.25
Пиковый уровень 99.0 %
Скорость извлечения 3.8 X
Качество трека 100.0 %
CRC теста 269CE7CA
CRC копии 269CE7CA
Точное извлечение (достоверность 12) [D97D1D27] (AR v2)
Копирование... OK
Трек 9
Имя файла R:\Раздача 22\VA - Pop Giganten - Hits Der 60er - 1991\CD 1\09 My Friend Jack.wav
Длина предзазора 0:00:01.25
Пиковый уровень 99.0 %
Скорость извлечения 3.8 X
Качество трека 100.0 %
CRC теста 206735BE
CRC копии 206735BE
Точное извлечение (достоверность 12) [05625BFD] (AR v2)
Копирование... OK
Трек 10
Имя файла R:\Раздача 22\VA - Pop Giganten - Hits Der 60er - 1991\CD 1\10 Pictures of Matchstick Men.wav
Длина предзазора 0:00:01.25
Пиковый уровень 91.9 %
Скорость извлечения 4.0 X
Качество трека 100.0 %
CRC теста 30D162C2
CRC копии 30D162C2
Точное извлечение (достоверность 12) [6A03FA49] (AR v2)
Копирование... OK
Трек 11
Имя файла R:\Раздача 22\VA - Pop Giganten - Hits Der 60er - 1991\CD 1\11 Wild Thing.wav
Длина предзазора 0:00:01.25
Пиковый уровень 99.0 %
Скорость извлечения 4.0 X
Качество трека 100.0 %
CRC теста 9AA04965
CRC копии 9AA04965
Точное извлечение (достоверность 12) [8485399B] (AR v2)
Копирование... OK
Трек 12
Имя файла R:\Раздача 22\VA - Pop Giganten - Hits Der 60er - 1991\CD 1\12 All Right Now.wav
Длина предзазора 0:00:01.25
Пиковый уровень 99.0 %
Скорость извлечения 4.6 X
Качество трека 100.0 %
CRC теста E0D256D5
CRC копии E0D256D5
Точное извлечение (достоверность 12) [BD4297E4] (AR v2)
Копирование... OK
Трек 13
Имя файла R:\Раздача 22\VA - Pop Giganten - Hits Der 60er - 1991\CD 1\13 White Room.wav
Длина предзазора 0:00:01.25
Пиковый уровень 88.2 %
Скорость извлечения 4.8 X
Качество трека 100.0 %
CRC теста 1254ED44
CRC копии 1254ED44
Точное извлечение (достоверность 12) [E6D4BDFF] (AR v2)
Копирование... OK
Трек 14
Имя файла R:\Раздача 22\VA - Pop Giganten - Hits Der 60er - 1991\CD 1\14 Natural Born Boogie.wav
Длина предзазора 0:00:01.25
Пиковый уровень 88.2 %
Скорость извлечения 4.9 X
Качество трека 100.0 %
CRC теста AECABF5A
CRC копии AECABF5A
Точное извлечение (достоверность 12) [30C2A60E] (AR v2)
Копирование... OK
Трек 15
Имя файла R:\Раздача 22\VA - Pop Giganten - Hits Der 60er - 1991\CD 1\15 Gimme Some Lovin'.wav
Длина предзазора 0:00:01.25
Пиковый уровень 88.2 %
Скорость извлечения 2.7 X
Качество трека 99.9 %
CRC теста 25DC11FC
CRC копии 25DC11FC
Точное извлечение (достоверность 12) [FA756BBF] (AR v2)
Копирование... OK
Трек 16
Имя файла R:\Раздача 22\VA - Pop Giganten - Hits Der 60er - 1991\CD 1\16 Fire.wav
Длина предзазора 0:00:01.25
Пиковый уровень 88.3 %
Скорость извлечения 4.8 X
Качество трека 100.0 %
CRC теста 988E7D40
CRC копии 988E7D40
Точное извлечение (достоверность 11) [D37EB7FE] (AR v2)
Копирование... OK
Все треки извлечены точно
Ошибок не произошло
Конец отчёта
==== Контрольная сумма отчёта BC4F6FA598F47F897AA79BC3F4674945A58A8CF5E5711C6A029CD4D55A310498 ====

CUE

REM GENRE "Classic Rock"
REM DATE 1991
REM DISCID F70CE210
REM COMMENT "ExactAudioCopy v1.0b3"
PERFORMER "V.A."
TITLE "Pop Giganten (Hits der 60er) CD1 1"
FILE "01 Waterloo Sunset.wav" WAVE
TRACK 01 AUDIO
TITLE "Waterloo Sunset"
PERFORMER "The Kinks"
PREGAP 00:00:33
INDEX 01 00:00:00
TRACK 02 AUDIO
TITLE "Lazy Sunday"
PERFORMER "Small Faces"
INDEX 00 03:15:07
FILE "02 Lazy Sunday.wav" WAVE
INDEX 01 00:00:00
TRACK 03 AUDIO
TITLE "This Wheel's On Fire"
PERFORMER "Julie Driscoll with The Brian Auger Trinity"
INDEX 00 03:03:38
FILE "03 This Wheel's On Fire.wav" WAVE
INDEX 01 00:00:00
TRACK 04 AUDIO
TITLE "Judy In Disguise (With Glasses)"
PERFORMER "John Fred & His Playboy Band"
INDEX 00 03:23:55
FILE "04 Judy In Disguise (With Glasses).wav" WAVE
INDEX 01 00:00:00
TRACK 05 AUDIO
TITLE "(If Paradise Is) Half As Nice"
PERFORMER "Amen Corner"
INDEX 00 02:53:72
FILE "05 (If Paradise Is) Half As Nice.wav" WAVE
INDEX 01 00:00:00
TRACK 06 AUDIO
TITLE "Bend Me Shape Me"
PERFORMER "The American Breed"
INDEX 00 03:00:00
FILE "06 Bend Me Shape Me.wav" WAVE
INDEX 01 00:00:00
TRACK 07 AUDIO
TITLE "Something In The Air"
PERFORMER "Thunderclap Newman"
INDEX 00 02:11:18
FILE "07 Something In The Air.wav" WAVE
INDEX 01 00:00:00
TRACK 08 AUDIO
TITLE "Blackberry Way"
PERFORMER "The Move"
INDEX 00 03:55:42
FILE "08 Blackberry Way.wav" WAVE
INDEX 01 00:00:00
TRACK 09 AUDIO
TITLE "My Friend Jack"
PERFORMER "The Smoke"
INDEX 00 03:35:63
FILE "09 My Friend Jack.wav" WAVE
INDEX 01 00:00:00
TRACK 10 AUDIO
TITLE "Pictures of Matchstick Men"
PERFORMER "Status Quo"
INDEX 00 03:06:45
FILE "10 Pictures of Matchstick Men.wav" WAVE
INDEX 01 00:00:00
TRACK 11 AUDIO
TITLE "Wild Thing"
PERFORMER "The Troggs"
INDEX 00 03:08:45
FILE "11 Wild Thing.wav" WAVE
INDEX 01 00:00:00
TRACK 12 AUDIO
TITLE "All Right Now"
PERFORMER "Free"
INDEX 00 02:33:42
FILE "12 All Right Now.wav" WAVE
INDEX 01 00:00:00
TRACK 13 AUDIO
TITLE "White Room"
PERFORMER "Cream"
INDEX 00 05:32:33
FILE "13 White Room.wav" WAVE
INDEX 01 00:00:00
TRACK 14 AUDIO
TITLE "Natural Born Boogie"
PERFORMER "Humble Pie"
INDEX 00 04:55:47
FILE "14 Natural Born Boogie.wav" WAVE
INDEX 01 00:00:00
TRACK 15 AUDIO
TITLE "Gimme Some Lovin'"
PERFORMER "Spencer Davis Group feat. Steve Winwood"
INDEX 00 04:13:15
FILE "15 Gimme Some Lovin'.wav" WAVE
INDEX 01 00:00:00
TRACK 16 AUDIO
TITLE "Fire"
PERFORMER "The Crazy World Of Arthur Brown"
INDEX 00 02:55:73
FILE "16 Fire.wav" WAVE
INDEX 01 00:00:00

CD 2

01. Steppenwolf / Magic Carpet Ride [0:04:24.32]
02. Joe Cocker / With A Little Help From My Friends [0:05:10.68]
03. Iron Butterfly / In-A-Gadda-Da-Vida [0:02:54.67]
04. Canned Heat / Going Up The Country [0:02:51.33]
05. Sonny & Cher / I Got You Babe [0:03:06.05]
06. Lemon Pipers / Green Tambourine [0:02:27.10]
07. Jefferson Airplane / Somebody To Love [0:02:59.10]
08. Blue Cheer / Summertime Blues [0:03:46.12]
09. Spooky Tooth / That Was Only Yesterday [0:03:52.18]
10. The Walker Brothers / The Sun Ain't Gonna Shine Anymore [0:03:02.52]
11. Procol Harum / A Whiter Shade Of Pale [0:04:05.30]
12. Peter Sarstedt / Where Do You Go To (My Lovely) [0:04:40.63]
13. The Moody Blues / Nights In White Satin [0:04:26.22]
14. Gerry & The Pacemakers / Ferry Cross The Mersey [0:02:24.35]
15. Tony Sheridan / Skinny Minny [0:03:59.70]
16. Manfred Mann / Do Wah Diddy Diddy [0:02:22.23]

LOG

Exact Audio Copy V1.0 beta 3 from 29. August 2011
Отчёт EAC об извлечении, выполненном 31. августа 2014, 15:56
V.A. / Pop Giganten (Hits der 60er) CD 2
Дисковод: ASUS DRW-1814BLT Adapter: 4 ID: 0
Режим чтения : Достоверность
Использование точного потока : Да
Отключение кэша аудио : Да
Использование указателей C2 : Нет
Коррекция смещения при чтении : 6
Способность читать области Lead-in и Lead-out : Нет
Заполнение пропущенных сэмплов тишиной : Да
Удаление блоков с тишиной в начале и конце : Нет
При вычислениях CRC использовались нулевые сэмплы : Да
Интерфейс : Встроенный Win32-интерфейс для Win NT/2000
Обработка зазоров : Добавлено к предыдущему треку
Выходной формат : Пользовательский кодировщик
Выбранный битрейт : 128 kBit/s
Качество : Высокий
Добавление ID3-тега : Нет
Утилита сжатия : C:\Program Files\Exact Audio Copy\Flac\flac.exe
Дополнительные параметры : -V -8 -T "Genre=%genre%" -T "Artist=%artist%" -T "Title=%title%" -T "Album=%albumtitle%" -T "Date=%year%" -T "Tracknumber=%tracknr%" -T "Comment=EAC1.0b2 FLAC -8" %source%
TOC извлечённого CD
Трек | Старт | Длительность | Начальный сектор | Конечный сектор
---------------------------------------------------------------------
1 | 0:00.33 | 4:24.32 | 33 | 19864
2 | 4:24.65 | 5:10.68 | 19865 | 43182
3 | 9:35.58 | 2:54.67 | 43183 | 56299
4 | 12:30.50 | 2:51.33 | 56300 | 69157
5 | 15:22.08 | 3:06.05 | 69158 | 83112
6 | 18:28.13 | 2:27.10 | 83113 | 94147
7 | 20:55.23 | 2:59.10 | 94148 | 107582
8 | 23:54.33 | 3:46.12 | 107583 | 124544
9 | 27:40.45 | 3:52.18 | 124545 | 141962
10 | 31:32.63 | 3:02.52 | 141963 | 155664
11 | 34:35.40 | 4:05.30 | 155665 | 174069
12 | 38:40.70 | 4:40.63 | 174070 | 195132
13 | 43:21.58 | 4:26.22 | 195133 | 215104
14 | 47:48.05 | 2:24.35 | 215105 | 225939
15 | 50:12.40 | 3:59.70 | 225940 | 243934
16 | 54:12.35 | 2:22.23 | 243935 | 254607
Трек 1
Имя файла R:\Раздача 22\VA - Pop Giganten - Hits Der 60er - 1991\CD 2\01 Magic Carpet Ride.wav
Длина предзазора 0:00:02.33
Пиковый уровень 100.0 %
Скорость извлечения 2.6 X
Качество трека 100.0 %
CRC теста F8BCBAAC
CRC копии F8BCBAAC
Точное извлечение (достоверность 11) [B74A2FDA] (AR v2)
Копирование... OK
Трек 2
Имя файла R:\Раздача 22\VA - Pop Giganten - Hits Der 60er - 1991\CD 2\02 With A Little Help From My Friends.wav
Длина предзазора 0:00:01.25
Пиковый уровень 88.2 %
Скорость извлечения 3.0 X
Качество трека 100.0 %
CRC теста C8EC78B5
CRC копии C8EC78B5
Точное извлечение (достоверность 11) [F032999B] (AR v2)
Копирование... OK
Трек 3
Имя файла R:\Раздача 22\VA - Pop Giganten - Hits Der 60er - 1991\CD 2\03 In-A-Gadda-Da-Vida.wav
Длина предзазора 0:00:01.25
Пиковый уровень 88.2 %
Скорость извлечения 3.0 X
Качество трека 100.0 %
CRC теста 12ABF3D6
CRC копии 12ABF3D6
Точное извлечение (достоверность 12) [B3D361FE] (AR v2)
Копирование... OK
Трек 4
Имя файла R:\Раздача 22\VA - Pop Giganten - Hits Der 60er - 1991\CD 2\04 Going Up The Country.wav
Длина предзазора 0:00:01.25
Пиковый уровень 75.8 %
Скорость извлечения 3.2 X
Качество трека 100.0 %
CRC теста F682A5D3
CRC копии F682A5D3
Точное извлечение (достоверность 12) [D698D96D] (AR v2)
Копирование... OK
Трек 5
Имя файла R:\Раздача 22\VA - Pop Giganten - Hits Der 60er - 1991\CD 2\05 I Got You Babe.wav
Длина предзазора 0:00:01.25
Пиковый уровень 88.2 %
Скорость извлечения 3.4 X
Качество трека 100.0 %
CRC теста 535C8FBB
CRC копии 535C8FBB
Точное извлечение (достоверность 12) [637D683F] (AR v2)
Копирование... OK
Трек 6
Имя файла R:\Раздача 22\VA - Pop Giganten - Hits Der 60er - 1991\CD 2\06 Green Tambourine.wav
Длина предзазора 0:00:01.25
Пиковый уровень 87.3 %
Скорость извлечения 3.3 X
Качество трека 100.0 %
CRC теста F5263F6E
CRC копии F5263F6E
Точное извлечение (достоверность 12) [0D68326D] (AR v2)
Копирование... OK
Трек 7
Имя файла R:\Раздача 22\VA - Pop Giganten - Hits Der 60er - 1991\CD 2\07 Somebody To Love.wav
Длина предзазора 0:00:01.25
Пиковый уровень 95.1 %
Скорость извлечения 3.6 X
Качество трека 100.0 %
CRC теста 51450D07
CRC копии 51450D07
Точное извлечение (достоверность 12) [057DAC2A] (AR v2)
Копирование... OK
Трек 8
Имя файла R:\Раздача 22\VA - Pop Giganten - Hits Der 60er - 1991\CD 2\08 Summertime Blues.wav
Длина предзазора 0:00:01.25
Пиковый уровень 88.2 %
Скорость извлечения 3.9 X
Качество трека 100.0 %
CRC теста A4EC847B
CRC копии A4EC847B
Точное извлечение (достоверность 10) [C8DE32E2] (AR v2)
Копирование... OK
Трек 9
Имя файла R:\Раздача 22\VA - Pop Giganten - Hits Der 60er - 1991\CD 2\09 That Was Only Yesterday.wav
Длина предзазора 0:00:01.25
Пиковый уровень 99.0 %
Скорость извлечения 4.1 X
Качество трека 100.0 %
CRC теста 831508EC
CRC копии 831508EC
Точное извлечение (достоверность 11) [93E12B61] (AR v2)
Копирование... OK
Трек 10
Имя файла R:\Раздача 22\VA - Pop Giganten - Hits Der 60er - 1991\CD 2\10 The Sun Ain't Gonna Shine Anymore.wav
Длина предзазора 0:00:01.25
Пиковый уровень 88.2 %
Скорость извлечения 4.1 X
Качество трека 100.0 %
CRC теста 20F36F04
CRC копии 20F36F04
Точное извлечение (достоверность 12) [4D6FFC13] (AR v2)
Копирование... OK
Трек 11
Имя файла R:\Раздача 22\VA - Pop Giganten - Hits Der 60er - 1991\CD 2\11 A Whiter Shade Of Pale.wav
Длина предзазора 0:00:01.25
Пиковый уровень 82.8 %
Скорость извлечения 4.5 X
Качество трека 100.0 %
CRC теста 62C4E86A
CRC копии 62C4E86A
Точное извлечение (достоверность 10) [FA7E4EBA] (AR v2)
Копирование... OK
Трек 12
Имя файла R:\Раздача 22\VA - Pop Giganten - Hits Der 60er - 1991\CD 2\12 Where Do You Go To (My Lovely).wav
Длина предзазора 0:00:01.25
Пиковый уровень 82.3 %
Скорость извлечения 2.8 X
Качество трека 99.9 %
CRC теста 7E0988F1
CRC копии 7E0988F1
Точное извлечение (достоверность 11) [1B5BAD98] (AR v2)
Копирование... OK
Трек 13
Имя файла R:\Раздача 22\VA - Pop Giganten - Hits Der 60er - 1991\CD 2\13 Nights In White Satin.wav
Длина предзазора 0:00:01.25
Пиковый уровень 99.3 %
Скорость извлечения 4.8 X
Качество трека 100.0 %
CRC теста 80F70DE3
CRC копии 80F70DE3
Точное извлечение (достоверность 10) [40476016] (AR v2)
Копирование... OK
Трек 14
Имя файла R:\Раздача 22\VA - Pop Giganten - Hits Der 60er - 1991\CD 2\14 Ferry Cross The Mersey.wav
Длина предзазора 0:00:01.25
Пиковый уровень 84.3 %
Скорость извлечения 4.5 X
Качество трека 100.0 %
CRC теста 1539E40E
CRC копии 1539E40E
Точное извлечение (достоверность 10) [BA17A0F5] (AR v2)
Копирование... OK
Трек 15
Имя файла R:\Раздача 22\VA - Pop Giganten - Hits Der 60er - 1991\CD 2\15 Skinny Minny.wav
Длина предзазора 0:00:01.25
Пиковый уровень 90.0 %
Скорость извлечения 5.0 X
Качество трека 100.0 %
CRC теста 9EA0C70B
CRC копии 9EA0C70B
Точное извлечение (достоверность 11) [226F1184] (AR v2)
Копирование... OK
Трек 16
Имя файла R:\Раздача 22\VA - Pop Giganten - Hits Der 60er - 1991\CD 2\16 Do Wah Diddy Diddy.wav
Длина предзазора 0:00:01.25
Пиковый уровень 89.7 %
Скорость извлечения 4.7 X
Качество трека 100.0 %
CRC теста A8270991
CRC копии A8270991
Точное извлечение (достоверность 11) [E5304FA6] (AR v2)
Копирование... OK
Все треки извлечены точно
Ошибок не произошло
Конец отчёта
==== Контрольная сумма отчёта 7F21A07DCBF78231510AB4BED9912952511235808C8FAB6DBCB31C9A07D9F95B ====

CUE

REM GENRE "Classic Rock"
REM DATE 1991
REM DISCID D00D4210
REM COMMENT "ExactAudioCopy v1.0b3"
PERFORMER "V.A."
TITLE "Pop Giganten (Hits der 60er) CD 2"
FILE "01 Magic Carpet Ride.wav" WAVE
TRACK 01 AUDIO
TITLE "Magic Carpet Ride"
PERFORMER "Steppenwolf"
PREGAP 00:00:33
INDEX 01 00:00:00
TRACK 02 AUDIO
TITLE "With A Little Help From My Friends"
PERFORMER "Joe Cocker"
INDEX 00 04:23:07
FILE "02 With A Little Help From My Friends.wav" WAVE
INDEX 01 00:00:00
TRACK 03 AUDIO
TITLE "In-A-Gadda-Da-Vida"
PERFORMER "Iron Butterfly"
INDEX 00 05:09:43
FILE "03 In-A-Gadda-Da-Vida.wav" WAVE
INDEX 01 00:00:00
TRACK 04 AUDIO
TITLE "Going Up The Country"
PERFORMER "Canned Heat"
INDEX 00 02:53:42
FILE "04 Going Up The Country.wav" WAVE
INDEX 01 00:00:00
TRACK 05 AUDIO
TITLE "I Got You Babe"
PERFORMER "Sonny & Cher "
INDEX 00 02:50:08
FILE "05 I Got You Babe.wav" WAVE
INDEX 01 00:00:00
TRACK 06 AUDIO
TITLE "Green Tambourine"
PERFORMER "Lemon Pipers"
INDEX 00 03:04:55
FILE "06 Green Tambourine.wav" WAVE
INDEX 01 00:00:00
TRACK 07 AUDIO
TITLE "Somebody To Love"
PERFORMER "Jefferson Airplane"
INDEX 00 02:25:60
FILE "07 Somebody To Love.wav" WAVE
INDEX 01 00:00:00
TRACK 08 AUDIO
TITLE "Summertime Blues"
PERFORMER "Blue Cheer"
INDEX 00 02:57:60
FILE "08 Summertime Blues.wav" WAVE
INDEX 01 00:00:00
TRACK 09 AUDIO
TITLE "That Was Only Yesterday"
PERFORMER "Spooky Tooth"
INDEX 00 03:44:62
FILE "09 That Was Only Yesterday.wav" WAVE
INDEX 01 00:00:00
TRACK 10 AUDIO
TITLE "The Sun Ain't Gonna Shine Anymore"
PERFORMER "The Walker Brothers"
INDEX 00 03:50:68
FILE "10 The Sun Ain't Gonna Shine Anymore.wav" WAVE
INDEX 01 00:00:00
TRACK 11 AUDIO
TITLE "A Whiter Shade Of Pale"
PERFORMER "Procol Harum"
INDEX 00 03:01:27
FILE "11 A Whiter Shade Of Pale.wav" WAVE
INDEX 01 00:00:00
TRACK 12 AUDIO
TITLE "Where Do You Go To (My Lovely)"
PERFORMER "Peter Sarstedt"
INDEX 00 04:04:05
FILE "12 Where Do You Go To (My Lovely).wav" WAVE
INDEX 01 00:00:00
TRACK 13 AUDIO
TITLE "Nights In White Satin"
PERFORMER "The Moody Blues"
INDEX 00 04:39:38
FILE "13 Nights In White Satin.wav" WAVE
INDEX 01 00:00:00
TRACK 14 AUDIO
TITLE "Ferry Cross The Mersey"
PERFORMER "Gerry & The Pacemakers"
INDEX 00 04:24:72
FILE "14 Ferry Cross The Mersey.wav" WAVE
INDEX 01 00:00:00
TRACK 15 AUDIO
TITLE "Skinny Minny"
PERFORMER "Tony Sheridan"
INDEX 00 02:23:10
FILE "15 Skinny Minny.wav" WAVE
INDEX 01 00:00:00
TRACK 16 AUDIO
TITLE "Do Wah Diddy Diddy"
PERFORMER "Manfred Mann"
INDEX 00 03:58:45
FILE "16 Do Wah Diddy Diddy.wav" WAVE
INDEX 01 00:00:00

To download the file disable ad blocking, and reload the page.

disable adblock How to disable ad blocking?

Download by magnet link 630 MB Download Torrent

Login using:

Similar topics



   
Current time is: 20-Sep 00:42 :: All times are UTC ± 0