Vatican / March of the Kings
Жанр: Heavy Metal
Носитель: CD
Страна-производитель диска (релиза): Germany
Год издания: 2017
Издатель (лейбл): Pure Steel Records
Номер по каталогу: PSRCD139
Страна исполнителя (группы): USA
Аудиокодек: FLAC (*.flac)
Тип рипа: image+.cue
Битрейт аудио: lossless
Продолжительность: 00:39:48
Источник (релизер): Свой рип
Наличие сканов в содержимом раздачи: да
Треклист:
1. Alive to the Grave
2. Deadly Winds
3. Running
4. Mean Streak
5. Falling from Grace
6. Wasted
7. Fears Garden
8. Die a Heart Attack
9. Corruption
10. Opus #9

Лог создания рипа

Exact Audio Copy V1.0 beta 6 from 9. April 2015
EAC extraction logfile from 15. May 2017, 19:45
Vatican / March of the Kings
Used drive : Optiarc DVD RW AD-7700S Adapter: 1 ID: 1
Read mode : Secure
Utilize accurate stream : Yes
Defeat audio cache : Yes
Make use of C2 pointers : No
Read offset correction : 48
Overread into Lead-In and Lead-Out : No
Fill up missing offset samples with silence : Yes
Delete leading and trailing silent blocks : No
Null samples used in CRC calculations : Yes
Used interface : Native Win32 interface for Win NT & 2000
Used output format : User Defined Encoder
Selected bitrate : 1024 kBit/s
Quality : High
Add ID3 tag : No
Command line compressor : C:\Program Files (x86)\Exact Audio Copy\FLAC\FLAC.EXE
Additional command line options : -V -8 -T "Date=%year%" -T "Genre=%genre%" %source%
TOC of the extracted CD
Track | Start | Length | Start sector | End sector
---------------------------------------------------------
1 | 0:00.00 | 5:44.34 | 0 | 25833
2 | 5:44.34 | 4:29.05 | 25834 | 46013
3 | 10:13.39 | 3:07.43 | 46014 | 60081
4 | 13:21.07 | 3:55.71 | 60082 | 77777
5 | 17:17.03 | 3:50.21 | 77778 | 95048
6 | 21:07.24 | 4:24.70 | 95049 | 114918
7 | 25:32.19 | 3:28.37 | 114919 | 130555
8 | 29:00.56 | 3:53.25 | 130556 | 148055
9 | 32:54.06 | 3:38.62 | 148056 | 164467
10 | 36:32.68 | 3:14.58 | 164468 | 179075
Range status and errors
Selected range
Filename C:\Users\Олег\Desktop\Vatican - March of the Kings.wav
Peak level 96.4 %
Extraction speed 4.1 X
Range quality 100.0 %
Test CRC 07E7E1E2
Copy CRC 07E7E1E2
Copy OK
No errors occurred
AccurateRip summary
Track 1 not present in database
Track 2 not present in database
Track 3 not present in database
Track 4 not present in database
Track 5 not present in database
Track 6 not present in database
Track 7 not present in database
Track 8 not present in database
Track 9 not present in database
Track 10 not present in database
None of the tracks are present in the AccurateRip database
End of status report
---- CUETools DB Plugin V2.1.6
[CTDB TOCID: JcUVMMJiOqjULnmAO.P_0LPB4Vo-] found
Submit result: JcUVMMJiOqjULnmAO.P_0LPB4Vo- has been confirmed
Track | CTDB Status
1 | (1/1) Accurately ripped
2 | (1/1) Accurately ripped
3 | (1/1) Accurately ripped
4 | (1/1) Accurately ripped
5 | (1/1) Accurately ripped
6 | (1/1) Accurately ripped
7 | (1/1) Accurately ripped
8 | (1/1) Accurately ripped
9 | (1/1) Accurately ripped
10 | (1/1) Accurately ripped
==== Log checksum 22C9DC4A40C713144A65414495FBB5BAC93678F76AE6ADAA90E62C0440662002 ====

Состав

Brian McNasty : Bass Guitar&Vocals
Vic Gribouski : Drums
Vincent j Vatican : Guitar

To download the file disable ad blocking, and reload the page.

disable adblock How to disable ad blocking?

Download by magnet link 334 MB Download Torrent

Login using:

Загрузка...

Similar topics

(Heavy Metal) Furious - Dead Mark - 2017, MP3, 320 kbps
 179 MB   0 | 0   26-May-17 21:27   0
(Heavy / Power Metal) Afterdreams - Nightmare - 2017, MP3, 320 kbps
 111 MB   0 | 0   26-May-17 21:27   1
(Heavy Metal, Groove Metal) Blaxem - Who Cares - 2017, MP3, 320 kbps
 86 MB   0 | 0   26-May-17 21:27   0
(Heavy Metal/Progressive) Wine Guardian - Onirica - 2017, MP3, 320 kbps
 115 MB   0 | 0   26-May-17 21:27   0


   
Current time is: 16-Dec 06:46 :: All times are UTC + 3