-Kiuas - Дискография (5CD)- Жанр: Power Metal
Носитель: CD
Год издания: 2005-2010
Издатель (лейбл): Universal Music Japan/Spinefarm Records
Страна-производитель диска: Japan/Germany/EU
Страна исполнителя: Finland (Helsinki)
Аудиокодек: FLAC (*.flac)
Тип рипа: image+.cue
Битрейт аудио: lossless
Продолжительность: 03:57:55
Источник (релизер): Собственные CD
Наличие сканов: Да (Complete 600 DPI)
Доп. информация: Encyclopaedia Metallum
-

2005 - [CD] The Spirit Of Ukko (Original Recording) (Spinefarm Records SPI226CD) [00:42:23]

01. The Spirit of Ukko
02. On Winds of Death We Ride
03. No More Sleep for Me
04. Warrior Soul
05. Until We Reach the Shore
06. Across the Snows
07. Thorns of a Black Rose
08. And the North Star Cried
Ilja Jalkanen - Vocals
Markku Näreneva - Drums
Atte Tanskanen - Keyboards
Mikko Salovaara - Guitars
Teemu Tuominen - Bass

Лог создания рипа

Exact Audio Copy V1.3 from 2. September 2016
EAC extraction logfile from 14. May 2017, 10:49
Kiuas / The Spirit of Ukko
Used drive : ATAPI iHAS122 W Adapter: 2 ID: 0
Read mode : Secure
Utilize accurate stream : Yes
Defeat audio cache : Yes
Make use of C2 pointers : No
Read offset correction : 48
Overread into Lead-In and Lead-Out : No
Fill up missing offset samples with silence : Yes
Delete leading and trailing silent blocks : No
Null samples used in CRC calculations : Yes
Used interface : Installed external ASPI interface
Used output format : User Defined Encoder
Selected bitrate : 1024 kBit/s
Quality : High
Add ID3 tag : No
Command line compressor : C:\Program Files\FLAC\flac.exe
Additional command line options : -V -8 -T "Date=%year%" -T "Genre=%genre%" -T"COMMENT=Ripped by Ilijan - ilko" -8 -V %source%
TOC of the extracted CD
Track | Start | Length | Start sector | End sector
---------------------------------------------------------
1 | 0:00.00 | 5:52.19 | 0 | 26418
2 | 5:52.19 | 4:21.60 | 26419 | 46053
3 | 10:14.04 | 4:05.70 | 46054 | 64498
4 | 14:19.74 | 5:49.18 | 64499 | 90691
5 | 20:09.17 | 4:27.49 | 90692 | 110765
6 | 24:36.66 | 5:59.10 | 110766 | 137700
7 | 30:36.01 | 4:48.41 | 137701 | 159341
8 | 35:24.42 | 6:58.57 | 159342 | 190748
Range status and errors
Selected range
Filename D:\ilko\Kiuas - The Spirit of Ukko.wav
Peak level 100.0 %
Extraction speed 3.7 X
Range quality 100.0 %
Test CRC DBF6C647
Copy CRC DBF6C647
Copy OK
No errors occurred
AccurateRip summary
Track 1 accurately ripped (confidence 12) [38DF7C35] (AR v2)
Track 2 accurately ripped (confidence 12) [435BD61A] (AR v2)
Track 3 accurately ripped (confidence 12) [D55357B0] (AR v2)
Track 4 accurately ripped (confidence 12) [496167C9] (AR v2)
Track 5 accurately ripped (confidence 12) [EE8AA325] (AR v2)
Track 6 accurately ripped (confidence 12) [0D07066E] (AR v2)
Track 7 accurately ripped (confidence 12) [7696E8B6] (AR v2)
Track 8 accurately ripped (confidence 12) [A5DF527B] (AR v2)
All tracks accurately ripped
End of status report
---- CUETools DB Plugin V2.1.6
[CTDB TOCID: 58PQU_nTuzk3IQ2he6CNxY2trco-] found
Submit result: 58PQU_nTuzk3IQ2he6CNxY2trco- has been confirmed
Track | CTDB Status
1 | (16/16) Accurately ripped
2 | (16/16) Accurately ripped
3 | (16/16) Accurately ripped
4 | (16/16) Accurately ripped
5 | (16/16) Accurately ripped
6 | (16/16) Accurately ripped
7 | (16/16) Accurately ripped
8 | (16/16) Accurately ripped
==== Log checksum 98E926BB65C4C7C6930C0FBDCE5D205D5E4A63D68B94DF5E9A7E9D2A5EDD88AD ====
-

2005 - [CD] The Spirit Of Ukko (Japanese Edition) (Universal Music Japan UICO-1083) [00:46:54]

01. The Spirit of Ukko
02. On Winds of Death We Ride
03. No More Sleep for Me
04. Warrior Soul
05. Until We Reach the Shore
06. Across the Snows
07. Thorns of a Black Rose
08. And the North Star Cried
09. Winter in June (Bonus Track)
Ilja Jalkanen - Vocals
Markku Näreneva - Drums
Atte Tanskanen - Keyboards
Mikko Salovaara - Guitars
Teemu Tuominen - Bass

Лог создания рипа

Exact Audio Copy V1.3 from 2. September 2016
EAC extraction logfile from 16. May 2017, 16:11
Kiuas / The Spirit of Ukko (Japan)
Used drive : ATAPI iHAS122 W Adapter: 2 ID: 0
Read mode : Secure
Utilize accurate stream : Yes
Defeat audio cache : Yes
Make use of C2 pointers : No
Read offset correction : 48
Overread into Lead-In and Lead-Out : No
Fill up missing offset samples with silence : Yes
Delete leading and trailing silent blocks : No
Null samples used in CRC calculations : Yes
Used interface : Installed external ASPI interface
Used output format : User Defined Encoder
Selected bitrate : 1024 kBit/s
Quality : High
Add ID3 tag : No
Command line compressor : C:\Program Files\FLAC\flac.exe
Additional command line options : -V -8 -T "Date=%year%" -T "Genre=%genre%" -T"COMMENT=Ripped by Ilijan - ilko" -8 -V %source%
TOC of the extracted CD
Track | Start | Length | Start sector | End sector
---------------------------------------------------------
1 | 0:00.00 | 5:52.19 | 0 | 26418
2 | 5:52.19 | 4:21.60 | 26419 | 46053
3 | 10:14.04 | 4:05.70 | 46054 | 64498
4 | 14:19.74 | 5:49.18 | 64499 | 90691
5 | 20:09.17 | 4:27.49 | 90692 | 110765
6 | 24:36.66 | 5:59.10 | 110766 | 137700
7 | 30:36.01 | 4:48.41 | 137701 | 159341
8 | 35:24.42 | 7:03.54 | 159342 | 191120
9 | 42:28.21 | 4:25.64 | 191121 | 211059
Range status and errors
Selected range
Filename D:\ilko\Kiuas - The Spirit of Ukko (Japan).wav
Peak level 100.0 %
Extraction speed 3.7 X
Range quality 100.0 %
Test CRC 5E12E31A
Copy CRC 5E12E31A
Copy OK
No errors occurred
AccurateRip summary
Track 1 accurately ripped (confidence 3) [0C7B55E2] (AR v2)
Track 2 accurately ripped (confidence 3) [587E8157] (AR v2)
Track 3 accurately ripped (confidence 3) [5C243370] (AR v2)
Track 4 accurately ripped (confidence 3) [6507B834] (AR v2)
Track 5 accurately ripped (confidence 3) [12777A29] (AR v2)
Track 6 accurately ripped (confidence 3) [177BE500] (AR v2)
Track 7 accurately ripped (confidence 3) [7F0BC956] (AR v2)
Track 8 accurately ripped (confidence 3) [EF7870D4] (AR v2)
Track 9 accurately ripped (confidence 3) [11AF1A28] (AR v2)
All tracks accurately ripped
End of status report
---- CUETools DB Plugin V2.1.6
[CTDB TOCID: L_vi0i3ipwvvPQbhHDBq79IGrVs-] found
Submit result: L_vi0i3ipwvvPQbhHDBq79IGrVs- has been confirmed
Track | CTDB Status
1 | (6/6) Accurately ripped
2 | (6/6) Accurately ripped
3 | (6/6) Accurately ripped
4 | (6/6) Accurately ripped
5 | (6/6) Accurately ripped
6 | (6/6) Accurately ripped
7 | (6/6) Accurately ripped
8 | (6/6) Accurately ripped
9 | (6/6) Accurately ripped
==== Log checksum FAB0DC9D8F65FC734BC39573B620F0BE17F6A0F007779313E760CB5D19B10B4D ====
-

2006 - [CD] Reformation (Japanese Edition) (Universal Music Japan UICO-1114) [00:49:08]

01. Race with the Falcons
02. Through the Ice Age
03. The New Chapter
04. Of Ancient Wounds
05. Child of Cimmeria
06. Black Winged Goddess
07. Heart of the Serpent
08. Bleeding Strings
09. Call of the Horns
10. Reformation (Wrath of the Old Gods)
11. Hunting Girl (Jethro Tull Cover) (Bonus Track)
Ilja Jalkanen - Vocals
Markku Näreneva - Drums
Atte Tanskanen - Keyboards
Mikko Salovaara - Guitars
Teemu Tuominen - Bass

Лог создания рипа

Exact Audio Copy V1.3 from 2. September 2016
EAC extraction logfile from 16. May 2017, 16:41
Kiuas / Reformation (Japan)
Used drive : ATAPI iHAS122 W Adapter: 2 ID: 0
Read mode : Secure
Utilize accurate stream : Yes
Defeat audio cache : Yes
Make use of C2 pointers : No
Read offset correction : 48
Overread into Lead-In and Lead-Out : No
Fill up missing offset samples with silence : Yes
Delete leading and trailing silent blocks : No
Null samples used in CRC calculations : Yes
Used interface : Installed external ASPI interface
Used output format : User Defined Encoder
Selected bitrate : 1024 kBit/s
Quality : High
Add ID3 tag : No
Command line compressor : C:\Program Files\FLAC\flac.exe
Additional command line options : -V -8 -T "Date=%year%" -T "Genre=%genre%" -T"COMMENT=Ripped by Ilijan - ilko" -8 -V %source%
TOC of the extracted CD
Track | Start | Length | Start sector | End sector
---------------------------------------------------------
1 | 0:00.00 | 4:47.56 | 0 | 21580
2 | 4:47.56 | 3:58.34 | 21581 | 39464
3 | 8:46.15 | 4:25.21 | 39465 | 59360
4 | 13:11.36 | 3:32.44 | 59361 | 75304
5 | 16:44.05 | 1:06.10 | 75305 | 80264
6 | 17:50.15 | 5:21.35 | 80265 | 104374
7 | 23:11.50 | 4:57.60 | 104375 | 126709
8 | 28:09.35 | 5:50.34 | 126710 | 152993
9 | 33:59.69 | 3:41.08 | 152994 | 169576
10 | 37:41.02 | 6:18.71 | 169577 | 197997
11 | 43:59.73 | 5:08.48 | 197998 | 221145
Range status and errors
Selected range
Filename D:\ilko\Kiuas - Reformation (Japan).wav
Peak level 97.7 %
Extraction speed 3.8 X
Range quality 100.0 %
Test CRC 3B02D542
Copy CRC 3B02D542
Copy OK
No errors occurred
AccurateRip summary
Track 1 accurately ripped (confidence 1) [4931092C] (AR v2)
Track 2 accurately ripped (confidence 1) [9F642D76] (AR v2)
Track 3 accurately ripped (confidence 1) [ACC6D9BB] (AR v2)
Track 4 accurately ripped (confidence 1) [0AE9BA10] (AR v2)
Track 5 accurately ripped (confidence 1) [333355F2] (AR v2)
Track 6 accurately ripped (confidence 1) [90055498] (AR v2)
Track 7 accurately ripped (confidence 1) [16063262] (AR v2)
Track 8 accurately ripped (confidence 1) [560DE8EA] (AR v2)
Track 9 accurately ripped (confidence 1) [873A9DA3] (AR v2)
Track 10 accurately ripped (confidence 1) [6DE6BB18] (AR v2)
Track 11 accurately ripped (confidence 1) [21AFCC99] (AR v2)
All tracks accurately ripped
End of status report
---- CUETools DB Plugin V2.1.6
[CTDB TOCID: bB0qryMQowMOjBpY4LkHwBXKcak-] found
Submit result: already submitted
Track | CTDB Status
1 | (4/4) Accurately ripped
2 | (4/4) Accurately ripped
3 | (4/4) Accurately ripped
4 | (4/4) Accurately ripped
5 | (4/4) Accurately ripped
6 | (4/4) Accurately ripped
7 | (4/4) Accurately ripped
8 | (4/4) Accurately ripped
9 | (4/4) Accurately ripped
10 | (4/4) Accurately ripped
11 | (4/4) Accurately ripped
==== Log checksum 46D948C47E160754540B80452776F97F7A90192C2A4A3EAE99E5EDAB9B5B614D ====
-

2008 - [CD] The New Dark Age (Original Recording) (Spinefarm Records SPI316CD) [00:51:26]

01. The Decaying Doctrine
02. Conqueror
03. Kiuas War Anthem
04. The New Dark Age
05. To Excel and Ascend
06. Black Rose Withered
07. After the Storm
08. Of Sacrifice, Loss and Reward
09. The Summoning
10. The Wanderer's Lamentation
Ilja Jalkanen - Vocals
Markku Näreneva - Drums
Atte Tanskanen - Keyboards
Mikko Salovaara - Guitars
Teemu Tuominen - Bass

Лог создания рипа

Exact Audio Copy V1.3 from 2. September 2016
EAC extraction logfile from 16. May 2017, 15:41
Kiuas / The New Dark Age
Used drive : ATAPI iHAS122 W Adapter: 2 ID: 0
Read mode : Secure
Utilize accurate stream : Yes
Defeat audio cache : Yes
Make use of C2 pointers : No
Read offset correction : 48
Overread into Lead-In and Lead-Out : No
Fill up missing offset samples with silence : Yes
Delete leading and trailing silent blocks : No
Null samples used in CRC calculations : Yes
Used interface : Installed external ASPI interface
Used output format : User Defined Encoder
Selected bitrate : 1024 kBit/s
Quality : High
Add ID3 tag : No
Command line compressor : C:\Program Files\FLAC\flac.exe
Additional command line options : -V -8 -T "Date=%year%" -T "Genre=%genre%" -T"COMMENT=Ripped by Ilijan - ilko" -8 -V %source%
TOC of the extracted CD
Track | Start | Length | Start sector | End sector
---------------------------------------------------------
1 | 0:00.00 | 4:52.10 | 0 | 21909
2 | 4:52.10 | 5:06.01 | 21910 | 44860
3 | 9:58.11 | 4:36.10 | 44861 | 65570
4 | 14:34.21 | 5:03.31 | 65571 | 88326
5 | 19:37.52 | 5:54.42 | 88327 | 114918
6 | 25:32.19 | 3:49.66 | 114919 | 132159
7 | 29:22.10 | 5:39.63 | 132160 | 157647
8 | 35:01.73 | 4:41.56 | 157648 | 178778
9 | 39:43.54 | 4:58.28 | 178779 | 201156
10 | 44:42.07 | 6:44.50 | 201157 | 231506
Range status and errors
Selected range
Filename D:\ilko\Kiuas - The New Dark Age.wav
Peak level 97.7 %
Extraction speed 3.9 X
Range quality 100.0 %
Test CRC 3CEC416B
Copy CRC 3CEC416B
Copy OK
No errors occurred
AccurateRip summary
Track 1 accurately ripped (confidence 6) [D6BA34F1] (AR v2)
Track 2 accurately ripped (confidence 6) [B5E3A4B7] (AR v2)
Track 3 accurately ripped (confidence 6) [6DAD12F6] (AR v2)
Track 4 accurately ripped (confidence 6) [AD3A7183] (AR v2)
Track 5 accurately ripped (confidence 6) [F482CB08] (AR v2)
Track 6 accurately ripped (confidence 6) [9DC2B50B] (AR v2)
Track 7 accurately ripped (confidence 6) [F315E9E6] (AR v2)
Track 8 accurately ripped (confidence 5) [A85B3356] (AR v2)
Track 9 accurately ripped (confidence 6) [69CBDC27] (AR v2)
Track 10 accurately ripped (confidence 6) [897195BC] (AR v2)
All tracks accurately ripped
End of status report
---- CUETools DB Plugin V2.1.6
[CTDB TOCID: nCOc2P.qWir6mmrPIQRs5yQoXtg-] found
Submit result: nCOc2P.qWir6mmrPIQRs5yQoXtg- has been confirmed
Track | CTDB Status
1 | (11/11) Accurately ripped
2 | (11/11) Accurately ripped
3 | (11/11) Accurately ripped
4 | ( 8/11) Accurately ripped, or (3/11) differs in 1022 samples @00:55:46-00:55:47
5 | (11/11) Accurately ripped
6 | (11/11) Accurately ripped
7 | (11/11) Accurately ripped
8 | (11/11) Accurately ripped
9 | (11/11) Accurately ripped
10 | (11/11) Accurately ripped
==== Log checksum C699F81ACFC2EE7FC58884027D52F7B64D36655FE7C48648DA3758FC817EA95B ====
-

2010 - [CD] Lustdriven (Original Recording) (Spinefarm Records SPI366CD) [00:48:44]

01. Kiuassault
02. Cry Little Angel
03. Of Love, Lust and Human Nature
04. Aftermath
05. Lights Are Many
06. The Visionary
07. Heart and Will
08. The Quickening
09. Summer's End
10. Winter's Sting
Ilja Jalkanen - Vocals
Markku Näreneva - Drums
Atte Tanskanen - Keyboards
Mikko Salovaara - Guitars
Teemu Tuominen - Bass

Лог создания рипа

Exact Audio Copy V1.3 from 2. September 2016
EAC extraction logfile from 16. May 2017, 15:11
Kiuas / Lustdriven
Used drive : ATAPI iHAS122 W Adapter: 2 ID: 0
Read mode : Secure
Utilize accurate stream : Yes
Defeat audio cache : Yes
Make use of C2 pointers : No
Read offset correction : 48
Overread into Lead-In and Lead-Out : No
Fill up missing offset samples with silence : Yes
Delete leading and trailing silent blocks : No
Null samples used in CRC calculations : Yes
Used interface : Installed external ASPI interface
Used output format : User Defined Encoder
Selected bitrate : 1024 kBit/s
Quality : High
Add ID3 tag : No
Command line compressor : C:\Program Files\FLAC\flac.exe
Additional command line options : -V -8 -T "Date=%year%" -T "Genre=%genre%" -T"COMMENT=Ripped by Ilijan - ilko" -8 -V %source%
TOC of the extracted CD
Track | Start | Length | Start sector | End sector
---------------------------------------------------------
1 | 0:00.00 | 4:36.65 | 0 | 20764
2 | 4:36.65 | 3:58.70 | 20765 | 38684
3 | 8:35.60 | 4:04.58 | 38685 | 57042
4 | 12:40.43 | 5:22.35 | 57043 | 81227
5 | 18:03.03 | 4:52.22 | 81228 | 103149
6 | 22:55.25 | 6:33.45 | 103150 | 132669
7 | 29:28.70 | 4:31.68 | 132670 | 153062
8 | 34:00.63 | 4:00.00 | 153063 | 171062
9 | 38:00.63 | 5:01.58 | 171063 | 193695
10 | 43:02.46 | 5:42.11 | 193696 | 219356
Range status and errors
Selected range
Filename D:\ilko\Kiuas - Lustdriven.wav
Peak level 98.4 %
Extraction speed 3.1 X
Range quality 100.0 %
Test CRC 1D16F712
Copy CRC 1D16F712
Copy OK
No errors occurred
AccurateRip summary
Track 1 accurately ripped (confidence 12) [266C78A0] (AR v2)
Track 2 accurately ripped (confidence 12) [927A7701] (AR v2)
Track 3 accurately ripped (confidence 12) [254347EE] (AR v2)
Track 4 accurately ripped (confidence 12) [4A4A1273] (AR v2)
Track 5 accurately ripped (confidence 12) [832F2C4C] (AR v2)
Track 6 accurately ripped (confidence 12) [85CFDA6B] (AR v2)
Track 7 accurately ripped (confidence 12) [F70763A1] (AR v2)
Track 8 accurately ripped (confidence 11) [88948EEE] (AR v2)
Track 9 accurately ripped (confidence 12) [3C2F13EE] (AR v2)
Track 10 accurately ripped (confidence 12) [BB818CAB] (AR v2)
All tracks accurately ripped
End of status report
---- CUETools DB Plugin V2.1.6
[CTDB TOCID: c_sdlBSwYOZTSLLvGsnrr6OO2Fk-] found
Submit result: c_sdlBSwYOZTSLLvGsnrr6OO2Fk- has been confirmed
Track | CTDB Status
1 | (14/14) Accurately ripped
2 | (14/14) Accurately ripped
3 | (14/14) Accurately ripped
4 | (14/14) Accurately ripped
5 | (14/14) Accurately ripped
6 | (14/14) Accurately ripped
7 | (12/14) Accurately ripped, or (2/14) differs in 3 samples @00:40:53
8 | (14/14) Accurately ripped
9 | (14/14) Accurately ripped
10 | (14/14) Accurately ripped
==== Log checksum 5AB4FD9887F904287357723C30356336DED93469C189958D7A3DE83B7EBD5322 ====
-

To download the file disable ad blocking, and reload the page.

disable adblock How to disable ad blocking?

Download by magnet link 1.99 GB Download Torrent

Login using:

Загрузка...

Similar topics



   
Current time is: 18-Dec 19:54 :: All times are UTC + 3