Жанр: Heavy/Power Metal || Год издания: 1989 - 2008 || Страна: United Kingdom
Аудиокодек: FLAC (*.flac) || Тип рипа: image+.cue || Битрейт аудио: lossless
Источник (релизер): spiralarch (спасибо ему)
Наличие сканов в содержимом раздачи: да

1989 - Marshall Law ; 00:40:35.30

Издатель (лейбл): Heavy Metal Records
Номер по каталогу: HMR XD 138
Страна-производитель диска: W. Germany
Треклист:
01. Armageddon [0:01:22.35]
02. Under The Hammer [0:03:48.10]
03. Rock The Nation [0:02:31.12]
04. Marshall Law [0:04:01.13]
05. Hearts And Thunder [0:04:05.37]
06. Screaming [0:05:08.48]
07. We're Hot [0:03:17.62]
08. Feel It [0:03:51.13]
09. System X [0:05:04.22]
10. Future Shock [0:03:30.43]
11. When Will It End? [0:03:52.02]

Лог создания рипа

Exact Audio Copy V1.0 beta 1 from 15. November 2010
EAC extraction logfile from 11. May 2012, 18:51
Marshall Law / Marshall Law
Used drive : Optiarc DVD RW AD-7240S Adapter: 2 ID: 0
Read mode : Secure
Utilize accurate stream : Yes
Defeat audio cache : Yes
Make use of C2 pointers : No
Read offset correction : 48
Overread into Lead-In and Lead-Out : No
Fill up missing offset samples with silence : Yes
Delete leading and trailing silent blocks : No
Null samples used in CRC calculations : Yes
Used interface : Native Win32 interface for Win NT & 2000
Used output format : Internal WAV Routines
Sample format : 44.100 Hz; 16 Bit; Stereo
TOC of the extracted CD
Track | Start | Length | Start sector | End sector
---------------------------------------------------------
1 | 0:00.33 | 1:22.35 | 33 | 6217
2 | 1:22.68 | 3:48.10 | 6218 | 23327
3 | 5:11.03 | 2:31.12 | 23328 | 34664
4 | 7:42.15 | 4:01.13 | 34665 | 52752
5 | 11:43.28 | 4:05.37 | 52753 | 71164
6 | 15:48.65 | 5:08.48 | 71165 | 94312
7 | 20:57.38 | 3:17.62 | 94313 | 109149
8 | 24:15.25 | 3:51.13 | 109150 | 126487
9 | 28:06.38 | 5:04.22 | 126488 | 149309
10 | 33:10.60 | 3:30.43 | 149310 | 165102
11 | 36:41.28 | 3:52.02 | 165103 | 182504
Range status and errors
Selected range
Filename D:\spiralarch\Marshall Law - Marshall Law.wav
Peak level 80.5 %
Extraction speed 0.3 X
Range quality 99.9 %
Test CRC 14697B84
Copy CRC 14697B84
Copy OK
No errors occurred
AccurateRip summary
Track 1 not present in database
Track 2 not present in database
Track 3 not present in database
Track 4 not present in database
Track 5 not present in database
Track 6 not present in database
Track 7 not present in database
Track 8 not present in database
Track 9 not present in database
Track 10 not present in database
Track 11 not present in database
None of the tracks are present in the AccurateRip database
End of status report
==== Log checksum C97ECCD3A4DCC898DE960235F53EC237B22B02567FB3EF1225D560F718E6294C ====

Об альбоме (сборнике)

I'll admit, I know very little about Marshall Law. I've been a fan of classic/traditional heavy metal for many many years and I only recently stumbled upon them by accident. But I must say, I was very impressed with what I heard. The band (at least on this album) sound kinda like early 80's Priest (eg SFV) mixed with "Keepers" era Helloween.
The songs range from mid paced speed metal, to more traditional Priest style rockers. And the album is mostly vocal driven, so it's a good thing that their vocalist is very competent. He has a good mid-range tone, slightly gruff, he sounds a bit like Ray Alder did on the "No Exit" album, only without the range. More impressive though is the vocal melodies he comes up with, some are so damn catchy they stick to you immediately. Take the pre-chorus to the song "Marshall Law" for example, the "synthetic life within his frame" part, very catchy stuff. Unfortunately the production is a bit weak, the guitars are pushed way too far down in the mix, which is a shame because the riffs are generally good and the leadwork is very impressive. Lots of Tipton/Downing type solos, lots of trade offs and some harmonizing. The bass is pretty much inaudible, the drums are tight and pretty loud in the mix but are nothing fancy.
The album flows good from beginning to end, there's really nothing on here that I would consider "filler" just some songs that are a little bland and simply don't work. But when these guys are on, they are on. "Under The Hammer" starts the album off with a bang, it's steady speed metal song with a catchy fist pumping chorus. Good vocal work, and an energetic solo. "Marshall Law" is probably my favorite song on the album, it sounds a bit different than the other songs, a little slower and more moody bust still very much a rocker of a song. The vocals in this song are brilliant, the pre-chorus vocal melody I mentioned earlier is one hell of a hook, and the chorus with it's chanting is good fist pumping stuff. A good build up to the solo, and even better execution. "Screaming" is another kick ass track, a high energy rocker with an infectious chorus. The guitars are more prominent in this song, some good harmonics to accentuate the vocals, and a good screaming solo.
"Future Shock" is another standout, it almost sounds like a really heavy Dokken song in a way. The verses are great with their stalking flow, and another good pre-chorus melody, and the screaming in the chorus is great. "When Will It End?" has a nice marching rythym, though it's a little too far on the cheesey side, still very catchy. "Hearts And Thunder" is pretty straight forward speed metal, soft verses, speedy chorus, when the speed kicks in it's really a kick ass song. Also the most lengthy and complex solo on the album.
The other songs are mostly all decent, just nothing to really write home about. All in all I would say this is a nice little hidden gem in the metal world. Fans of bands like Scanner, Riot, Helloween, and other classic power metal bands will surely love this. It has the right combination of balls, cheese, and fist pumping fun to make it a kick ass album.
Encyclopaedia Metallum

Состав

Andy Pike - vocals
Dave Martin - guitars
Andy Southwell - guitars
Rog Davis - bass
Mick Donovan - drums

1991 - Power Crazy (EP ) ; 00:14:23.60

Издатель (лейбл): CD-R Pro
Треклист:
01. World Of Madness [0:03:49.25]
02. Cryout From The Dark [0:03:18.25]
03. All For Rock [0:03:59.50]
04. The Heat Is Rising [0:03:14.02]

Лог создания рипа

EAC extraction logfile from 11. May 2012, 19:23 for CD
Marshall Law / Power Crazy
Used drive : Optiarc DVD RW AD-7240S Adapter: 2 ID: 0
Read mode : Secure with NO C2, accurate stream, disable cache
Read offset correction : 48
Overread into Lead-In and Lead-Out : No
Used output format : Internal WAV Routines
44.100 Hz; 16 Bit; Stereo
Other options :
Fill up missing offset samples with silence : Yes
Delete leading and trailing silent blocks : No
Installed external ASPI interface
Range status and errors
Selected range
Filename D:\spiralarch\Marshall Law - Power Crazy.wav
Peak level 100.0 %
Range quality 100.0 %
CRC 3EF4F1D3
Copy OK
No errors occured
End of status report

Доп. информация

This MCD was received from the band years ago as a professionally printed CD-R, since the original pressing was long out of print (and rare as hell).

Об альбоме (сборнике)

1991 We recorded "Power Crazy" EP limited edition 1991 from this came three songs that nearly went onto "Power Game" we demoed at Zella Studios in Birmingham. We recorded "Cry Out From The Dark" and "Storming To Power". Later to appear as bonus track on European and Japan releases of "Metal Detector" and "Warning From History". We added the old crowd favourite "All For Rock" and also added "World Of Madness" and "Heat Is Rising" these songs show a polished sound yet a good raw delivery. I had the flu but managed to pull out a cracking vocal performance. It was case of permanent steam in the recording booth, kind of dry ice effect in the studio. We recorded it digitally [Not for metal] needs to be re-mastered. Now deleted? I love "Cry Out From The Dark" was written at the same time as "Storming To Power" performed in Europe never played live in the UK.
Marshall Law bio

Состав

Andy Pike - vocals
Dave Martin - guitars
Andy Southwell - guitars
Roger Davis - bass
Lee Morris - drums

1992 ( 1993 ) - Power Game (Japanese Ed.) ; 00:43:31.67

Издатель (лейбл): Victor
Номер по каталогу: VICP-5252
Страна-производитель диска: Japan
Треклист:
01. Chain Of Youth [0:04:20.08]
02. Another Generation [0:03:28.25]
03. Searching For Paradise [0:04:51.17]
04. Naked Aggression [0:04:31.10]
05. No Justice [0:05:02.40]
06. Power Game [0:04:36.20]
07. Edge Of The World [0:04:44.03]
08. Psychodrama [0:04:15.02]
09. Dead Zone [0:03:22.68]
10. Leviathan [0:04:17.62]

Лог создания рипа

Exact Audio Copy V1.0 beta 1 from 15. November 2010
EAC extraction logfile from 18. May 2012, 14:42
Marshall Law / Power Game (Japan)
Used drive : Optiarc DVD RW AD-7240S Adapter: 2 ID: 0
Read mode : Secure
Utilize accurate stream : Yes
Defeat audio cache : Yes
Make use of C2 pointers : No
Read offset correction : 48
Overread into Lead-In and Lead-Out : No
Fill up missing offset samples with silence : Yes
Delete leading and trailing silent blocks : No
Null samples used in CRC calculations : Yes
Used interface : Native Win32 interface for Win NT & 2000
Used output format : Internal WAV Routines
Sample format : 44.100 Hz; 16 Bit; Stereo
TOC of the extracted CD
Track | Start | Length | Start sector | End sector
---------------------------------------------------------
1 | 0:00.37 | 4:20.08 | 37 | 19544
2 | 4:20.45 | 3:28.25 | 19545 | 35169
3 | 7:48.70 | 4:51.17 | 35170 | 57011
4 | 12:40.12 | 4:31.10 | 57012 | 77346
5 | 17:11.22 | 5:02.40 | 77347 | 100036
6 | 22:13.62 | 4:36.20 | 100037 | 120756
7 | 26:50.07 | 4:44.03 | 120757 | 142059
8 | 31:34.10 | 4:15.02 | 142060 | 161186
9 | 35:49.12 | 3:22.68 | 161187 | 176404
10 | 39:12.05 | 4:17.62 | 176405 | 195741
Range status and errors
Selected range
Filename D:\spiralarch\Marshall Law - Power Game (Japan).wav
Peak level 100.0 %
Extraction speed 0.3 X
Range quality 100.0 %
Copy CRC 208F78C9
Copy OK
No errors occurred
AccurateRip summary
Track 1 not present in database
Track 2 not present in database
Track 3 not present in database
Track 4 not present in database
Track 5 not present in database
Track 6 not present in database
Track 7 not present in database
Track 8 not present in database
Track 9 not present in database
Track 10 not present in database
None of the tracks are present in the AccurateRip database
End of status report
==== Log checksum 4669B26C06243868CA31A107D6F51A5A67E2CF4EC1B3838512076738CC177239 ====

Об альбоме (сборнике)

The band's second album "Power Game" originally released back in 1993 was a lethal offering of classic sounding British heavy metal. Rounded out by guitarist Andy Southwell, bassist Roger Davis and drummer Lee Morris, "Power Game" which was produced by fellow Brit rocker Robin George found the group moving in a slightly heavier direction from their self titled 1990 debut album.
The twin attack of Martin and Southwell finds the duo digging deep into the bag of tricks and coming up with a surplus of meaty riffs and inspired solos which give these tracks the required thrust they need, while Pike's vocals soar majestically overtop the aggressive and yet melodic anthems "Chain Of Youth" and the title track. What's somewhat surprising about "Power Game" is that unlike the large majority of metal bands of the day who were only interested in writing about sex, drugs and rock 'n roll Marshall Law seemed to actually be conscious about the issues going on in the world around them. For example they address racism and AIDS on "Another Generation" and "Naked Aggression" respectively, while ""No Justice" talks about the forgotten children of Africa, and "Psychodrama" tackles what happens to kids when their parents split up.
"Power Game" is rock solid from beginning to end and this one holds up incredibly well almost twenty years later. Repeated listens are required to further demonstrate just how vastly underrated these talented Brummie's really were.
Sea Of Tranquility

Состав

Andy Pyke - vocals
Dave Martin - guitars
Andy Southwell - guitars
Roger Davis - bass
Lee Morris - drums

1996 - Law in the Raw (Live album) ; 00:55:56.10

Издатель (лейбл): Neat Metal
Номер по каталогу: NM008
Страна-производитель диска: France
Треклист:
01. Chain Of Youth 04:33
02. Another Generation 03:41
03. Screaming 05:27
04. Psychodrama 04:12
05. Searching For Paradise 04:38
06. Naked Aggression 04:29
07. Under The Hammer 04:03
08. System X 05:23
09. Powergame 04:54
10. Hearts And Thunder 04:27
11. Marshall Law 05:10
12. Leviathan 04:50

Лог создания рипа

Exact Audio Copy V1.0 beta 1 from 15. November 2010
EAC extraction logfile from 18. May 2012, 15:04
Marshall Law / Law In The Raw
Used drive : Optiarc DVD RW AD-7240S Adapter: 2 ID: 0
Read mode : Secure
Utilize accurate stream : Yes
Defeat audio cache : Yes
Make use of C2 pointers : No
Read offset correction : 48
Overread into Lead-In and Lead-Out : No
Fill up missing offset samples with silence : Yes
Delete leading and trailing silent blocks : No
Null samples used in CRC calculations : Yes
Used interface : Native Win32 interface for Win NT & 2000
Used output format : Internal WAV Routines
Sample format : 44.100 Hz; 16 Bit; Stereo
TOC of the extracted CD
Track | Start | Length | Start sector | End sector
---------------------------------------------------------
1 | 0:00.30 | 4:33.12 | 30 | 20516
2 | 4:33.42 | 3:41.48 | 20517 | 37139
3 | 8:15.15 | 5:28.00 | 37140 | 61739
4 | 13:43.15 | 4:12.42 | 61740 | 80681
5 | 17:55.57 | 4:38.60 | 80682 | 101591
6 | 22:34.42 | 4:29.70 | 101592 | 121836
7 | 27:04.37 | 4:03.68 | 121837 | 140129
8 | 31:08.30 | 5:23.02 | 140130 | 164356
9 | 36:31.32 | 4:54.30 | 164357 | 186436
10 | 41:25.62 | 4:27.58 | 186437 | 206519
11 | 45:53.45 | 5:10.15 | 206520 | 229784
12 | 51:03.60 | 4:50.25 | 229785 | 251559
Range status and errors
Selected range
Filename D:\spiralarch\Marshall Law - Law In The Raw.wav
Peak level 99.9 %
Extraction speed 0.3 X
Range quality 100.0 %
Copy CRC 8439CF02
Copy OK
No errors occurred
AccurateRip summary
Track 1 accurately ripped (confidence 1) [57F82810]
Track 2 accurately ripped (confidence 1) [4CC77D3A]
Track 3 accurately ripped (confidence 1) [30FCC5F5]
Track 4 accurately ripped (confidence 1) [8D51930B]
Track 5 accurately ripped (confidence 1) [7EFF87FA]
Track 6 accurately ripped (confidence 1) [F8631B80]
Track 7 accurately ripped (confidence 1) [7FBF85A4]
Track 8 accurately ripped (confidence 1) [BC40878B]
Track 9 accurately ripped (confidence 1) [DDB5DB9D]
Track 10 accurately ripped (confidence 1) [DB55EA7F]
Track 11 accurately ripped (confidence 1) [AA1478DB]
Track 12 accurately ripped (confidence 1) [2E8DF5FE]
All tracks accurately ripped
End of status report
==== Log checksum 5D845B982B6A6C4F4F0DB14994863A054F67E7FEA45C72EEB9B11EEAA08A7CAD ====

Об альбоме (сборнике)

Directly due to unceasing fan pressure MARSHALL LAW duly reformed in late 1995 to issue the well received live album on Neat Metal Records. Much to the surprise of the band the label's press release for "Law In The Raw" mistakenly attributed these recordings to a support to JUDAS PRIEST, although the concert was in fact taken from a headline gig.
Music Might

Состав

Andy Pyke - vocals
Dave Martin - guitars
Andy Southwell - guitars
Roger Davis - bass
Lee Morris - drums

1997 - Metal Detector (Japanese Ed.); 00:49:06.62

Издатель (лейбл): Pony Canyon
Номер по каталогу: PCCY-01173
Страна-производитель диска: Japan
Треклист:
01. Osmium [0:01:32.22]
02. Twisted This [0:03:55.40]
03. War [0:03:31.25]
04. Seek And You Shall Find [0:03:34.28]
05. Swarm [0:03:48.62]
06. Feed The Need [0:03:31.73]
07. Devices [0:04:10.50]
08. Addicted To The Pain [0:04:11.35]
09. Empowerment [0:04:15.40]
10. The Sands Of Time [0:03:03.47]
11. Meganoid [0:03:23.03]
12. The Seeds Of Change [0:04:03.62]
13. Iridium [0:01:42.23]
14. Storming To Power (bonus) [0:04:20.02]

Лог создания рипа

Exact Audio Copy V1.0 beta 1 from 15. November 2010
EAC extraction logfile from 30. May 2012, 18:47
Marshall Law / Metal Detector (Japan)
Used drive : Optiarc DVD RW AD-7240S Adapter: 2 ID: 0
Read mode : Secure
Utilize accurate stream : Yes
Defeat audio cache : Yes
Make use of C2 pointers : No
Read offset correction : 48
Overread into Lead-In and Lead-Out : No
Fill up missing offset samples with silence : Yes
Delete leading and trailing silent blocks : No
Null samples used in CRC calculations : Yes
Used interface : Native Win32 interface for Win NT & 2000
Used output format : Internal WAV Routines
Sample format : 44.100 Hz; 16 Bit; Stereo
TOC of the extracted CD
Track | Start | Length | Start sector | End sector
---------------------------------------------------------
1 | 0:00.00 | 1:32.22 | 0 | 6921
2 | 1:32.22 | 3:55.40 | 6922 | 24586
3 | 5:27.62 | 3:31.25 | 24587 | 40436
4 | 8:59.12 | 3:34.28 | 40437 | 56514
5 | 12:33.40 | 3:48.62 | 56515 | 73676
6 | 16:22.27 | 3:31.73 | 73677 | 89574
7 | 19:54.25 | 4:10.50 | 89575 | 108374
8 | 24:05.00 | 4:11.35 | 108375 | 127234
9 | 28:16.35 | 4:15.40 | 127235 | 146399
10 | 32:32.00 | 3:03.47 | 146400 | 160171
11 | 35:35.47 | 3:23.03 | 160172 | 175399
12 | 38:58.50 | 4:03.62 | 175400 | 193686
13 | 43:02.37 | 1:42.23 | 193687 | 201359
14 | 44:44.60 | 4:20.02 | 201360 | 220861
Range status and errors
Selected range
Filename D:\spiralarch\Marshall Law - Metal Detector (Japan).wav
Peak level 97.2 %
Extraction speed 0.3 X
Range quality 100.0 %
Copy CRC D262C30E
Copy OK
No errors occurred
AccurateRip summary
Track 1 accurately ripped (confidence 1) [1D0FE805]
Track 2 accurately ripped (confidence 1) [08C7EA97]
Track 3 accurately ripped (confidence 1) [C4FCA7FF]
Track 4 accurately ripped (confidence 1) [EDE93799]
Track 5 accurately ripped (confidence 1) [7A7125EA]
Track 6 accurately ripped (confidence 1) [6D8BBACB]
Track 7 accurately ripped (confidence 1) [F03EF502]
Track 8 accurately ripped (confidence 1) [233D222B]
Track 9 accurately ripped (confidence 1) [52099A81]
Track 10 accurately ripped (confidence 1) [A1F1019A]
Track 11 accurately ripped (confidence 1) [84F4511D]
Track 12 accurately ripped (confidence 1) [BBDADC9D]
Track 13 accurately ripped (confidence 1) [2A6F00A4]
Track 14 accurately ripped (confidence 1) [5A058C3B]
All tracks accurately ripped
End of status report
==== Log checksum 2651D3B13EF8E64A5D25A5BB90AF4534302665150A5C5CA98BA3543881B1A32F ====

Об альбоме (сборнике)

Nasty, churning power metal, in the vein of Primal Fear, faster Sinner, and classic heavy Priest. The vocals are close to Ralf Scheepers, though smoother and not quite as over-the-top. UK power, made to order.
The fast and ripping "Twisted This" opens the fest, and is followed by a host of strong tracks, including the smooth and solid "Seek And You Shall Find" and "The Seeds Of Change", the steady "Feed The Need" and the uptempo "Devices".
Nasty and evil verses highlight "Swarm" and "Addicted To The Pain" contains more vocal bliss. "Meganoid" has a head-moving power rhythm, and the ultra-steady "Empowerment" stands atop the heap with its strong and biting chorus.
Yet another great European band, and even more unheralded than the aforementioned Primal Fear and Sinner. A force to be reckoned with, though. Scoop it up, kiddies...
Ultimate Metal Reviews

Состав

Andrew Pyke - vocals
David Martin - guitars
Andrew Southwell - guitars
Roger Davis - bass, backing vocals and drum programming

1999 - Warning From History (Japanese Ed.) ; 01:07:15.07

Издатель (лейбл): Pony Canyon
Номер по каталогу: PCCY-01380
Страна-производитель диска: Japan
Треклист:
01. Foregathering [0:02:22.67]
02. Victory At Last [0:04:54.18]
03. Locked And Loaded [0:05:28.32]
04. Remembered Forever [0:06:00.25]
05. Harbinger [0:05:48.53]
06. Blood On Blood [0:04:37.30]
07. Crucified [0:03:36.57]
08. March Of History [0:06:59.60]
09. Pray For Deliverance [0:05:15.40]
10. God King [0:06:09.50]
11. Retreat [0:06:43.58]
12. Searching For Paradise (bonus) [0:04:42.67]
13. Powergame (bonus) [0:04:32.50]

Лог создания рипа

Exact Audio Copy V1.0 beta 1 from 15. November 2010
EAC extraction logfile from 30. May 2012, 19:27
Marshall Law / Warning From History (Japan)
Used drive : Optiarc DVD RW AD-7240S Adapter: 2 ID: 0
Read mode : Secure
Utilize accurate stream : Yes
Defeat audio cache : Yes
Make use of C2 pointers : No
Read offset correction : 48
Overread into Lead-In and Lead-Out : No
Fill up missing offset samples with silence : Yes
Delete leading and trailing silent blocks : No
Null samples used in CRC calculations : Yes
Used interface : Native Win32 interface for Win NT & 2000
Used output format : Internal WAV Routines
Sample format : 44.100 Hz; 16 Bit; Stereo
TOC of the extracted CD
Track | Start | Length | Start sector | End sector
---------------------------------------------------------
1 | 0:00.00 | 2:22.67 | 0 | 10716
2 | 2:22.67 | 4:54.18 | 10717 | 32784
3 | 7:17.10 | 5:28.32 | 32785 | 57416
4 | 12:45.42 | 6:00.25 | 57417 | 84441
5 | 18:45.67 | 5:48.53 | 84442 | 110594
6 | 24:34.45 | 4:37.30 | 110595 | 131399
7 | 29:12.00 | 3:36.57 | 131400 | 147656
8 | 32:48.57 | 6:59.60 | 147657 | 179141
9 | 39:48.42 | 5:15.40 | 179142 | 202806
10 | 45:04.07 | 6:09.50 | 202807 | 230531
11 | 51:13.57 | 6:43.58 | 230532 | 260814
12 | 57:57.40 | 4:42.67 | 260815 | 282031
13 | 62:40.32 | 4:32.50 | 282032 | 302481
Range status and errors
Selected range
Filename D:\spiralarch\Marshall Law - Warning From History (Japan).wav
Peak level 98.9 %
Extraction speed 0.3 X
Range quality 100.0 %
Copy CRC 5C92E4AF
Copy OK
No errors occurred
AccurateRip summary
Track 1 not present in database
Track 2 not present in database
Track 3 not present in database
Track 4 not present in database
Track 5 not present in database
Track 6 not present in database
Track 7 not present in database
Track 8 not present in database
Track 9 not present in database
Track 10 not present in database
Track 11 not present in database
Track 12 not present in database
Track 13 not present in database
None of the tracks are present in the AccurateRip database
End of status report
==== Log checksum F0F1653CDD8FBFFA00D857B7CF417AB65FCD6D5E67F6EAAF493241165F82D6B8 ====

Об альбоме (сборнике)

The band's fourth studio release, and even more ripping than the previous "Metal Detector". The songs as a whole are faster (think Primal Fear's absolute fastest), and there is also an added edge to the band's distortion sound. Rip-a-licious!
Opener "Victory At Last" is breakneck and searing, and is followed by the same-held "Locked And Loaded". Other fast and heavy hitters include "Harbinger", "Retreat" and the Japanese bonus tracks "Searching For Paradise" and "Powergame".
Though slower, "Remembered Forever" is still driving and churning, and the band then kicks it back into high gear for the buzzsaw-and-harmonic pace of "Blood On Blood". "March Of History" has a killer rhythm, and the chugging "God King" breaks out with a slashing chorus.
The top spot is held by "Crucified," complete with a neck-moving drive and nasty in-song notes...
Once again, some powerful bliss by these UK smashers.
Ultimate Metal Reviews

Состав

Andy Pyke - vocals
Dave Martin - guitars
Andy Southwell - guitars
Roger Davis - bass and drum programming
******
Tony Clarkin - guitar solos
Steve Grimmett - backing vocals
Tommy Vance - narration

2002 - Power Crazy : The Best Of Marshall Law ( Compilation ) ; 01:19:04

Издатель (лейбл): Castle Music
Номер по каталогу: CMRCD590
Страна-производитель диска: United Kingdom
Треклист:
01. Victory At Last 04:55
02. God King 06:06
03. Blood on Blood 04:34
04. March of History 06:57
05. Retreat 05:40
06. Empowerment 04:14
07. Devices 04:09
08. Seek And You Shall Find 03:32
09. Marshall Law (live) 04:28
10. Under the Hammer (live)
11. Electric Eye (live)
12. Leviathan 04:15
13. No Justice 05:00
14. Chain of Youth 04:19
15. Searching for Paradise (Demo Version) 04:39
16. Power Game (Demo Version) 04:31
17. We'll Bring The House Down 03:26 [Slade]

Лог создания рипа

Exact Audio Copy V1.0 beta 1 from 15. November 2010
EAC extraction logfile from 21. June 2012, 14:17
Marshall Law / Power Crazy - The Best Of
Used drive : Optiarc DVD RW AD-7240S Adapter: 2 ID: 0
Read mode : Secure
Utilize accurate stream : Yes
Defeat audio cache : Yes
Make use of C2 pointers : No
Read offset correction : 48
Overread into Lead-In and Lead-Out : No
Fill up missing offset samples with silence : Yes
Delete leading and trailing silent blocks : No
Null samples used in CRC calculations : Yes
Used interface : Native Win32 interface for Win NT & 2000
Used output format : Internal WAV Routines
Sample format : 44.100 Hz; 16 Bit; Stereo
TOC of the extracted CD
Track | Start | Length | Start sector | End sector
---------------------------------------------------------
1 | 0:00.00 | 4:55.09 | 0 | 22133
2 | 4:55.09 | 6:06.23 | 22134 | 49606
3 | 11:01.32 | 4:34.25 | 49607 | 70181
4 | 15:35.57 | 6:57.68 | 70182 | 101524
5 | 22:33.50 | 5:40.51 | 101525 | 127075
6 | 28:14.26 | 4:14.33 | 127076 | 146158
7 | 32:28.59 | 4:09.15 | 146159 | 164848
8 | 36:37.74 | 3:32.15 | 164849 | 180763
9 | 40:10.14 | 4:28.07 | 180764 | 200870
10 | 44:38.21 | 4:02.64 | 200871 | 219084
11 | 48:41.10 | 4:17.32 | 219085 | 238391
12 | 52:58.42 | 4:15.29 | 238392 | 257545
13 | 57:13.71 | 5:00.72 | 257546 | 280117
14 | 62:14.68 | 4:19.00 | 280118 | 299542
15 | 66:33.68 | 4:39.02 | 299543 | 320469
16 | 71:12.70 | 4:31.48 | 320470 | 340842
17 | 75:44.43 | 3:26.72 | 340843 | 356364
Range status and errors
Selected range
Filename D:\spiralarch\Marshall Law - Power Crazy - The Best Of.wav
Peak level 99.7 %
Extraction speed 0.1 X
Range quality 99.9 %
Copy CRC 93DB513D
Copy OK
No errors occurred
AccurateRip summary
Track 1 accurately ripped (confidence 1) [3C168328]
Track 2 accurately ripped (confidence 1) [1DF6D435]
Track 3 accurately ripped (confidence 1) [6668E7AD]
Track 4 accurately ripped (confidence 1) [C85AD86E]
Track 5 accurately ripped (confidence 1) [C39E9A8D]
Track 6 accurately ripped (confidence 1) [799984B2]
Track 7 accurately ripped (confidence 1) [1B4F475F]
Track 8 accurately ripped (confidence 1) [86D34B10]
Track 9 accurately ripped (confidence 1) [9FB17314]
Track 10 accurately ripped (confidence 1) [F458F776]
Track 11 accurately ripped (confidence 1) [B62E76CD]
Track 12 accurately ripped (confidence 1) [52355674]
Track 13 accurately ripped (confidence 1) [D7581017]
Track 14 accurately ripped (confidence 1) [9FED4385]
Track 15 accurately ripped (confidence 1) [573414D5]
Track 16 accurately ripped (confidence 1) [C85DD309]
Track 17 accurately ripped (confidence 1) [2886912A]
All tracks accurately ripped
End of status report
==== Log checksum 5D95C92B4BE7D03F4FB583EE3021CA42EBE0E81735D971D714C8149B22D0C303 ====

Об альбоме (сборнике)

Active throughout the 1990s, Birmingham, England's Marshall Law was an anomaly in the sense that it was a throwback to the British heavy metal heyday of hometown heroes Judas Priest, while at the same time appreciating the vicious riffage of speed metal groups like Metal Church and Metallica, themselves products of the post-Priest metal years. Marshall Law featured the powerful vocals of Andy Pyke; the dueling, chugging guitars of Andy Southwell and Dave Martin; and bassist Roger Davis. Original drummer Mick Donovan was replaced with Lee Morris for 1993's "Power Game".
"Power Crazy: The Best of Marshall Law" collects tracks from all five of the band's albums. Cutting power metal workouts like "Victory At Last" and "Blood On Blood" are more successful than ballads like "No Justice" and "March Of History," if only because Marshall Law's ability to write a hook wasn't necessarily concurrent with its ability to truly rock hesher-style. The strongest material here are the three tracks culled from "Law In The Raw", Marshall Law's 1996 live album. The self-titled anthem, "Under The Hammer" and "Electric Eye" are such classic slices of live metal, you can almost feel the crush from the crowd and the sweat in your eyes.
Overall, "Power Crazy" serves not only as a best-of, but as a solid introduction to a group who may not have gotten its due during its own heyday.
AllMusic
01-05 - taken from "Warning From History" [1999]
06-08 - taken from "Metal Detector" [1997]
09-10 - taken from "Law In The Raw" [1996]
11 - taken from "Law In The Raw" [1996 Japan]
12-14 - taken from "Power Game" [1993]
15-16 - taken from "Power Game" demo [1992]
17 - previously unreleased

Состав

Andy Pyke - vocals
Dave Martin - guitars
Andy Southwell - guitars
Roger Davis - bass
Lee Morris - drums

2008 - Razorhead ; 01:10:48.02

Издатель (лейбл): DR2 Records
Номер по каталогу: DR2CD 008
Страна-производитель диска: United Kingdom
Треклист:
01. The Summoning [0:00:58.70]
02. Razorhead [0:05:17.63]
03. Premonition [0:04:41.37]
04. Headtrap [0:04:37.29]
05. Gods Of Deception [0:05:15.42]
06. Night Terror [0:06:07.40]
07. The Chamber [0:07:00.35]
08. Divides Us [0:04:11.72]
09. Nothing Lasts Forever [0:06:39.47]
10. Devil's Anvil [0:00:57.37]
11. Blood And Pain [0:04:37.57]
12. Another Bullet [0:03:39.37]
13. Bloodlines [0:05:09.27]
14. Hell On Earth [0:05:41.37]
15. Necromancer [0:05:49.47]

Лог создания рипа

Exact Audio Copy V1.0 beta 1 from 15. November 2010
EAC extraction logfile from 21. June 2012, 17:56
Marshall Law / Razorhead
Used drive : Optiarc DVD RW AD-7240S Adapter: 2 ID: 0
Read mode : Secure
Utilize accurate stream : Yes
Defeat audio cache : Yes
Make use of C2 pointers : No
Read offset correction : 48
Overread into Lead-In and Lead-Out : No
Fill up missing offset samples with silence : Yes
Delete leading and trailing silent blocks : No
Null samples used in CRC calculations : Yes
Used interface : Native Win32 interface for Win NT & 2000
Used output format : Internal WAV Routines
Sample format : 44.100 Hz; 16 Bit; Stereo
TOC of the extracted CD
Track | Start | Length | Start sector | End sector
---------------------------------------------------------
1 | 0:00.00 | 0:58.70 | 0 | 4419
2 | 0:58.70 | 5:17.63 | 4420 | 28257
3 | 6:16.58 | 4:41.37 | 28258 | 49369
4 | 10:58.20 | 4:37.29 | 49370 | 70173
5 | 15:35.49 | 5:15.42 | 70174 | 93840
6 | 20:51.16 | 6:07.40 | 93841 | 121405
7 | 26:58.56 | 7:00.35 | 121406 | 152940
8 | 33:59.16 | 4:11.72 | 152941 | 171837
9 | 38:11.13 | 6:39.47 | 171838 | 201809
10 | 44:50.60 | 0:57.37 | 201810 | 206121
11 | 45:48.22 | 4:37.57 | 206122 | 226953
12 | 50:26.04 | 3:39.37 | 226954 | 243415
13 | 54:05.41 | 5:09.27 | 243416 | 266617
14 | 59:14.68 | 5:41.37 | 266618 | 292229
15 | 64:56.30 | 5:49.47 | 292230 | 318451
Range status and errors
Selected range
Filename D:\spiralarch\Marshall Law - Razorhead.wav
Peak level 99.9 %
Extraction speed 0.3 X
Range quality 100.0 %
Copy CRC 4F7E463F
Copy OK
No errors occurred
AccurateRip summary
Track 1 not present in database
Track 2 accurately ripped (confidence 2) [C6222C25]
Track 3 accurately ripped (confidence 2) [430FE362]
Track 4 accurately ripped (confidence 2) [BC33A9FE]
Track 5 accurately ripped (confidence 2) [DF8AC5CE]
Track 6 accurately ripped (confidence 2) [C8C72AC2]
Track 7 accurately ripped (confidence 2) [2B1B26B4]
Track 8 accurately ripped (confidence 2) [09315E35]
Track 9 accurately ripped (confidence 2) [2AB6B1BB]
Track 10 accurately ripped (confidence 2) [9CB8ED14]
Track 11 accurately ripped (confidence 2) [F9DCEC8E]
Track 12 accurately ripped (confidence 2) [BE145226]
Track 13 accurately ripped (confidence 2) [7AA208CC]
Track 14 accurately ripped (confidence 2) [D746F0E0]
Track 15 accurately ripped (confidence 2) [8D7D83A2]
14 track(s) accurately ripped
1 track(s) not present in the AccurateRip database
Some tracks could not be verified as accurate
End of status report
==== Log checksum 66A602BF28383A9ED3C344FF5D1C9E35172E60A63F39CF7A1B3A15A995BEA3E5 ====

Об альбоме (сборнике)

British power/speed metal veterans Marshall Law are another of those bands who have been sticking it out since the late 80s, having endured a hiatus and a dying and now revitalized metal scene. Personally, I'm glad they've stuck to their guns, because "Razorhead" is an excellent 4th album, and with 15 tracks, it's also quite a value.
The formula is simple: phenomenal, catchy riffing and well-crafted lead work highlighted by the charismatic and cutting vocals of Andy Pyke. Though the band bears more in common with 80s style speed/thrash and melody than the more pompous anthems of modern power metal, I believe fans of both will find a lot to enjoy here. After "The Summoning" intro, the title track blazes forward, with a catchy gang shout chorus and some nice clean choral vocal touches. I also like the keyboards used here, they function as pure atmosphere.
"Premonition" is another excellent tune, with catchy guitar melodies opening into a salvo of memorable thrash riffing under Pyke's wonderful tone. There are a number of slower-paced, groovier thrashing tunes on the album like "Headtrap", but they are just as catchy and also reminiscent of the late 80s where classic genres like thrash and power metal were often indistinguishable. "Gods Of Deception" is an excellent, slower track which once again is introduced with infectious guitar lead melodies. The album is just littered with these.
I could go through this entire affair track by track, but I think you've gotten the point. The tones of the album are captured well... a crisp production which should appeal to the modern audience but has all the nostalgic ambiance of the late 20th century. Song titles and lyrics are all pretty standard fare: "Bloodlines", "Hell On Earth", "Necromancer".
The album is superb and it has rekindled my interested in their earlier work. If you are into melodic metal that isn't exceedingly complex or tongue in cheek, you should certainly acquire this! It is fantastic.
Verdict: Epic Win (9/10)
From the Dust Returned

Состав

Andy Pyke - lead vocals
Dave Martin - guitars and vocals
Dave Rothan - guitars and vocals
Tom Dwyer - bass and vocals
Steve H - drums and vocals

To download the file disable ad blocking, and reload the page.

disable adblock How to disable ad blocking?

Download by magnet link 2.93 GB Download Torrent

Login using:

Загрузка...

Similar topics

(Heavy/Power Metal) Headon - Cicatrices - 2018, MP3, 320 kbps
 106 MB   0 | 0   30-Nov-18 22:00   5
(Heavy | Power Metal) Scorcher - Systems of Time - 2018, MP3, 320 kbps
 114 MB   0 | 0   30-Nov-18 18:50   0


   
Current time is: 16-Dec 13:48 :: All times are UTC + 3