КоллекцияЖанр: Heavy Metal/Progressive/Groove Metal Носитель: CD
Страна-производитель диска: Japan, U.S.A. Страна: U.S.A.
Аудиокодек: FLAC (*.flac) Тип рипа: image+.cue
Битрейт аудио: lossless Источник (релизер): My CDs
Наличие сканов в содержимом раздачи: да

2012: Omertá (Japan Edition)

Издатель (лейбл): King Records
Номер по каталогу: KICP 1612
Продолжительность: 53:00
01. Undaunted 04:45
02. Psychosane 04:38
03. Indifferent 04:30
04. All On The Line 04:21
05. Hit The Wall 06:33
06. Feelin' Me 03:55
07. Come Undone (Duran Duran cover) 04:50
08. Believe Me 03:59
09. Down To The Floor 03:33
10. Angel Sky 04:26
11. Freight Train 04:14
12. The Mob Rules (Bonus Track For Japan) 03:18

Лог создания рипа

Exact Audio Copy V1.1 from 23. June 2015
EAC extraction logfile from 5. May 2017, 18:28
Adrenaline Mob / Omerta (Japan Edition)
Used drive : HP DVD Writer 1170d Adapter: 1 ID: 1
Read mode : Secure
Utilize accurate stream : Yes
Defeat audio cache : Yes
Make use of C2 pointers : No
Read offset correction : 6
Overread into Lead-In and Lead-Out : No
Fill up missing offset samples with silence : Yes
Delete leading and trailing silent blocks : No
Null samples used in CRC calculations : Yes
Used interface : Native Win32 interface for Win NT & 2000
Used output format : User Defined Encoder
Selected bitrate : 1024 kBit/s
Quality : High
Add ID3 tag : No
Command line compressor : C:\Program Files (x86)\Exact Audio Copy\Flac\flac.exe
Additional command line options : -V -8 -T "Date=%year%" -T "Genre=%genre%" %source%
TOC of the extracted CD
Track | Start | Length | Start sector | End sector
---------------------------------------------------------
1 | 0:00.00 | 4:44.38 | 0 | 21337
2 | 4:44.38 | 4:37.57 | 21338 | 42169
3 | 9:22.20 | 4:30.36 | 42170 | 62455
4 | 13:52.56 | 4:20.54 | 62456 | 82009
5 | 18:13.35 | 6:32.50 | 82010 | 111459
6 | 24:46.10 | 3:55.26 | 111460 | 129110
7 | 28:41.36 | 4:50.22 | 129111 | 150882
8 | 33:31.58 | 3:59.03 | 150883 | 168810
9 | 37:30.61 | 3:33.08 | 168811 | 184793
10 | 41:03.69 | 4:25.41 | 184794 | 204709
11 | 45:29.35 | 4:13.47 | 204710 | 223731
12 | 49:43.07 | 3:17.66 | 223732 | 238572
Range status and errors
Selected range
Filename C:\EAC\Ungern666\Adrenaline Mob - Omerta (Japan Edition).wav
Peak level 99.5 %
Extraction speed 5.6 X
Range quality 100.0 %
Test CRC 6D7D8D58
Copy CRC 6D7D8D58
Copy OK
No errors occurred
AccurateRip summary
Track 1 accurately ripped (confidence 3) [ED776F37] (AR v2)
Track 2 accurately ripped (confidence 3) [50FD68E4] (AR v2)
Track 3 accurately ripped (confidence 3) [3151BFDC] (AR v2)
Track 4 accurately ripped (confidence 3) [A75E66A4] (AR v2)
Track 5 accurately ripped (confidence 3) [EC6D7146] (AR v2)
Track 6 accurately ripped (confidence 3) [695E8095] (AR v2)
Track 7 accurately ripped (confidence 3) [CF13AFDF] (AR v2)
Track 8 accurately ripped (confidence 3) [8DFF5DD7] (AR v2)
Track 9 accurately ripped (confidence 3) [5AD44C57] (AR v2)
Track 10 accurately ripped (confidence 3) [DBF79670] (AR v2)
Track 11 accurately ripped (confidence 3) [B77A965A] (AR v2)
Track 12 accurately ripped (confidence 3) [324250B5] (AR v2)
All tracks accurately ripped
End of status report
---- CUETools DB Plugin V2.1.6
[CTDB TOCID: Y91o20fa0pHYANwN9X28NFaVHyc-] found
Submit result: Y91o20fa0pHYANwN9X28NFaVHyc- has been confirmed
Track | CTDB Status
1 | (3/3) Accurately ripped
2 | (3/3) Accurately ripped
3 | (3/3) Accurately ripped
4 | (3/3) Accurately ripped
5 | (3/3) Accurately ripped
6 | (3/3) Accurately ripped
7 | (3/3) Accurately ripped
8 | (3/3) Accurately ripped
9 | (3/3) Accurately ripped
10 | (3/3) Accurately ripped
11 | (3/3) Accurately ripped
12 | (3/3) Accurately ripped
==== Log checksum 2F809219E7869FBC9C6F6CA7A444B7BB845C4CB6EFC4E2166844BC40CBBD220D ====

2013: Covertá (EP)

Издатель (лейбл): Elm City Music
Номер по каталогу: ELM3020
Продолжительность: 34:28
01. High Wire (Badlands cover) 03:49
02. Stand Up And Shout (Dio cover) 03:36
03. Break On Through (The Doors cover) 03:02
04. Romeo Delight (Van Halen cover) 05:09
05. Barracuda (Heart cover) 04:13
06. Kill The King (Rainbow cover) 04:33
07. The Lemon Song (Led Zeppelin cover) 06:49
08. The Mob Rules (Black Sabbath cover) 03:18

Лог создания рипа

Exact Audio Copy V1.1 from 23. June 2015
EAC extraction logfile from 15. May 2017, 12:09
Adrenaline Mob / Coverta
Used drive : HP DVD Writer 1170d Adapter: 1 ID: 1
Read mode : Secure
Utilize accurate stream : Yes
Defeat audio cache : Yes
Make use of C2 pointers : No
Read offset correction : 6
Overread into Lead-In and Lead-Out : No
Fill up missing offset samples with silence : Yes
Delete leading and trailing silent blocks : No
Null samples used in CRC calculations : Yes
Used interface : Native Win32 interface for Win NT & 2000
Used output format : User Defined Encoder
Selected bitrate : 1024 kBit/s
Quality : High
Add ID3 tag : No
Command line compressor : C:\Program Files (x86)\Exact Audio Copy\Flac\flac.exe
Additional command line options : -V -8 -T "Date=%year%" -T "Genre=%genre%" %source%
TOC of the extracted CD
Track | Start | Length | Start sector | End sector
---------------------------------------------------------
1 | 0:00.00 | 3:48.67 | 0 | 17166
2 | 3:48.67 | 3:35.54 | 17167 | 33345
3 | 7:24.46 | 3:01.43 | 33346 | 46963
4 | 10:26.14 | 5:08.48 | 46964 | 70111
5 | 15:34.62 | 4:12.70 | 70112 | 89081
6 | 19:47.57 | 4:33.26 | 89082 | 109582
7 | 24:21.08 | 6:49.34 | 109583 | 140291
8 | 31:10.42 | 3:17.72 | 140292 | 155138
Range status and errors
Selected range
Filename C:\EAC\Ungern666\Adrenaline Mob - Coverta.wav
Peak level 100.0 %
Extraction speed 6.8 X
Range quality 100.0 %
Test CRC 9C221C02
Copy CRC 9C221C02
Copy OK
No errors occurred
AccurateRip summary
Track 1 accurately ripped (confidence 23) [7BBC6AB8] (AR v2)
Track 2 accurately ripped (confidence 23) [4752F239] (AR v2)
Track 3 accurately ripped (confidence 23) [BD4C67BE] (AR v2)
Track 4 accurately ripped (confidence 23) [FA0F30A7] (AR v2)
Track 5 accurately ripped (confidence 23) [9CE85783] (AR v2)
Track 6 accurately ripped (confidence 23) [DA4D350A] (AR v2)
Track 7 accurately ripped (confidence 23) [3ABDB776] (AR v2)
Track 8 accurately ripped (confidence 23) [65D75CDB] (AR v2)
All tracks accurately ripped
End of status report
---- CUETools DB Plugin V2.1.6
[CTDB TOCID: J3KXjiVlz6Rz6Ot6oCMlkXM4dk8-] found
Submit result: J3KXjiVlz6Rz6Ot6oCMlkXM4dk8- has been confirmed
Track | CTDB Status
1 | (54/54) Accurately ripped
2 | (54/54) Accurately ripped
3 | (54/54) Accurately ripped
4 | (54/54) Accurately ripped
5 | (54/54) Accurately ripped
6 | (54/54) Accurately ripped
7 | (54/54) Accurately ripped
8 | (54/54) Accurately ripped
==== Log checksum C743784D40A2DF011665E454EB18E765D49894433BDED3B1C311DAA2C6066725 ====

2014: Men Of Honor (Japan Edition)

Издатель (лейбл): Avalon Marquee, Inc.
Номер по каталогу: MICP-11143
Продолжительность: 65:05
01. Mob Is Back 04:34
02. Come On Get Up 04:11
03. Dearly Departed 04:57
04. Behind These Eyes 05:33
05. Let It Go 03:53
06. Feel The Adrenaline 05:56
07. Men Of Honor 04:26
08. Crystal Clear 05:02
09. House Of Lies 03:56
10. Judgement Day 04:04
11. Fallin To Pieces 04:58
12. Gets You Through The Night 03:35
Bonus Tracks For Japan:
13. All On The Line (Acoustic Version) 05:06
14. Angel Sky (Acoustic Version) 04:54

Лог создания рипа

Exact Audio Copy V1.1 from 23. June 2015
EAC extraction logfile from 5. May 2017, 18:50
Adrenaline Mob / Men Of Honor (Japan Edition)
Used drive : HP DVD Writer 1170d Adapter: 1 ID: 1
Read mode : Secure
Utilize accurate stream : Yes
Defeat audio cache : Yes
Make use of C2 pointers : No
Read offset correction : 6
Overread into Lead-In and Lead-Out : No
Fill up missing offset samples with silence : Yes
Delete leading and trailing silent blocks : No
Null samples used in CRC calculations : Yes
Used interface : Native Win32 interface for Win NT & 2000
Used output format : User Defined Encoder
Selected bitrate : 1024 kBit/s
Quality : High
Add ID3 tag : No
Command line compressor : C:\Program Files (x86)\Exact Audio Copy\Flac\flac.exe
Additional command line options : -V -8 -T "Date=%year%" -T "Genre=%genre%" %source%
TOC of the extracted CD
Track | Start | Length | Start sector | End sector
---------------------------------------------------------
1 | 0:00.00 | 4:34.27 | 0 | 20576
2 | 4:34.27 | 4:10.61 | 20577 | 39387
3 | 8:45.13 | 4:57.35 | 39388 | 61697
4 | 13:42.48 | 5:33.22 | 61698 | 86694
5 | 19:15.70 | 3:52.56 | 86695 | 104150
6 | 23:08.51 | 5:55.49 | 104151 | 130824
7 | 29:04.25 | 4:25.71 | 130825 | 150770
8 | 33:30.21 | 5:02.35 | 150771 | 173455
9 | 38:32.56 | 3:55.49 | 173456 | 191129
10 | 42:28.30 | 4:04.00 | 191130 | 209429
11 | 46:32.30 | 4:57.58 | 209430 | 231762
12 | 51:30.13 | 3:35.37 | 231763 | 247924
13 | 55:05.50 | 5:05.65 | 247925 | 270864
14 | 60:11.40 | 4:53.48 | 270865 | 292887
Range status and errors
Selected range
Filename C:\EAC\Ungern666\Adrenaline Mob - Men Of Honor (Japan Edition).wav
Peak level 100.0 %
Extraction speed 6.4 X
Range quality 100.0 %
Test CRC 9117F1EF
Copy CRC 9117F1EF
Copy OK
No errors occurred
AccurateRip summary
Track 1 accurately ripped (confidence 3) [47862C92] (AR v2)
Track 2 accurately ripped (confidence 3) [F4C5FD20] (AR v2)
Track 3 accurately ripped (confidence 3) [2998978D] (AR v2)
Track 4 accurately ripped (confidence 3) [8050ADCF] (AR v2)
Track 5 accurately ripped (confidence 3) [22D5556D] (AR v2)
Track 6 accurately ripped (confidence 3) [E911CE6A] (AR v2)
Track 7 accurately ripped (confidence 3) [B9ED5778] (AR v2)
Track 8 accurately ripped (confidence 3) [044D5D61] (AR v2)
Track 9 accurately ripped (confidence 3) [2CDA2F9F] (AR v2)
Track 10 accurately ripped (confidence 3) [7B078CF0] (AR v2)
Track 11 accurately ripped (confidence 3) [2A558091] (AR v2)
Track 12 accurately ripped (confidence 3) [68BD7184] (AR v2)
Track 13 accurately ripped (confidence 3) [66D40410] (AR v2)
Track 14 accurately ripped (confidence 3) [2586EC24] (AR v2)
All tracks accurately ripped
End of status report
---- CUETools DB Plugin V2.1.6
[CTDB TOCID: 91EMZjKDom42FLgwgxYH.VL.lxY-] found
Submit result: 91EMZjKDom42FLgwgxYH.VL.lxY- has been confirmed
Track | CTDB Status
1 | (4/4) Accurately ripped
2 | (4/4) Accurately ripped
3 | (4/4) Accurately ripped
4 | (4/4) Accurately ripped
5 | (4/4) Accurately ripped
6 | (4/4) Accurately ripped
7 | (4/4) Accurately ripped
8 | (4/4) Accurately ripped
9 | (4/4) Accurately ripped
10 | (4/4) Accurately ripped
11 | (4/4) Accurately ripped
12 | (4/4) Accurately ripped
13 | (4/4) Accurately ripped
14 | (4/4) Accurately ripped
==== Log checksum FA4F5F095D3C37EF3365FD53D9855C1FE6E7F6585FBB2E2FA0092C512F7C2522 ====

2015: Dearly Departed (EP)

Издатель (лейбл): Century Media Records, Ltd.
Номер по каталогу: 9229-2
Продолжительность: 42:06
01. Snortin' Whiskey (Pat Travers cover) 03:30
02. Dearly Departed (Radio Edit) 04:08
03. Devil Went Down To Georgia (Charlie Daniels Band cover) 03:30
04. Crystal Clear (Acoustic Version) 05:05
05. Black Sabbath Medley 08:14
06. Gets You Through The Night 03:35
07. Angel Sky (Acoustic w/Band) 05:00
08. All On The Line (Acoustic Version) 05:07
09. Tie Your Mother Down (Queen cover) 03:57

Лог создания рипа

Exact Audio Copy V1.1 from 23. June 2015
EAC extraction logfile from 15. May 2017, 12:51
Adrenaline Mob / Dearly Departed
Used drive : HP DVD Writer 1170d Adapter: 1 ID: 1
Read mode : Secure
Utilize accurate stream : Yes
Defeat audio cache : Yes
Make use of C2 pointers : No
Read offset correction : 6
Overread into Lead-In and Lead-Out : No
Fill up missing offset samples with silence : Yes
Delete leading and trailing silent blocks : No
Null samples used in CRC calculations : Yes
Used interface : Native Win32 interface for Win NT & 2000
Used output format : User Defined Encoder
Selected bitrate : 1024 kBit/s
Quality : High
Add ID3 tag : No
Command line compressor : C:\Program Files (x86)\Exact Audio Copy\Flac\flac.exe
Additional command line options : -V -8 -T "Date=%year%" -T "Genre=%genre%" %source%
TOC of the extracted CD
Track | Start | Length | Start sector | End sector
---------------------------------------------------------
1 | 0:00.00 | 3:30.09 | 0 | 15758
2 | 3:30.09 | 4:07.70 | 15759 | 34353
3 | 7:38.04 | 3:30.09 | 34354 | 50112
4 | 11:08.13 | 5:04.65 | 50113 | 72977
5 | 16:13.03 | 8:13.70 | 72978 | 110022
6 | 24:26.73 | 3:35.28 | 110023 | 126175
7 | 28:02.26 | 4:59.65 | 126176 | 148665
8 | 33:02.16 | 5:06.65 | 148666 | 171680
9 | 38:09.06 | 3:57.28 | 171681 | 189483
Range status and errors
Selected range
Filename C:\EAC\Ungern666\Adrenaline Mob - Dearly Departed.wav
Peak level 100.0 %
Extraction speed 6.8 X
Range quality 100.0 %
Test CRC B4A576E0
Copy CRC B4A576E0
Copy OK
No errors occurred
AccurateRip summary
Track 1 accurately ripped (confidence 12) [2630A773] (AR v2)
Track 2 accurately ripped (confidence 12) [FB8FCBC6] (AR v2)
Track 3 accurately ripped (confidence 12) [09BB25FD] (AR v2)
Track 4 accurately ripped (confidence 12) [EB4E53C4] (AR v2)
Track 5 accurately ripped (confidence 12) [455AAD34] (AR v2)
Track 6 accurately ripped (confidence 12) [1AFB78FB] (AR v2)
Track 7 accurately ripped (confidence 12) [8226970F] (AR v2)
Track 8 accurately ripped (confidence 12) [7C5A1DDF] (AR v2)
Track 9 accurately ripped (confidence 12) [F86EE1FB] (AR v2)
All tracks accurately ripped
End of status report
---- CUETools DB Plugin V2.1.6
[CTDB TOCID: C_evMqlxetzHI6FQy.fYL7eDgJM-] found
Submit result: C_evMqlxetzHI6FQy.fYL7eDgJM- has been confirmed
Track | CTDB Status
1 | (21/21) Accurately ripped
2 | (21/21) Accurately ripped
3 | (21/21) Accurately ripped
4 | (21/21) Accurately ripped
5 | (21/21) Accurately ripped
6 | (21/21) Accurately ripped
7 | (21/21) Accurately ripped
8 | (21/21) Accurately ripped
9 | (21/21) Accurately ripped
==== Log checksum B3010978ABBA771ECEB99AC95DDE9A1F94264EC2073B5098AE734EFAA4412A01 ====
-

Другие альбомы в lossless

2011: Adrenaline Mob (EP) http://********.org/forum/viewtopic.php?t=3731768
2012: Omertá (Original) http://********.org/forum/viewtopic.php?t=4002934
2014: Men Of Honor (Limited 2 CD Edition) http://********.org/forum/viewtopic.php?t=4685607
-Материал предназначен для ознакомления!

To download the file disable ad blocking, and reload the page.

disable adblock How to disable ad blocking?

Download by magnet link 1.66 GB Download Torrent

Login using:

Similar topics

(Heavy Metal, Groove Metal) Blaxem - Who Cares - 2017, MP3, 320 kbps
 86 MB   0 | 0   26-May-17 18:27   0
(Heavy Metal/Progressive) Wine Guardian - Onirica - 2017, MP3, 320 kbps
 115 MB   0 | 0   26-May-17 18:27   0
(Blackened Heavy Metal) Ophicvs - Machine Gun Reaper - 2017, MP3, 320 kbps
 109 MB   0 | 0   26-May-17 18:27   0
(Heavy Metal) Cremator - The Coming Of War - 2017, MP3, 320 kbps
 114 MB   0 | 0   26-May-17 18:27   0


   
Current time is: 15-Oct 22:31 :: All times are UTC ± 0