Desert Near The End / Theater Of War
Жанр: Power,Thrash Metal
Носитель: CD
Страна-производитель диска (релиза): Ukraine
Год издания: 2016
Издатель (лейбл): Total Metal Records
Номер по каталогу: TMR028-129
Страна исполнителя (группы): Greece,Athens, Attica
Аудиокодек: FLAC (*.flac)
Тип рипа: image+.cue
Битрейт аудио: lossless
Продолжительность: 00:43:37
Источник (релизер): sking019
Наличие сканов в содержимом раздачи: да
Треклист:
1 Ashes Descent 5:05
2 Faces In The Dark 3:04
3 Point Of No Return 4:01
4 Under Blackened Skies 5:07
5 A Martyr's Birth 5:40
6 Season Of The Sun 6:30
7 Theater Of War 7:26
8 At The Shores 7:02

Лог создания рипа

Exact Audio Copy V1.1 from 23. June 2015
Отчёт EAC об извлечении, выполненном 14. мая 2017, 16:19
Desert Near The End / Theater Of War
Дисковод: ASUS DRW-24F1MT Adapter: 1 ID: 0
Режим чтения : Достоверность
Использование точного потока : Да
Отключение кэша аудио : Да
Использование указателей C2 : Нет
Коррекция смещения при чтении : 6
Способность читать области Lead-in и Lead-out : Нет
Заполнение пропущенных сэмплов тишиной : Да
Удаление блоков с тишиной в начале и конце : Нет
При вычислениях CRC использовались нулевые сэмплы : Да
Интерфейс : Встроенный Win32-интерфейс для Win NT/2000
Выходной формат : Пользовательский кодировщик
Выбранный битрейт : 1024 kBit/s
Качество : Высокий
Добавление ID3-тега : Нет
Утилита сжатия : C:\Program Files (x86)\Exact Audio Copy\Flac\flac.exe
Дополнительные параметры : -V -8 -T "Date=%year%" -T "Genre=%genre%" %source%
TOC извлечённого CD
Трек | Старт | Длительность | Начальный сектор | Конечный сектор
---------------------------------------------------------------------
1 | 0:00.00 | 5:05.05 | 0 | 22879
2 | 5:05.05 | 3:03.44 | 22880 | 36648
3 | 8:08.49 | 4:01.35 | 36649 | 54758
4 | 12:10.09 | 5:06.66 | 54759 | 77774
5 | 17:17.00 | 5:39.56 | 77775 | 103255
6 | 22:56.56 | 6:29.74 | 103256 | 132504
7 | 29:26.55 | 7:26.25 | 132505 | 165979
8 | 36:53.05 | 7:02.03 | 165980 | 197632
Характеристики диапазона извлечения и сообщения об ошибках
Выбранный диапазон
Имя файла G:\ВСЕ ЗАГРУЗКИ\sking\Desert Near The End - Theater Of War (2016)\Desert Near The End - Theater Of War.wav
Пиковый уровень 100.0 %
Скорость извлечения 6.5 X
Качество диапазона 99.9 %
CRC теста 48903C65
CRC копии 48903C65
Копирование... OK
Ошибок не произошло
AccurateRip: сводка
Трек 1 отсутствует в базе данных
Трек 2 отсутствует в базе данных
Трек 3 отсутствует в базе данных
Трек 4 отсутствует в базе данных
Трек 5 отсутствует в базе данных
Трек 6 отсутствует в базе данных
Трек 7 отсутствует в базе данных
Трек 8 отсутствует в базе данных
Ни одного трека нет в базе AccurateRip
Конец отчёта
---- CUETools DB Plugin V2.1.6
[CTDB TOCID: ER0TeR5rUzdn8jdMSP4o.4PYYsQ-] disk not present in database
Submit result: ER0TeR5rUzdn8jdMSP4o.4PYYsQ- has been uploaded
==== Контрольная сумма отчёта 0E80689ADFD8D069E4980ECEB1462153C418C019B5C87FDF0CD0CC2EE338D04A ====

Содержание индексной карты (.CUE)

REM GENRE "Heavy Metal"
REM DATE 2016
REM DISCID 650A4B08
REM COMMENT "ExactAudioCopy v1.1"
PERFORMER "Desert Near The End "
TITLE "Theater Of War"
FILE "Desert Near The End - Theater Of War.flac" WAVE
TRACK 01 AUDIO
TITLE "Ashes Descent"
PERFORMER "Desert Near The End "
INDEX 01 00:00:00
TRACK 02 AUDIO
TITLE "Faces in the Dark"
PERFORMER "Desert Near The End "
INDEX 00 05:03:05
INDEX 01 05:05:05
TRACK 03 AUDIO
TITLE "Point of No Return"
PERFORMER "Desert Near The End "
INDEX 00 08:06:49
INDEX 01 08:08:49
TRACK 04 AUDIO
TITLE "Under Blackened Skies"
PERFORMER "Desert Near The End "
INDEX 00 12:08:09
INDEX 01 12:10:09
TRACK 05 AUDIO
TITLE "A Martyr's Birth"
PERFORMER "Desert Near The End "
INDEX 00 17:15:00
INDEX 01 17:17:00
TRACK 06 AUDIO
TITLE "Season of the Sun"
PERFORMER "Desert Near The End "
INDEX 00 22:54:56
INDEX 01 22:56:56
TRACK 07 AUDIO
TITLE "Theater of War"
PERFORMER "Desert Near The End "
INDEX 00 29:24:55
INDEX 01 29:26:55
TRACK 08 AUDIO
TITLE "At the Shores"
PERFORMER "Desert Near The End "
INDEX 00 36:51:05
INDEX 01 36:53:05

Об исполнителе (группе)

http://www.metal-archives.com/bands/Desert_Near_the_End/3540370893

Состав


Alexandros Papandreou - Vocals
Akis Prasinikas - Bass,Programming
Thanos Shaffer - Guitars

To download the file disable ad blocking, and reload the page.

disable adblock How to disable ad blocking?

Download by magnet link 332 MB Download Torrent

Login using:

Similar topics

(Power/Thrash Metal) Walkyria - The Invisible Guest - 2018, MP3, 320 kbps
 85 MB   0 | 0   Yesterday 04:15   0


   
Current time is: 15-Oct 21:10 :: All times are UTC ± 0