-Fates Warning - Awaken The Guardian Live (2CD)- Жанр: Power/Progressive Metal
Страна исполнителя: United States (Hartford, Connecticut)
Носитель: CD
Год издания: 2017
Страна-производитель диска: Germany
Издатель: Metal Blade Records
Номер по каталогу: 3984-15507-2
Аудиокодек: FLAC (*.flac)
Тип рипа: image+.cue
Битрейт аудио: lossless
Источник (релизер): Собственный CD
Наличие сканов: Да (Complete 600 DPI)
Доп. информация: Encyclopaedia Metallum
-

Состав


John Arch - Vocals: Jim Matheos - Guitars:
Joe DiBiase - Bass: Steve Zimmerman - Drums:
Frank Aresti - Guitars:
-

CD1 - 00:52:53


Recorded live in 2016 at Keep it True XIX in Lauda-Konigshofen, Germany
01. The Sorceress
02. Valley of the Dolls
03. Fata Morgana
04. Guardian
05. Prelude to Ruin
06. Giant's Lore (Heart of Winter)
07. Time Long Past
08. Exodus

Лог создания рипа

Exact Audio Copy V1.3 from 2. September 2016
EAC extraction logfile from 14. May 2017, 11:34
Fates Warning / Awaken The Guardian Live (CD1)
Used drive : ATAPI iHAS122 W Adapter: 2 ID: 0
Read mode : Secure
Utilize accurate stream : Yes
Defeat audio cache : Yes
Make use of C2 pointers : No
Read offset correction : 48
Overread into Lead-In and Lead-Out : No
Fill up missing offset samples with silence : Yes
Delete leading and trailing silent blocks : No
Null samples used in CRC calculations : Yes
Used interface : Installed external ASPI interface
Used output format : User Defined Encoder
Selected bitrate : 1024 kBit/s
Quality : High
Add ID3 tag : No
Command line compressor : C:\Program Files\FLAC\flac.exe
Additional command line options : -V -8 -T "Date=%year%" -T "Genre=%genre%" -T"COMMENT=Ripped by Ilijan - ilko" -8 -V %source%
TOC of the extracted CD
Track | Start | Length | Start sector | End sector
---------------------------------------------------------
1 | 0:00.00 | 6:04.09 | 0 | 27308
2 | 6:04.09 | 5:17.02 | 27309 | 51085
3 | 11:21.11 | 6:50.10 | 51086 | 81845
4 | 18:11.21 | 7:57.25 | 81846 | 117645
5 | 26:08.46 | 8:24.50 | 117646 | 155495
6 | 34:33.21 | 6:59.72 | 155496 | 186992
7 | 41:33.18 | 2:08.12 | 186993 | 196604
8 | 43:41.30 | 9:11.60 | 196605 | 237989
Range status and errors
Selected range
Filename D:\ilko\Fates Warning - Awaken The Guardian Live (CD1).wav
Peak level 100.0 %
Extraction speed 3.1 X
Range quality 100.0 %
Test CRC 7CFC2C45
Copy CRC 7CFC2C45
Copy OK
No errors occurred
AccurateRip summary
Track 1 not present in database
Track 2 not present in database
Track 3 not present in database
Track 4 not present in database
Track 5 not present in database
Track 6 not present in database
Track 7 not present in database
Track 8 not present in database
None of the tracks are present in the AccurateRip database
End of status report
---- CUETools DB Plugin V2.1.6
[CTDB TOCID: CzOlPSLHbvFvQGpqeZGPTyFNCqA-] found
Submit result: CzOlPSLHbvFvQGpqeZGPTyFNCqA- has been confirmed
Track | CTDB Status
1 | (17/17) Accurately ripped
2 | (17/17) Accurately ripped
3 | (17/17) Accurately ripped
4 | (17/17) Accurately ripped
5 | (17/17) Accurately ripped
6 | (17/17) Accurately ripped
7 | (17/17) Accurately ripped
8 | (17/17) Accurately ripped
==== Log checksum 4CE57C3104B440FFCEF1D23881F2B2E8D1E5A86A639361D71068F8C915DC76C9 ====
-CD2 - 00:31:3101. The Apparition
02. Damnation
03. Night on Brocken
04. Epitaph

Лог создания рипа
Exact Audio Copy V1.3 from 2. September 2016
EAC extraction logfile from 14. May 2017, 11:55
Fates Warning / Awaken The Guardian Live (CD2)
Used drive : ATAPI iHAS122 W Adapter: 2 ID: 0
Read mode : Secure
Utilize accurate stream : Yes
Defeat audio cache : Yes
Make use of C2 pointers : No
Read offset correction : 48
Overread into Lead-In and Lead-Out : No
Fill up missing offset samples with silence : Yes
Delete leading and trailing silent blocks : No
Null samples used in CRC calculations : Yes
Used interface : Installed external ASPI interface
Used output format : User Defined Encoder
Selected bitrate : 1024 kBit/s
Quality : High
Add ID3 tag : No
Command line compressor : C:\Program Files\FLAC\flac.exe
Additional command line options : -V -8 -T "Date=%year%" -T "Genre=%genre%" -T"COMMENT=Ripped by Ilijan - ilko" -8 -V %source%
TOC of the extracted CD
Track | Start | Length | Start sector | End sector
---------------------------------------------------------
1 | 0:00.00 | 6:27.58 | 0 | 29082
2 | 6:27.58 | 6:31.32 | 29083 | 58439
3 | 12:59.15 | 5:44.24 | 58440 | 84263
4 | 18:43.39 | 12:47.73 | 84264 | 141861
Range status and errors
Selected range
Filename D:\ilko\Fates Warning - Awaken The Guardian Live (CD2).wav
Peak level 100.0 %
Extraction speed 3.4 X
Range quality 100.0 %
Test CRC 4645654C
Copy CRC 4645654C
Copy OK
No errors occurred
AccurateRip summary
Track 1 not present in database
Track 2 not present in database
Track 3 not present in database
Track 4 not present in database
None of the tracks are present in the AccurateRip database
End of status report
---- CUETools DB Plugin V2.1.6
[CTDB TOCID: OkqQhmvNveLsttgB69VrJKGEHo4-] found
Submit result: OkqQhmvNveLsttgB69VrJKGEHo4- has been confirmed
Track | CTDB Status
1 | (18/18) Accurately ripped
2 | (18/18) Accurately ripped
3 | (18/18) Accurately ripped
4 | (18/18) Accurately ripped
==== Log checksum 10DF78EE230DA90269A71CC9491D326508E7439CEF3EBE60D23BEC8F4CDDDBC0 ====
-DVD-

To download the file disable ad blocking, and reload the page.

disable adblock How to disable ad blocking?

Download by magnet link 656 MB Download Torrent

Login using:

Загрузка...

Similar topics



   
Current time is: 13-Dec 07:24 :: All times are UTC + 3