Warrant / Then And Now
Жанр: Hard Rock/Heavy Rock
Носитель: CD (Compilation)
Страна-производитель диска (релиза): USA
Год издания: 2004
Издатель (лейбл): Sanctuary Records
Номер по каталогу: 06076 86324-2
Страна исполнителя (группы): USA
Аудиокодек: FLAC (*.flac)
Тип рипа: image+.cue
Битрейт аудио: lossless
Продолжительность: 48:02
Источник (релизер): Kantor1975/ Его CD и рип (выкладывается по просьбе)
Наличие сканов в содержимом раздачи: Art (Front, CD, Back)
Треклист:
01. DRFSR (Live) (2:44)
02. Family Picnic (4:36)
03. Downboys (Live) (3:46)
04. Feels Good (2:49)
05. Heaven (2:32)
06. Followed (3:35)
07. Cherry Pie (Live) (7:16)
08. Indian Giver (4:47)
09. Uncle Tom's Cabin (Live) (5:06)
10. Stronger Now (3:57)
11. Machine Gun (Live) (4:04)
12. A.Y.M. (2:49)

Лог создания рипа

Exact Audio Copy V1.3 from 2. September 2016
Отчёт EAC об извлечении, выполненном 14. мая 2017, 11:00
Warrant / Then And Now
Дисковод: ASUS DRW-2014S1T Adapter: 2 ID: 1
Режим чтения : Достоверность
Использование точного потока : Да
Отключение кэша аудио : Да
Использование указателей C2 : Нет
Коррекция смещения при чтении : 6
Способность читать области Lead-in и Lead-out : Нет
Заполнение пропущенных сэмплов тишиной : Да
Удаление блоков с тишиной в начале и конце : Нет
При вычислениях CRC использовались нулевые сэмплы : Да
Интерфейс : Установленный внешний ASPI-интерфейс
Выходной формат : Пользовательский кодировщик
Выбранный битрейт : 128 kBit/s
Качество : Высокий
Добавление ID3-тега : Нет
Утилита сжатия : C:\Program Files\Exact Audio Copy\Flac\flac.exe
Дополнительные параметры : -V -8 -T "Date=%year%" -T "Genre=%genre%" %source%
TOC извлечённого CD
Трек | Старт | Длительность | Начальный сектор | Конечный сектор
---------------------------------------------------------------------
1 | 0:00.00 | 2:43.57 | 0 | 12281
2 | 2:43.57 | 4:36.25 | 12282 | 33006
3 | 7:20.07 | 3:46.03 | 33007 | 49959
4 | 11:06.10 | 2:48.40 | 49960 | 62599
5 | 13:54.50 | 2:32.32 | 62600 | 74031
6 | 16:27.07 | 3:35.35 | 74032 | 90191
7 | 20:02.42 | 7:16.18 | 90192 | 122909
8 | 27:18.60 | 4:46.60 | 122910 | 144419
9 | 32:05.45 | 5:06.10 | 144420 | 167379
10 | 37:11.55 | 3:57.17 | 167380 | 185171
11 | 41:08.72 | 4:04.28 | 185172 | 203499
12 | 45:13.25 | 2:48.60 | 203500 | 216159
Характеристики диапазона извлечения и сообщения об ошибках
Выбранный диапазон
Имя файла D:\Warrant - Then And Now.wav
Пиковый уровень 100.0 %
Скорость извлечения 4.5 X
Качество диапазона 99.9 %
CRC теста BE073EF3
CRC копии BE073EF3
Копирование... OK
Ошибок не произошло
AccurateRip: сводка
Трек 1 точность не определена (достоверность 2) [84607999], AccurateRip вернул [8163C897] (AR v2)
Трек 2 точность не определена (достоверность 2) [6E7F33B2], AccurateRip вернул [6916B6CB] (AR v2)
Трек 3 точность не определена (достоверность 2) [915AC8A8], AccurateRip вернул [E70C1BAE] (AR v2)
Трек 4 точность не определена (достоверность 2) [FAF30BA2], AccurateRip вернул [5284930C] (AR v2)
Трек 5 точность не определена (достоверность 2) [4ACD902B], AccurateRip вернул [FFB1CF8F] (AR v2)
Трек 6 точность не определена (достоверность 2) [9B458E12], AccurateRip вернул [ED248FB4] (AR v2)
Трек 7 точность не определена (достоверность 2) [E3F64BD3], AccurateRip вернул [557ECB91] (AR v2)
Трек 8 точность не определена (достоверность 2) [9213D7AC], AccurateRip вернул [83BB6FF3] (AR v2)
Трек 9 точность не определена (достоверность 2) [FEDE994C], AccurateRip вернул [C6F967AC] (AR v2)
Трек 10 точность не определена (достоверность 2) [55D949F6], AccurateRip вернул [B7931148] (AR v2)
Трек 11 точность не определена (достоверность 2) [A07E9BD2], AccurateRip вернул [217106CB] (AR v2)
Трек 12 точность не определена (достоверность 2) [4717334C], AccurateRip вернул [8E4F7B86] (AR v2)
Ни один трек не прошёл проверки на точность
В вашей базе может быть иной вариант штамповки диска
Конец отчёта
---- CUETools DB Plugin V2.1.6
[CTDB TOCID: t44utqxfNt45GMLdIhuwP30CV5s-] found
Submit result: t44utqxfNt45GMLdIhuwP30CV5s- has been confirmed
Track | CTDB Status
1 | (1/1) Accurately ripped
2 | (1/1) Accurately ripped
3 | (1/1) Accurately ripped
4 | (1/1) Accurately ripped
5 | (1/1) Accurately ripped
6 | (1/1) Accurately ripped
7 | (1/1) Accurately ripped
8 | (1/1) Accurately ripped
9 | (1/1) Accurately ripped
10 | (1/1) Accurately ripped
11 | (1/1) Accurately ripped
12 | (1/1) Accurately ripped
==== Контрольная сумма отчёта 1217BDFAC260FDA15EB65F91ABB81FA4BFB92717C366FEB0B2824C2367EC86DD ====

Лог проверки качества

AUDIOCHECKER v2.0 beta (build 457) - by Dester - opdester@freemail.hu
~~~~~~~~~~~~~~~~~~~~~~~~~~~~~~~~~~
-=== НЕ РЕДАКТИРУЙТЕ ЭТОТ ФАЙЛ! ===-
Путь: ...\Warrant - Then And Now (2004)
1 -=- Warrant - Then And Now.flac -=- CDDA (100%)
69314724

Динамический диапазон [8]

foobar2000 1.2.9 / Dynamic Range Meter 1.1.1
log date: 2017-05-14 15:29:41
--------------------------------------------------------------------------------
Analyzed: Warrant / Then And Now
--------------------------------------------------------------------------------
DR Peak RMS Duration Track
--------------------------------------------------------------------------------
DR7 0.00 dB -8.20 dB 2:44 01-DRFSR (Live)
DR9 -0.28 dB -11.19 dB 4:36 02-Family Picnic
DR7 0.00 dB -8.01 dB 3:46 03-Downboys (Live)
DR7 -1.43 dB -11.36 dB 2:49 04-Feels Good
DR9 -1.42 dB -13.18 dB 2:32 05-Heaven
DR9 -0.32 dB -11.08 dB 3:35 06-Followed
DR8 0.00 dB -9.18 dB 7:16 07-Cherry Pie (Live)
DR9 -1.03 dB -11.68 dB 4:47 08-Indian Giver
DR7 -0.94 dB -9.90 dB 5:06 09-Uncle Tom's Cabin (Live)
DR13 -1.11 dB -16.36 dB 3:57 10-Stronger Now
DR8 -0.19 dB -8.81 dB 4:04 11-Machine Gun (Live)
DR9 -0.44 dB -11.16 dB 2:49 12-A.Y.M.
--------------------------------------------------------------------------------
Number of tracks: 12
Official DR value: DR8
Samplerate: 44100 Hz
Channels: 2
Bits per sample: 16
Bitrate: 995 kbps
Codec: FLAC
================================================================================
Доп. информация:

To download the file disable ad blocking, and reload the page.

disable adblock How to disable ad blocking?

Download by magnet link 342 MB Download Torrent

Login using:

Similar topics

(Heavy Metal / Hard Rock) Viken - Undead Rising - 2018, MP3, 320 kbps
 46 MB   0 | 0   09-Oct-18 00:50   2


   
Current time is: 16-Oct 09:07 :: All times are UTC ± 0