The Unity / The Unity
Жанр: Power Metal
Носитель: CD
Страна-производитель диска (релиза): Germany
Год издания: 2017
Издатель (лейбл): Steamhammer
Номер по каталогу: SPV 279272 CD
Страна исполнителя (группы): Germany
Аудиокодек: FLAC (*.flac)
Тип рипа: image+.cue
Битрейт аудио: lossless
Продолжительность: 58:39
Источник (релизер): My CD
Наличие сканов в содержимом раздачи: да
Треклист:
01. Rise And Fall 05:26
02. No More Lies 05:07
03. God Of Temptation 05:27
04. Firesign 05:18
05. Always Just You 06:02
06. Close To Crazy 03:30
07. The Wishing Well 05:47
08. Edens Fall 04:30
09. Redeemer 04:54
10. Super Distortion 01:03
11. Killer Instinct 05:52
12. Never Forget 05:40

Лог создания рипа

Exact Audio Copy V1.1 from 23. June 2015
EAC extraction logfile from 13. May 2017, 13:21
The Unity / The Unity
Used drive : HP DVD Writer 1170d Adapter: 1 ID: 1
Read mode : Secure
Utilize accurate stream : Yes
Defeat audio cache : Yes
Make use of C2 pointers : No
Read offset correction : 6
Overread into Lead-In and Lead-Out : No
Fill up missing offset samples with silence : Yes
Delete leading and trailing silent blocks : No
Null samples used in CRC calculations : Yes
Used interface : Native Win32 interface for Win NT & 2000
Used output format : User Defined Encoder
Selected bitrate : 1024 kBit/s
Quality : High
Add ID3 tag : No
Command line compressor : C:\Program Files (x86)\Exact Audio Copy\Flac\flac.exe
Additional command line options : -V -8 -T "Date=%year%" -T "Genre=%genre%" %source%
TOC of the extracted CD
Track | Start | Length | Start sector | End sector
---------------------------------------------------------
1 | 0:00.00 | 5:26.07 | 0 | 24456
2 | 5:26.07 | 5:07.11 | 24457 | 47492
3 | 10:33.18 | 5:27.05 | 47493 | 72022
4 | 16:00.23 | 5:18.34 | 72023 | 95906
5 | 21:18.57 | 6:02.18 | 95907 | 123074
6 | 27:21.00 | 3:30.00 | 123075 | 138824
7 | 30:51.00 | 5:47.09 | 138825 | 164858
8 | 36:38.09 | 4:30.62 | 164859 | 185170
9 | 41:08.71 | 4:54.51 | 185171 | 207271
10 | 46:03.47 | 1:03.00 | 207272 | 211996
11 | 47:06.47 | 5:52.56 | 211997 | 238452
12 | 52:59.28 | 5:40.01 | 238453 | 263953
Range status and errors
Selected range
Filename C:\EAC\Ungern666\The Unity - The Unity.wav
Peak level 97.6 %
Extraction speed 7.2 X
Range quality 100.0 %
Test CRC 55F2F25B
Copy CRC 55F2F25B
Copy OK
No errors occurred
AccurateRip summary
Track 1 not present in database
Track 2 not present in database
Track 3 not present in database
Track 4 not present in database
Track 5 not present in database
Track 6 not present in database
Track 7 not present in database
Track 8 not present in database
Track 9 not present in database
Track 10 not present in database
Track 11 not present in database
Track 12 not present in database
None of the tracks are present in the AccurateRip database
End of status report
---- CUETools DB Plugin V2.1.6
[CTDB TOCID: Pn.xEnipB13JkuedfUrlzqKSrQs-] found
Submit result: Pn.xEnipB13JkuedfUrlzqKSrQs- has been confirmed
Track | CTDB Status
1 | (5/5) Accurately ripped
2 | (5/5) Accurately ripped
3 | (5/5) Accurately ripped
4 | (5/5) Accurately ripped
5 | (5/5) Accurately ripped
6 | (5/5) Accurately ripped
7 | (5/5) Accurately ripped
8 | (5/5) Accurately ripped
9 | (5/5) Accurately ripped
10 | (5/5) Accurately ripped
11 | (5/5) Accurately ripped
12 | (5/5) Accurately ripped
==== Log checksum AB9CE45F8FF39D0BBA81B0C4E2CED25EF27B5C2E2084F472A230FF1AD18FAAA4 ====

Об исполнителе (группе)

http://www.metal-archives.com/bands/The_Unity/3540426583

Состав

Jogi Sweers (ex-Love.Might.Kill) - Bass
Michael Ehré (Gamma Ray, Nitewalk, ex-Love.Might.Kill, ex-Metalium, ex-Murder One, ex-Firewind, ex-Starchild) - Drums
Stefan Ellerhorst (ex-Crossroads, ex-Love.Might.Kill) - Guitars
Henjo Richter (Gamma Ray, ex-Rampage, ex-Avantasia, ex-Charon) - Guitars
Sascha Onnen (ex-Love.Might.Kill, ex-Mob Rules) - Keyboards
Jan Manenti (ex-Love.Might.Kill) - Vocals
- -Материал предназначен для ознакомления!

To download the file disable ad blocking, and reload the page.

disable adblock How to disable ad blocking?

Download by magnet link 492 MB Download Torrent

Login using:

Similar topics

(Power/Thrash Metal) Walkyria - The Invisible Guest - 2018, MP3, 320 kbps
 85 MB   0 | 0   14-Oct-18 04:15   0


   
Current time is: 23-Oct 07:16 :: All times are UTC ± 0