Battle Raider / Hard Flyer
Жанр: Heavy Metal
Носитель: CD
Страна-производитель диска (релиза): Mexico
Год издания: 2016
Издатель (лейбл): Kukulkan Records
Номер по каталогу: RHMM-04
Страна исполнителя (группы): Mexico
Аудиокодек: FLAC (*.flac)
Тип рипа: image+.cue
Битрейт аудио: lossless
Продолжительность: 00:47:13
Источник (релизер): Свой рип
Наличие сканов в содержимом раздачи: да
Треклист:
1 Lifeblood
2 Monstersteel
3 Honor code
4 Mystical jail
5 Celestial protector
6 Tarataro
7 Irons in my heart
8 Rampage

Лог создания рипа

Exact Audio Copy V1.0 beta 6 from 9. April 2015
EAC extraction logfile from 12. May 2017, 16:29
Battle Raider / Hard Flyer
Used drive : Optiarc DVD RW AD-7700S Adapter: 1 ID: 1
Read mode : Secure
Utilize accurate stream : Yes
Defeat audio cache : Yes
Make use of C2 pointers : No
Read offset correction : 48
Overread into Lead-In and Lead-Out : No
Fill up missing offset samples with silence : Yes
Delete leading and trailing silent blocks : No
Null samples used in CRC calculations : Yes
Used interface : Native Win32 interface for Win NT & 2000
Used output format : User Defined Encoder
Selected bitrate : 1024 kBit/s
Quality : High
Add ID3 tag : No
Command line compressor : C:\Program Files (x86)\Exact Audio Copy\FLAC\FLAC.EXE
Additional command line options : -V -8 -T "Date=%year%" -T "Genre=%genre%" %source%
TOC of the extracted CD
Track | Start | Length | Start sector | End sector
---------------------------------------------------------
1 | 0:00.00 | 4:22.55 | 0 | 19704
2 | 4:22.55 | 3:46.39 | 19705 | 36693
3 | 8:09.19 | 6:15.71 | 36694 | 64889
4 | 14:25.15 | 6:22.25 | 64890 | 93564
5 | 20:47.40 | 7:01.41 | 93565 | 125180
6 | 27:49.06 | 7:46.71 | 125181 | 160201
7 | 35:36.02 | 4:40.73 | 160202 | 181274
8 | 40:17.00 | 6:55.37 | 181275 | 212436
Range status and errors
Selected range
Filename C:\Users\Олег\Desktop\Battle Raider\Battle Raider - Hard Flyer.wav
Peak level 100.0 %
Extraction speed 4.3 X
Range quality 100.0 %
Test CRC D36929C2
Copy CRC D36929C2
Copy OK
No errors occurred
AccurateRip summary
Track 1 not present in database
Track 2 not present in database
Track 3 not present in database
Track 4 not present in database
Track 5 not present in database
Track 6 not present in database
Track 7 not present in database
Track 8 not present in database
None of the tracks are present in the AccurateRip database
End of status report
---- CUETools DB Plugin V2.1.6
[CTDB TOCID: 4dK68rT3GzlD66PAPAl5jbgD1Fk-] disk not present in database
Submit result: 4dK68rT3GzlD66PAPAl5jbgD1Fk- has been uploaded
==== Log checksum 9C1F3DBD7DEFEFB2F99F7894751E9927A36193E9D5DFF11F19BE897CE473B46B ====

Состав

Steve Scheepers - Vocals
Ryder Knightblair - Lead Guitars
Edd Raiderbass Thunder - Guitar Bass
Billy Brayden - Drums

To download the file disable ad blocking, and reload the page.

disable adblock How to disable ad blocking?

Download by magnet link 320 MB Download Torrent

Login using:

Similar topics

(Heavy Metal, Groove Metal) Blaxem - Who Cares - 2017, MP3, 320 kbps
 86 MB   0 | 0   26-May-17 18:27   0
(Heavy Metal/Progressive) Wine Guardian - Onirica - 2017, MP3, 320 kbps
 115 MB   0 | 0   26-May-17 18:27   0
(Blackened Heavy Metal) Ophicvs - Machine Gun Reaper - 2017, MP3, 320 kbps
 109 MB   0 | 0   26-May-17 18:27   0
(Heavy Metal) Cremator - The Coming Of War - 2017, MP3, 320 kbps
 114 MB   0 | 0   26-May-17 18:27   0


   
Current time is: 15-Oct 21:54 :: All times are UTC ± 0